#TITLE:RIGHT ON TIME;
#SUBTITLE:;
#ARTIST:Robbie Danzie;
#TITLETRANSLIT:;
#SUBTITLETRANSLIT:;
#ARTISTTRANSLIT:;
#GENRE:;
#CREDIT:;
#BANNER:RIGHT_ON_TIME_banner.png;
#BACKGROUND:RIGHT_ON_TIME.png;
#LYRICSPATH:;
#CDTITLE:;
#MUSIC:RIGHT ON TIME.ogg;
#OFFSET:-0.440000;
#SAMPLESTART:7.050000;
#SAMPLELENGTH:11.900000;
#LASTBEATHINT:208.999985;
#SELECTABLE:YES;
#BPMS:0.000000=136.000000
;
#STOPS:
;
#BGCHANGES:;
#KEYSOUNDS:;
#ATTACKS:;

//---------------dance-single - ----------------
#NOTES:
     dance-single:
     :
     Easy:
     4:
     0.207733,0.219173,0.158058,0.305578,0.000000,138.000000,123.000000,15.000000,29.000000,0.000000,0.000000,0.207733,0.219173,0.158058,0.305578,0.000000,138.000000,123.000000,15.000000,29.000000,0.000000,0.000000:
0000
0000
0000
0000
,
0000
0000
0000
0000
,
0000
0000
0000
0000
,
0000
0000
0000
0000
,
1000
0001
0010
0000
,
0001
1000
0010
0000
,
1000
0001
0100
0000
,
0001
0010
2002
3003
,
0100
0010
1000
0000
,
0010
0100
0001
0000
,
0010
0100
1000
0000
,
0011
0000
1000
0000
,
2020
0000
3030
0000
,
0220
0000
0330
0000
,
0022
0000
0033
0000
,
0202
0000
0303
0000
,
1000
0010
1000
0000
,
0100
1000
0001
0000
,
0100
0001
0010
0000
,
0001
0000
0000
0200
0000
0000
0300
0000
,
0010
1000
0100
0000
,
0010
0001
1000
0000
,
0001
1000
0010
0000
,
0100
0000
0000
0002
0000
0000
0003
0000
,
0010
0001
0100
0000
,
0010
0100
0001
0000
,
1000
0001
0100
0000
,
0220
0000
0330
0000
,
1000
0010
0100
0000
,
0010
1000
0100
0000
,
0010
0100
1000
0000
,
0001
1000
2002
3003
,
0100
0010
1000
0000
,
0010
0100
0001
0000
,
0010
0001
1000
0000
,
0010
0010
2020
3030
,
0100
0001
0010
0000
,
0001
1000
0100
0000
,
0010
0001
1000
0000
,
0001
0100
0002
0003
,
1000
0010
0100
0000
,
0010
0100
0001
0000
,
0010
0100
1000
0000
,
0001
1000
2002
3003
,
0001
0010
0100
0000
,
0010
0100
1000
0000
,
0010
1000
0001
0000
,
1010
0000
0001
0000
,
0220
0000
0330
0000
,
0022
0000
0033
0000
,
2200
0000
3300
0000
,
2020
0000
0000
0000
0000
3030
0000
0000
,
0001
0000
0000
0000
;

//---------------dance-single - ----------------
#NOTES:
     dance-single:
     :
     Medium:
     9:
     0.380844,0.438347,0.295041,0.263430,0.000000,253.000000,225.000000,28.000000,25.000000,0.000000,0.000000,0.380844,0.438347,0.295041,0.263430,0.000000,253.000000,225.000000,28.000000,25.000000,0.000000,0.000000:
0000
0000
0000
0000
,
0000
0000
0000
0000
,
0000
0000
0000
0000
,
0000
0000
0000
0000
0000
0000
0010
0100
,
0001
0000
0010
0001
0100
0000
0010
1000
,
0100
0000
1000
0010
0100
0000
1001
0000
,
0010
0000
1000
0001
0010
0100
1000
0000
,
1001
0101
2002
3003
,
0010
0000
1000
0001
0100
0000
0010
1000
,
0100
0000
1000
0100
0010
0000
0101
0000
,
0010
0000
1000
0001
0010
0100
1000
0000
,
2020
3030
0022
0033
,
0220
0000
0000
0000
0000
0330
0000
0000
,
2002
0000
0000
0000
0000
3003
0000
0000
,
0100
0100
0100
0100
,
2002
0000
0000
3003
,
0010
0000
1000
0001
0100
0001
0000
0000
,
0010
0000
0001
1000
0100
1000
0000
0000
,
0001
1000
0100
0000
1000
0010
0100
0000
,
0001
0000
0010
0002
0000
0000
1003
0000
,
1000
0000
0010
0100
0010
1000
0000
0000
,
0001
0000
0010
0001
1000
0001
0000
0000
,
0100
0000
0001
1000
0100
0010
0001
0000
,
1000
0000
0010
0100
0000
0000
1001
0000
,
0010
0000
0100
0001
0000
0010
0000
0001
,
1000
0000
0100
1000
0001
0000
0010
0000
,
0001
0100
0001
0100
0000
0010
0000
1000
,
0100
0000
0000
0001
0010
0000
0110
0000
,
1000
0001
1000
0001
0000
0000
0100
0000
,
0010
1000
0010
0000
0100
0000
0001
0000
,
0010
0001
0100
0010
0000
0000
1000
0000
,
0001
1000
0100
0010
0001
0000
0000
0000
,
0110
0000
0001
1000
0100
0000
1000
0010
,
0100
0000
0001
0010
0100
0000
1001
0000
,
0100
0000
0010
1000
0001
1000
0010
0000
,
1010
0101
0022
0033
,
1000
0000
0001
0010
0100
0000
1000
0010
,
0100
0000
0010
1000
0001
0000
1001
0000
,
0100
0010
1000
0000
0001
0010
0100
1000
,
0010
0100
0010
0100
0001
0000
1001
0000
,
0100
0000
0010
1000
0100
0000
1000
0010
,
0100
0000
0010
1000
0100
0000
0011
0000
,
0100
0000
0001
0010
0001
0100
0010
0000
,
1010
1001
2200
3300
,
0001
0000
0010
0001
1000
0000
0010
1000
,
0001
0000
0010
0001
1000
0000
0110
0000
,
0001
0100
0010
0000
0100
0010
1000
0100
,
0020
0031
2000
3100
,
2002
0000
0000
0000
0000
3003
0000
0000
,
0202
0000
0000
0000
0000
0303
0000
0000
,
2200
0000
0000
0000
0000
3300
0000
0000
,
0010
0100
0010
0100
0010
0100
0010
0000
,
1001
0000
0000
0000
;

//---------------dance-single - ----------------
#NOTES:
     dance-single:
     :
     Hard:
     15:
     0.754161,0.767107,0.284504,0.189669,0.626963,501.000000,474.000000,27.000000,18.000000,0.000000,0.000000,0.754161,0.767107,0.284504,0.189669,0.626963,501.000000,474.000000,27.000000,18.000000,0.000000,0.000000:
// measure 0
0000
0000
0000
0000
,  // measure 1
0000
0000
0000
0000
,  // measure 2
0000
0000
0000
0000
,  // measure 3
0001
1000
0001
1000
0001
1000
0001
1000
0001
1000
0001
1000
0010
0000
0100
0000
,  // measure 4
0001
0000
0010
0100
0010
0000
0001
0000
1000
0000
0010
0100
0010
0000
1000
0000
,  // measure 5
0001
0000
0010
0100
1000
0000
0001
0000
1000
0000
0010
0100
0001
0000
0010
0001
,  // measure 6
0100
0000
0010
1000
0100
0000
1000
0000
0001
0000
1000
0010
0100
0000
0001
0000
,  // measure 7
0012
0103
2010
3100
0220
0000
0330
0000
,  // measure 8
1000
0000
0001
0010
0001
0000
1000
0000
0010
0000
1000
0100
1000
0000
0001
0000
,  // measure 9
0010
0000
0001
0100
0001
0000
0010
0000
0100
0000
1000
0010
0100
0000
0010
1000
,  // measure 10
0001
0000
0010
0100
0010
0000
0001
0000
0100
0000
0010
1000
0010
0000
0100
0000
,  // measure 11
0102
0000
0000
0000
0013
0000
0000
0000
2010
0000
0000
0000
3100
1000
0010
0100
,  // measure 12
0001
0000
0010
0000
0001
0100
0000
0001
0000
0010
0001
0100
0010
0100
0010
0000
,  // measure 13
1000
0000
0100
0000
1000
0010
0000
1000
0000
0010
0100
0010
1000
0000
0100
0000
,  // measure 14
0010
0000
0100
0000
0010
0001
0000
0010
0000
0001
0100
0001
1000
0000
0100
0000
,  // measure 15
0010
0100
0010
0100
0010
0100
0010
0100
0010
0100
0010
0100
0010
0100
0010
0100
,  // measure 16
0001
0000
0010
0001
0100
0000
0010
0000
1000
0000
0100
0000
1100
0000
0000
0000
,  // measure 17
0010
0000
0100
0001
1000
0000
0010
0000
0100
0000
0001
0000
0011
0000
0000
0000
,  // measure 18
1000
0000
0001
0010
0100
0000
1000
0000
0010
0100
0001
0000
1000
0000
0100
0000
,  // measure 19
1001
0000
0010
0000
0001
0000
0101
0000
0000
0000
0010
0100
0010
0000
1000
0000
,  // measure 20
0100
1000
0010
0000
0100
0000
0001
0000
0010
0000
0001
0000
1001
0000
0000
0000
,  // measure 21
0100
0001
0010
0000
0100
0000
1000
0000
0010
0000
1000
0000
1100
0000
0000
0000
,  // measure 22
0010
1000
0001
0000
1000
0000
0010
0000
0100
0001
0010
0000
0100
0000
1000
0000
,  // measure 23
1001
0000
0010
0000
0001
0000
0100
0000
0010
1000
0010
1000
0001
0100
0001
0000
,  // measure 24
0010
0000
0100
1000
0001
0000
1000
0000
0010
0000
1010
0000
0000
0000
0100
0000
,  // measure 25
0001
0000
0010
0001
1000
0000
0100
0000
1000
0000
0001
0000
0010
0001
0100
0000
,  // measure 26
0010
0000
1000
0100
0010
0000
0100
0000
1000
0001
0100
0000
0010
0000
1000
0000
,  // measure 27
2100
0000
0000
0000
0000
0000
0001
0000
3001
0000
0000
0000
0010
0100
1000
0000
,  // measure 28
0010
0000
0100
0001
0010
0000
0001
0000
1000
0000
0010
0000
1001
0000
0000
0000
,  // measure 29
0100
0000
0001
1000
0100
0000
1000
0000
0010
0000
0100
0000
0001
1000
0100
0000
,  // measure 30
0010
0000
0010
0000
0100
0000
0100
0000
0010
0001
1000
0000
0010
0000
0100
0000
,  // measure 31
0001
0010
0001
0010
0100
1000
0100
0010
0002
0000
0000
0000
0003
0000
0000
0000
,  // measure 32
1010
0000
0100
0010
0100
0000
0001
0000
0010
0000
0001
1000
0001
0000
0100
0000
,  // measure 33
0010
0000
1000
0100
0010
0000
0001
0000
1000
0000
0010
0000
1000
0000
0001
0000
,  // measure 34
0011
0000
1000
0100
1000
0000
0001
0000
0010
0001
0100
0000
0010
0000
1000
0000
,  // measure 35
1002
0103
1002
0013
2002
0000
3003
0000
,  // measure 36
0011
0000
1000
0010
0100
0000
0001
0000
0010
0100
1000
0000
0001
0000
1000
0000
,  // measure 37
0010
0000
0100
0001
1000
0000
0010
0000
1000
0100
0010
0000
0001
0000
0100
0000
,  // measure 38
0001
0000
0010
0100
1000
0000
0010
0000
1000
0001
0010
0000
0100
0000
0010
0000
,  // measure 39
0001
0000
0001
0000
0101
0000
0001
0000
0010
0000
0000
0000
0001
1000
0010
0100
,  // measure 40
0001
0000
1000
0100
1000
0000
0001
0000
0010
0100
1000
0000
0100
0000
0010
0000
,  // measure 41
0001
0000
1000
0010
1000
0000
0001
0000
1000
0000
0100
1000
0010
0000
0100
0001
,  // measure 42
0010
0000
0001
1000
0100
0000
1000
0000
0010
0100
0001
0000
0010
0000
0001
0000
,  // measure 43
2100
3001
0120
1030
2002
0000
3003
0000
,  // measure 44
1000
0000
0100
1000
0010
0000
0100
0000
0001
0010
0100
0000
1000
0000
0010
0000
,  // measure 45
0100
0000
0001
1000
0100
0000
0010
0000
0001
0000
1000
0100
1000
0000
0001
0010
,  // measure 46
0001
0000
0010
0100
1000
0000
0010
0000
1000
0001
0100
0000
0010
0000
1000
0000
,  // measure 47
2100
0000
3001
0000
0010
0000
0001
0000
0201
0000
0310
0000
1000
0001
0010
0100
,  // measure 48
1000
0000
0010
0000
1000
0100
0000
1000
0000
0010
0100
0010
0100
0001
0010
0000
,  // measure 49
0001
0000
1000
0000
0100
0010
0000
0010
0000
0001
0010
0001
0100
0000
0010
0000
,  // measure 50
1000
0000
0001
0000
0010
0001
0000
0100
0000
0010
1000
0100
0010
0000
0001
0000
,  // measure 51
1000
0001
1000
0001
0010
0100
0010
0100
1000
0010
0100
0001
1000
0100
0010
0001
,  // measure 52
0100
0000
0000
0000
;
