#TITLE:RED ZONE (IIDX ver.);
#SUBTITLE:;
#ARTIST:Tatsh&NAOKI;
#TITLETRANSLIT:;
#SUBTITLETRANSLIT:;
#ARTISTTRANSLIT:;
#GENRE:;
#CREDIT:;
#BANNER:RED ZONE_banner.png;
#BACKGROUND:RED ZONE.png;
#LYRICSPATH:;
#CDTITLE:;
#MUSIC:RED ZONE (IIDX ver.).ogg;
#OFFSET:-0.430000;
#SAMPLESTART:29.520000;
#SAMPLELENGTH:15.000000;
#LASTBEATHINT:285.000000;
#SELECTABLE:YES;
#BPMS:0.000000=165.000000
;
#STOPS:
;
#BGCHANGES:;
#KEYSOUNDS:;
#ATTACKS:;

//---------------dance-single - ----------------
#NOTES:
     dance-single:
     :
     Easy:
     6:
     0.258650,0.329613,0.092849,0.222837,0.000000,195.000000,185.000000,10.000000,24.000000,0.000000,0.000000,0.258650,0.329613,0.092849,0.222837,0.000000,195.000000,185.000000,10.000000,24.000000,0.000000,0.000000:
0000
0000
0000
0000
,
0000
0000
0000
0000
,
0000
0000
0000
0000
,
0100
0000
0000
0100
0000
0000
0100
0000
,
0001
0010
0001
0000
,
1000
0010
1000
0000
,
0100
0010
0100
0000
,
0001
0000
1001
0000
,
0100
0010
1000
0000
,
0100
0010
0001
0000
,
1000
0001
0010
0000
,
0100
0000
0110
0000
,
2000
0000
3010
0100
,
0020
0000
1030
0001
,
0010
0000
0010
0000
,
0100
0010
1000
0001
,
2000
0000
3010
0100
,
0002
0000
0013
0100
,
1000
0001
1000
0001
,
0220
0000
0330
0000
,
1000
0010
0100
0010
,
1000
0000
1001
0000
,
0001
0010
0100
0010
,
0001
0000
1001
0000
,
0100
0010
1000
0001
,
0010
0001
1000
0000
,
0010
0100
0001
1000
,
0100
0010
0001
0000
,
2000
0000
3100
0001
,
0002
0000
0003
0000
,
2000
0000
3010
0001
,
0002
0000
0003
0000
,
0001
0000
0001
0100
,
2000
0000
3000
0000
,
0001
0000
1000
0000
,
0010
0100
0010
1000
,
0002
0000
0003
0000
,
0020
0000
0030
0000
,
0100
0000
0100
0000
,
1000
0001
1000
0001
,
2000
0000
3000
0000
,
0020
0000
0030
0000
,
0100
0000
0100
0000
,
2002
0000
3003
0000
,
0010
0100
0001
0100
,
0010
1000
1000
0000
,
0001
0010
0100
1000
,
0001
0100
0100
0000
,
0010
1000
0100
0010
,
0001
1000
1001
0000
,
1000
0010
0100
0001
,
0010
0100
0110
0000
,
0002
0000
0013
1000
,
2000
0000
3000
0000
,
2000
0000
3010
0001
,
0002
0000
0003
0000
,
2000
0000
3100
0001
,
0002
0000
1003
0000
,
0020
0000
0000
0000
,
0030
0000
0100
0010
,
1001
0000
0000
0000
,
1000
0100
1000
0010
,
0100
0001
0010
0000
,
0001
0010
0100
1000
,
0010
0100
0001
0000
,
0100
0010
1000
0010
,
0100
0001
0010
0000
,
0001
0010
0100
0010
,
0001
1000
0010
0000
,
0100
0000
0000
0100
0000
0000
0100
0000
,
0010
0000
0000
0010
0000
0000
0010
0000
,
1001
0000
0000
0000
;

//---------------dance-single - ----------------
#NOTES:
     dance-single:
     :
     Medium:
     12:
     0.627392,0.593304,0.194982,0.129988,0.255334,473.000000,452.000000,21.000000,14.000000,0.000000,0.000000,0.627392,0.593304,0.194982,0.129988,0.255334,473.000000,452.000000,21.000000,14.000000,0.000000,0.000000:
0000
0000
0000
0000
,
0000
0000
0000
0000
,
0000
0000
0000
0000
,
1000
0001
1000
0010
0100
0001
0010
0000
,
0001
0100
0010
0100
0001
1000
0100
0000
,
0010
0100
1000
0010
0100
0001
0020
0000
,
0031
0100
0010
1000
0100
0010
0001
0000
,
1000
0000
0000
0000
0000
0000
0000
0000
0000
0100
0000
0000
0000
0000
0000
0000
0000
0000
1000
0000
0000
0000
0000
0000
0100
0000
0000
0000
0000
0000
0010
0000
0000
0000
0000
0000
0100
0000
0000
0000
0010
0000
0000
0000
0100
0000
0000
0000
,
0010
0001
0100
0010
1000
0100
0010
0000
,
0001
0100
0010
1000
0010
0100
0001
0000
,
1000
0100
0010
0001
0100
0010
1000
0001
,
0000
1000
0000
0000
0001
0000
0000
0010
0000
0000
0010
0000
0100
0000
0000
0000
,
1000
0100
0010
0100
1000
0100
0010
0000
,
0001
0100
0010
0100
0001
0100
0010
0000
,
1000
0000
0000
0001
0000
0000
0010
0000
0000
0100
0000
0000
1000
0000
0000
0000
,
0001
0000
0000
1000
0000
0000
0010
0000
0000
0100
0000
0000
0001
0000
0000
0000
,
0100
0010
1000
0010
0100
0010
1000
0000
,
0001
0010
0100
0010
0001
0010
0100
0000
,
0010
0000
0000
0001
0000
0000
0100
0000
0000
0010
0000
0000
1010
0000
0000
0000
,
1100
0000
1000
0001
0000
0001
0010
0100
,
0010
0000
0001
0000
1000
0000
0001
0000
0100
0000
0010
1000
0000
0000
0001
0000
,
1000
0000
0100
0000
0010
0000
0100
0000
1000
0000
0001
0010
0000
0000
0001
0000
,
0100
0000
0010
0000
1000
0000
0001
0000
1000
0000
0100
0010
0000
0000
0100
0000
,
1000
0000
0001
0000
0010
0000
0100
0000
1000
0000
0000
0001
0000
0000
0100
0000
,
0010
0000
1000
0000
0100
0000
1000
0000
0010
0000
0100
0001
0000
0000
0010
0000
,
0001
0000
0100
0000
0010
0000
0100
0000
0001
0000
0010
0100
0000
0000
1000
0000
,
0001
0000
0010
0000
0100
0000
1000
0000
0010
0000
0100
0001
0000
0000
0010
0000
,
0001
1000
0100
0010
0100
2000
0000
3000
,
0001
0000
0010
0000
0100
0000
0000
1000
0000
0010
0000
0000
0100
0000
0010
0000
,
1000
0000
0100
0000
0000
0001
0000
0000
0100
0000
0000
2000
0000
0000
0000
0000
,
3010
0000
0100
0000
0001
0000
0000
0010
0000
0001
0000
0000
1000
0000
0010
0000
,
1000
0100
0010
0100
0010
0001
0200
0000
,
0301
0000
0010
0000
0001
0000
0000
1000
0000
0010
0000
0000
0100
0000
0001
0000
,
1000
0000
0000
0001
0000
0000
0010
0000
0000
0100
0000
0000
1000
0000
0000
0002
,
0000
0000
0100
0000
0000
0100
0000
0000
1000
0000
0000
1000
0000
0000
1003
0000
,
0000
0000
0100
0000
0010
0000
0000
0000
0011
0000
0000
0100
0000
0000
1000
0000
,
0020
0000
0100
0000
1030
0010
0000
1001
,
0000
1000
0100
0001
0100
1000
0001
0000
,
1200
0000
0010
0000
0301
0100
0000
1100
,
0000
1000
0010
0001
0010
1000
0001
0000
,
1001
0000
0110
0000
1000
0001
0010
0100
,
0000
0100
0010
0001
1000
0010
0100
0000
,
1010
0000
0101
0000
0001
0010
0001
1000
,
0000
1000
0010
0100
0001
0010
0110
0000
,
1000
0000
0010
0000
0100
0000
0010
0000
1000
0000
0001
0010
0000
0000
0001
0000
,
0100
0000
0010
0000
1000
0000
0100
0000
0010
0000
0100
1000
0000
0000
0001
0000
,
0100
0000
0001
0000
0010
0000
0001
0000
0100
0000
0010
1000
0000
0000
0100
0000
,
1000
0000
0100
0000
0010
0000
0001
0000
0010
0000
0100
1000
0000
0000
0010
0000
,
0100
0000
0001
0000
0010
0000
0001
0000
0100
0000
0010
1000
0000
0000
0100
0000
,
1000
0000
0100
0000
0010
0000
0100
0000
1000
0000
0001
0010
0000
0000
0001
0000
,
0100
0000
0010
0000
1000
0000
0010
0000
0100
0000
0001
1000
0000
0000
0001
0000
,
0010
0100
1000
0010
0100
0020
0000
0030
,
1000
0000
0100
0000
0010
0000
0000
0001
0000
1000
0000
0000
0010
0000
0100
0000
,
0001
0000
0010
0000
0000
0100
0000
0000
1000
0000
0000
2002
0000
0000
3003
0000
,
0100
0000
0010
0000
0001
0000
0000
1000
0000
0010
0000
0000
0100
0000
0010
0000
,
1000
0001
0010
0001
1000
0010
0200
0000
,
0301
0000
0100
0000
0010
0000
0000
1000
0000
0100
0000
0000
1000
0000
0001
0000
,
1000
0000
0000
0010
0000
0000
0100
0000
0000
0001
0000
0000
0010
0000
0000
0210
,
0000
0000
1000
0000
0000
1000
0000
0000
0010
0000
0000
0010
0000
0000
0310
0000
,
0002
0000
0000
0000
0003
0000
0000
0000
1010
0000
0000
0011
0000
0000
0101
0000
,
0200
0000
0000
0300
,
0010
0100
0010
1000
0010
0100
0001
0010
,
0001
1000
0100
0010
0001
0100
0010
0000
,
1000
0100
0010
0100
1000
0001
0010
0100
,
0010
0001
0100
0010
1000
0100
0010
0000
,
0001
0010
1000
0010
0001
0010
0001
1000
,
0100
0001
0100
1000
0001
1000
0010
0000
,
0100
0001
0010
0001
1000
0100
0010
0001
,
0100
0010
1000
0001
0010
0100
1000
0000
,
1001
0000
0000
0001
0000
0000
0011
0000
0000
0000
1000
0000
0010
0000
0100
0000
,
0001
0000
0000
1100
0000
0000
0110
0000
0000
0000
0001
0000
0100
0000
0010
0000
,
1010
0000
0000
0000
;

//---------------dance-single - ----------------
#NOTES:
     dance-single:
     :
     Hard:
     16:
     0.887369,0.856994,0.362110,0.111419,0.951700,669.000000,630.000000,39.000000,12.000000,0.000000,0.000000,0.887369,0.856994,0.362110,0.111419,0.951700,669.000000,630.000000,39.000000,12.000000,0.000000,0.000000:
// measure 0
0000
0000
0000
0000
,  // measure 1
0000
0000
0000
0000
,  // measure 2
0000
0000
0000
0000
,  // measure 3
1000
0001
1000
0001
1000
0000
0001
1000
0000
0001
1000
0000
0010
0100
0010
0000
,  // measure 4
1000
0100
0000
1000
0010
0000
0100
0001
0000
0010
0000
0001
1000
0001
1000
0000
,  // measure 5
0001
0010
0000
0001
0100
0000
0010
1000
0000
0100
1000
0000
0010
0100
0000
0010
,  // measure 6
1000
0001
0000
0010
0001
0000
1000
0100
0000
1000
0000
1000
0001
1000
0001
0000
,  // measure 7
0100
0000
0000
0010
0000
0000
0000
0000
0000
0100
0000
0000
0010
0000
0000
0000
0000
0000
1000
0000
0000
0000
0000
0000
0010
0000
0000
0000
0000
0000
0010
0000
0000
0000
0000
0000
0100
0000
0000
0000
0100
0000
0000
0000
0100
0000
0000
0000
,  // measure 8
0001
0010
0000
0001
1000
0000
0010
1000
0000
0100
0000
1000
0001
1000
0001
0000
,  // measure 9
0100
0010
0100
0000
0010
1000
0010
0000
1000
0100
1000
0000
0001
0010
0001
0000
,  // measure 10
1000
0010
0000
0100
0010
0000
1000
0100
0000
0010
0000
0001
1000
0001
1000
0000
,  // measure 11
0010
0100
0000
0000
0100
0000
0010
0100
0000
0010
0100
0000
0001
0010
0100
0000
,  // measure 12
1000
1100
0000
0101
0000
1100
0000
0101
,  // measure 13
0001
0011
0000
1010
0000
0011
0000
1010
,  // measure 14
1000
0001
0000
0100
0001
0000
0010
0100
0000
1000
0000
1000
0001
0010
0001
0000
,  // measure 15
0100
0010
0100
0000
0001
0010
0001
0000
1000
0100
1000
0000
0001
0100
0001
0000
,  // measure 16
1000
1010
0000
1100
0000
0011
0000
0101
,  // measure 17
0100
1001
0000
1010
0000
0100
0110
0100
,  // measure 18
0001
0010
0000
0001
1000
0000
0100
1000
0000
0010
0000
0010
0100
0001
1000
0000
,  // measure 19
0010
0000
0000
0000
0110
0000
0100
0000
0001
0010
0100
1000
0020
0000
0000
0000
,  // measure 20
1030
0000
0100
0000
0001
0000
0100
0000
1000
0001
0010
0001
0000
0100
0010
0000
,  // measure 21
1000
0000
0010
0000
0001
0000
0010
0000
1000
0100
0010
0100
0000
1000
0001
0000
,  // measure 22
0010
0000
0001
0000
0100
0000
0001
0000
0010
0100
1000
0100
0000
0000
0010
0000
,  // measure 23
0001
0100
0010
0100
0001
0000
1000
0000
0010
0000
0100
0010
0000
1000
0100
0000
,  // measure 24
1000
0000
0010
0000
0001
0000
0010
0000
1000
0100
0010
0100
0000
1000
0001
0000
,  // measure 25
0010
0000
0001
0000
1000
0000
0001
0000
0100
0010
0100
0001
0000
0010
0100
0000
,  // measure 26
1000
0000
0001
0000
0010
0000
0001
0000
0100
0010
1000
0010
0000
1000
0100
0000
,  // measure 27
0010
0001
1000
0001
0100
0000
0010
0000
0100
0010
2000
0000
0000
0000
3001
0000
,  // measure 28
0010
0000
0100
0000
1000
0000
0010
0100
0000
1000
0000
0100
0010
0000
0001
0000
,  // measure 29
0010
0000
1000
0000
0001
0010
0000
0001
1000
0000
0100
0020
0000
0000
0031
0000
,  // measure 30
0100
0000
0010
0000
1000
0000
0100
0010
0000
1000
0000
0010
0001
0000
0100
0000
,  // measure 31
0010
0100
0000
1000
0100
0000
0001
0010
0000
0100
0010
0000
0001
1000
0000
0000
,  // measure 32
1000
0000
0100
0000
0010
0000
1000
0010
0000
0100
0000
1000
0001
0010
0001
0000
,  // measure 33
1000
0100
0000
1000
0010
0000
1000
0001
0000
0100
0010
0000
1000
0000
0000
0002
,  // measure 34
0010
0000
0010
0000
0000
1000
0000
0000
0100
0000
0000
0010
0000
0000
0103
0000
,  // measure 35
0020
0000
1000
0000
0000
1000
0030
0000
1100
0000
0000
0101
0000
0000
0010
0000
,  // measure 36
1000
0000
0100
0000
0010
0000
0001
1000
0000
1000
0001
0000
0010
0000
0001
0000
,  // measure 37
0100
0000
0010
0000
0100
0000
0001
1000
0001
0000
0100
0000
0010
0000
1000
0000
,  // measure 38
0001
0000
0010
0000
1000
0000
0010
0001
0000
0001
1000
0000
0100
0000
1000
0000
,  // measure 39
0010
0110
0100
0001
0011
0010
0110
0000
,  // measure 40
1000
0100
1000
0001
0010
0100
1000
0010
,  // measure 41
0100
0010
1000
0001
1000
0100
0010
0000
,  // measure 42
0011
0000
1010
0000
0100
0010
0100
0001
,  // measure 43
1000
0001
1000
0001
1000
0001
1000
0001
0100
0010
0100
0010
0100
0000
0000
0000
,  // measure 44
0010
0000
0100
0000
0001
0000
0100
0000
0010
1000
0100
1000
0000
0001
0010
0000
,  // measure 45
0001
0000
0100
0000
0010
0000
0100
0000
0001
0010
0100
0010
0000
0001
1000
0000
,  // measure 46
0010
0000
0100
0000
0010
0000
1000
0000
0100
0010
0100
1000
0000
0001
1000
0000
,  // measure 47
0010
0100
0001
0100
0010
0000
1000
0000
0001
0010
0200
0000
0000
0000
1300
0000
,  // measure 48
0001
0000
0010
0000
0001
0000
1000
0000
0010
0100
0010
1000
0000
0100
1000
0000
,  // measure 49
0010
0000
1000
0000
0100
0000
0010
0000
0001
1000
0001
0100
0000
0010
0100
0000
,  // measure 50
0001
0000
0010
0000
1000
0000
0010
0000
0001
0100
0010
0100
0000
0001
0010
0000
,  // measure 51
0100
1000
0100
1000
0001
0000
0100
0000
0010
0100
0002
0000
0000
0000
0003
0000
,  // measure 52
0100
0000
0010
0000
1000
0000
0100
0010
0000
1000
0000
0010
0100
0000
1000
0000
,  // measure 53
0100
0000
1000
0000
0001
0100
0000
0001
1000
0000
0010
0200
0000
0000
0301
0000
,  // measure 54
0010
0000
0100
0000
1000
0000
0010
0100
0000
1000
0000
0100
0001
0000
0010
0000
,  // measure 55
0100
0010
0000
1000
0010
0000
0001
0100
0000
0010
0100
0000
0001
1000
0000
0000
,  // measure 56
0001
0000
0010
0000
0100
0000
0001
0100
0000
0010
0000
0001
1000
0100
1000
0000
,  // measure 57
0001
0010
0000
0001
0100
0000
0001
1000
0000
0010
0100
0000
0001
0000
0000
2000
,  // measure 58
0100
0000
0100
0000
0000
0001
0000
0000
0010
0000
0000
0100
0000
0000
3010
0000
,  // measure 59
0200
0000
1000
0000
0000
0001
0300
0000
0011
0000
0000
1010
0000
0000
0100
0000
,  // measure 60
2002
0000
0000
3003
,  // measure 61
0100
0000
0010
0000
1000
0100
1000
0000
0001
0000
0010
0000
0001
0100
0001
0000
,  // measure 62
1000
0000
0100
0000
0010
0100
0010
0000
0001
0000
0100
0000
0010
0100
0010
0000
,  // measure 63
1000
0100
0010
0000
0001
0100
0010
0000
1000
0010
0100
0000
0001
0010
0100
0000
,  // measure 64
0010
0001
0100
0000
0010
1000
0100
0000
1000
0001
0010
0001
1000
0000
0010
0000
,  // measure 65
1000
0100
1000
0100
1000
0000
0001
0000
0010
0001
0010
0001
0010
0000
0100
0000
,  // measure 66
1000
0010
0100
0010
1000
0000
0001
0000
0010
0100
1000
0100
0010
0000
0001
0000
,  // measure 67
0100
0000
0001
0000
0010
0100
0010
0000
0001
0000
1000
0000
0100
0010
0100
0000
,  // measure 68
1000
0000
0100
0000
0010
0001
1000
0001
0100
0000
0010
0000
1000
0001
1000
0000
,  // measure 69
1100
0000
0000
0011
0000
0000
1100
0000
0000
0000
0110
0000
1001
0000
0110
0000
,  // measure 70
1010
0000
0000
0101
0000
0000
0011
0000
0000
0000
1100
0000
1001
0000
1100
0000
,  // measure 71
1010
0000
0000
0000
;
