#TITLE:RAIN;
#SUBTITLE:;
#ARTIST:dj TAKA;
#TITLETRANSLIT:;
#SUBTITLETRANSLIT:;
#ARTISTTRANSLIT:;
#GENRE:TRANCE;
#CREDIT:;
#BANNER:RAIN_banner.png;
#BACKGROUND:RAIN.png;
#LYRICSPATH:;
#CDTITLE:;
#MUSIC:RAIN.ogg;
#OFFSET:-0.440000;
#SAMPLESTART:78.930000;
#SAMPLELENGTH:12.000000;
#LASTBEATHINT:264.001404;
#SELECTABLE:YES;
#BPMS:0.000000=159.000000
;
#STOPS:64.000000=5.660000,
157.000000=1.132000,
262.000000=1.132000
;
#BGCHANGES:;
#KEYSOUNDS:;
#ATTACKS:;

//---------------dance-single - ----------------
#NOTES:
     dance-single:
     :
     Easy:
     6:
     0.256426,0.318192,0.158381,0.140783,0.000000,204.000000,186.000000,18.000000,16.000000,0.000000,0.000000,0.256426,0.318192,0.158381,0.140783,0.000000,204.000000,186.000000,18.000000,16.000000,0.000000,0.000000:
0000
0000
0000
0000
,
0000
0000
0000
0000
,
0000
0000
0000
0000
,
0000
0000
0000
0000
,
0100
0001
1000
0000
,
0010
1000
0001
0000
,
1000
0001
0100
0010
,
0220
0000
0330
0000
,
0001
1000
0100
1000
,
0010
0100
0010
0000
,
1000
0001
0010
0100
,
0010
0100
1000
0000
,
0010
0100
0010
0000
,
1000
0001
1000
0000
,
0011
0000
1100
0000
,
0100
0001
1000
0010
,
0110
1000
0000
1000
,
0000
0001
0010
0001
,
0000
0010
0000
0010
,
0000
0100
1000
0001
,
0000
0100
0010
1000
,
0000
0001
0010
0100
,
0000
1000
0010
0100
,
0001
2002
0000
3003
,
0000
0010
0100
0001
,
0000
1000
0010
0100
,
0001
0010
0000
0010
,
0000
0001
1000
0100
,
1000
0010
0010
0100
,
0100
0001
1000
0001
,
0000
1000
1000
0100
,
0100
0010
0001
0010
,
1000
0220
0000
0330
,
0000
2002
0000
3003
,
0000
0220
0000
0330
,
0000
2002
0000
3003
,
0000
0010
1000
0010
,
0000
0100
0001
0100
,
0000
1000
0010
0100
,
0001
0110
1000
0001
,
0010
0001
1000
0000
,
1000
0001
0100
0010
,
0100
0001
1000
0000
,
1000
0010
0100
0001
,
1000
0100
0010
0100
,
1000
0000
0001
0001
,
0010
0001
2200
0000
,
3300
0000
0010
0100
,
0001
0100
0010
1000
,
0100
0000
0010
0100
,
1000
0010
0100
0001
,
0010
0000
0001
0010
,
0100
1000
0010
0100
,
1000
0000
0100
0010
,
0001
1000
0100
0010
,
0001
0000
0220
0000
,
0330
0000
1000
0000
,
1000
0001
0010
0000
,
0010
0001
0100
0000
,
0100
0010
1000
0001
,
1000
0000
0001
0010
,
0001
0000
0101
0000
,
1100
0000
1010
0000
,
0011
0000
1000
0100
,
0010
0001
1000
0010
,
0100
0001
0011
1100
;

//---------------dance-single - ----------------
#NOTES:
     dance-single:
     :
     Medium:
     11:
     0.496512,0.491751,0.167180,0.167180,0.008799,395.000000,376.000000,19.000000,19.000000,0.000000,0.000000,0.496512,0.491751,0.167180,0.167180,0.008799,395.000000,376.000000,19.000000,19.000000,0.000000,0.000000:
0000
0000
0000
0000
,
0000
0000
0000
0000
,
0000
0000
0000
0000
,
0000
0000
0000
0000
,
0001
0010
0001
1000
0000
0010
0100
0010
,
1000
0100
0010
0100
0000
1000
0001
0100
,
0010
1000
0001
0010
0000
0010
0100
1000
,
0001
1000
0010
0100
0001
0000
1001
0000
,
0100
0010
0100
0002
0000
1003
0100
0010
,
0100
1000
0010
0200
0000
0301
0010
0001
,
1000
0010
0100
0020
0000
1030
0100
0010
,
0001
1000
0010
0100
0001
0000
1100
0000
,
0010
1000
0001
0100
0000
0010
0100
0010
,
1000
0001
0010
0100
0000
0010
0100
1000
,
0001
1000
1100
0000
0001
1000
0101
0000
,
1000
0010
0100
0001
0010
0100
1000
0000
,
2002
3003
0000
0000
0010
0000
0000
0000
0000
0000
0010
0000
0100
0000
0010
0000
,
1000
0000
0001
0010
0100
0010
0001
0010
,
0100
0000
1000
0000
0100
1000
0001
0000
,
0100
0000
0010
1000
0100
1000
0010
0100
,
0010
0000
0100
0001
1000
0000
0001
1000
,
0010
0000
1000
0100
0010
0000
0100
1000
,
0001
0000
0100
0010
0100
0010
1000
0000
,
0011
0000
1000
0100
0001
0100
1000
0001
,
0100
0000
0010
1000
0000
1000
0001
0010
,
0100
0000
1000
0100
0010
0100
1000
0100
,
0010
0000
0001
1000
0000
1000
0010
0100
,
0001
0000
0010
0100
0010
0001
0010
0100
,
0010
0000
0001
1000
0100
0000
1000
0010
,
0100
0000
0001
0010
1000
0000
1000
0010
,
0001
0000
0100
0010
1000
0010
0100
0001
,
0010
0000
2200
0000
0000
0000
0000
3300
,
0000
0012
1000
0103
,
0000
2010
0001
3100
,
0000
0210
1000
0310
,
0000
0021
0100
0031
,
0000
0000
1000
0100
0001
0000
0001
0100
,
1000
0000
1000
0010
0001
0000
0001
0010
,
1000
0000
0001
0010
0100
1000
0010
0100
,
0001
0000
0000
0000
0220
0330
0000
0000
1000
0000
0100
0000
0000
0000
0100
0000
,
1000
0010
0100
0000
0001
0010
0100
0010
,
0001
0010
0100
0000
1000
0001
0100
0000
,
0010
1000
0001
0000
1000
0001
0100
0001
,
1000
0001
0100
0000
0010
1000
0100
0000
,
1000
0100
0010
0000
0100
0010
0001
0000
,
0010
0001
1000
0000
0010
1000
0100
0010
,
0001
1000
0010
0000
1000
0010
0001
0010
,
1000
0001
1001
0000
0100
0010
0000
0010
,
1000
0100
0010
0000
0001
1000
0010
0100
,
0010
1000
0001
0000
0010
0100
1000
0000
,
0001
0010
0100
0000
0010
0001
0100
0010
,
0100
0001
1000
0000
0010
0100
0001
1000
,
0100
0010
0001
0000
0001
1000
0010
0100
,
0001
1000
0100
0000
0010
0100
0001
0100
,
1000
0010
0010
0000
0100
0001
0100
1000
,
0100
0010
0010
0000
1010
0000
1200
0000
,
0000
1000
1300
0000
0001
0010
0100
2000
,
0000
0001
3001
0000
0100
0010
1000
0000
,
0001
0010
0100
0000
0010
0001
1000
0010
,
0000
0010
0100
0000
0001
0100
0010
2000
,
0000
0001
3001
0000
0100
0010
1000
0200
,
0000
0000
0010
0000
0310
0000
0000
0000
0001
0000
0000
0011
0000
0000
0000
0000
,
1000
0000
0000
1010
0000
0000
0000
0000
0100
0000
0001
0000
1000
0000
0000
0000
,
0010
1000
0001
0000
1000
0100
0010
0000
,
0001
0100
1000
0100
0001
0010
0100
1000
,
0010
0000
0100
0000
0001
0000
1000
0000
2020
3030
0000
0000
0011
0000
0000
0000
;

//---------------dance-single - ----------------
#NOTES:
     dance-single:
     :
     Hard:
     15:
     0.706429,0.694237,0.131984,0.079190,0.523537,562.000000,547.000000,15.000000,9.000000,0.000000,0.000000,0.706429,0.694237,0.131984,0.079190,0.523537,562.000000,547.000000,15.000000,9.000000,0.000000,0.000000:
// measure 0
0000
0000
0000
0000
,  // measure 1
0000
0000
0000
0000
,  // measure 2
0000
0000
0000
0000
,  // measure 3
0000
0000
0000
0000
,  // measure 4
0100
0000
0010
0000
1000
0000
0001
1000
0000
0000
1000
0000
0010
0000
0100
0001
,  // measure 5
0000
0000
0001
0000
0010
0000
0100
1000
0000
0000
0001
0000
0100
0000
0010
0000
,  // measure 6
1000
0001
0100
0001
1000
0000
0010
0000
0100
0000
0100
0000
0010
1000
0001
0000
,  // measure 7
0010
0000
0001
0000
1000
0000
0010
0100
0000
0000
0100
0000
0001
0010
0100
0000
,  // measure 8
1000
0000
0010
0000
0100
0000
0010
1000
0000
0000
1000
0000
0001
0000
0010
0001
,  // measure 9
0000
0000
0001
0000
0100
0000
0010
1000
0000
0000
1000
0000
0010
0100
0010
0000
,  // measure 10
1000
0000
0001
0000
0010
0000
0001
0100
0000
0000
0010
0000
1000
0000
0100
1000
,  // measure 11
0000
0000
0001
0000
1000
0000
0010
0100
0000
0000
0001
0000
1000
0100
0010
0000
,  // measure 12
0001
0000
0010
0000
1000
0000
0010
0001
0000
0000
0001
0000
1000
0100
1000
0000
,  // measure 13
0010
0000
1000
0000
0001
0000
0010
0001
0000
0000
0001
0000
0010
0100
1000
0000
,  // measure 14
0001
0000
0100
0000
0010
0100
0010
0000
1000
0000
0100
0000
0010
0100
0010
0000
,  // measure 15
0001
0000
0010
0000
0001
1000
0010
0000
0100
0001
1000
0001
0100
0000
0010
0000
,  // measure 16
2020
3030
0000
0000
0001
0000
0010
0000
0100
0000
0010
0000
0001
0000
1000
0000
,  // measure 17
0100
0000
1000
0000
0010
0100
0000
0010
0100
0000
0001
0010
0000
0001
0010
0000
,  // measure 18
0100
1000
0010
0000
0100
0000
0100
0010
0100
0000
0001
0000
1000
0010
0100
0000
,  // measure 19
0001
0000
1000
0000
0001
0010
0000
0010
0100
0000
1000
0010
0000
0010
0100
0000
,  // measure 20
0001
1000
0001
0000
0100
0000
0010
0000
1000
0100
1000
0000
0001
0000
0010
0000
,  // measure 21
1000
0000
0010
0000
0001
0000
0100
0000
0010
1000
0100
0000
1000
0000
0100
0000
,  // measure 22
0001
0100
1000
1000
0001
0001
0100
0100
,  // measure 23
0010
0100
0010
0000
1000
0000
0001
0010
0100
0000
0010
0000
0001
0000
1000
0000
,  // measure 24
0101
0000
0010
1000
0100
1000
0001
0010
,  // measure 25
0100
0000
0010
0000
0001
1000
0000
0010
1000
0000
0001
0010
0000
0001
0100
0000
,  // measure 26
0010
0100
0010
0000
1000
0000
0100
0010
0100
0000
1000
0000
0001
0010
0001
0000
,  // measure 27
1000
0000
0010
0000
0100
0010
0000
1000
0010
0000
0100
0001
0000
0100
0010
0000
,  // measure 28
1000
0100
0010
0000
0001
0000
0010
0001
0010
0000
0100
0000
1000
0000
0100
0000
,  // measure 29
0001
0100
1000
0001
0010
1000
0010
0001
,  // measure 30
1000
0010
0100
0010
0100
0001
1000
1000
,  // measure 31
0001
0010
0001
0000
0100
0000
0100
0000
0001
0010
0100
1000
0010
0000
0100
0000
,  // measure 32
0101
0000
0012
0010
0010
0000
1003
0000
,  // measure 33
0000
0000
2010
0010
0010
0000
3001
0000
,  // measure 34
0000
0000
0102
0100
0100
0000
1003
0000
,  // measure 35
0000
0000
2100
0100
0100
0000
3001
0000
,  // measure 36
0000
0000
0100
0010
1010
0000
1000
0001
,  // measure 37
0011
0000
0001
0100
1100
0000
0100
0010
,  // measure 38
1010
0000
0100
0001
0010
1000
0010
0100
,  // measure 39
1000
0001
1000
0001
1000
0000
0000
0000
0010
0000
0001
0000
1000
0000
0001
0000
,  // measure 40
0100
0000
0010
0000
1000
0000
0100
0000
0010
0001
0000
0100
0010
0000
1000
0100
,  // measure 41
0000
0010
0001
0000
1000
0010
1000
0000
0001
0000
0010
0001
0010
0000
0100
0000
,  // measure 42
1000
0100
1000
0000
0100
0000
0010
0000
0100
1000
0000
0001
1000
0000
0010
0100
,  // measure 43
0000
0001
0100
0000
0010
1000
0001
0000
0010
0000
0100
1000
0100
0000
1000
0000
,  // measure 44
0010
0100
0001
1000
0001
1000
0100
0010
,  // measure 45
0001
0000
0010
0000
1000
0000
0010
0000
0001
1000
0000
1000
0001
1000
0000
1000
,  // measure 46
0010
0000
0010
0000
0100
0010
0100
0010
1000
0000
0001
1000
0100
0000
0010
0000
,  // measure 47
0100
1000
1100
0000
0001
0100
0010
0100
,  // measure 48
0001
0000
0010
0000
0100
0000
1000
0000
0010
0100
0000
0001
0100
0000
0010
1000
,  // measure 49
0000
0100
1000
0000
0010
0100
0001
0000
1000
0000
0001
1000
0100
0000
1000
0000
,  // measure 50
0001
1000
0010
0000
0100
0000
0010
0000
1000
0100
0000
1000
0010
0000
0100
0001
,  // measure 51
0000
0010
0001
0000
1000
0001
1000
0000
0001
0000
0010
0100
1000
0000
0010
0000
,  // measure 52
0100
0000
0001
0000
1000
0000
0100
0000
1000
0000
0010
0100
0001
0000
1000
0000
,  // measure 53
0100
0000
0001
0000
0100
0000
1000
0000
0010
0100
0000
0100
0010
0100
0000
0100
,  // measure 54
0001
0000
0001
0000
1000
0010
1000
0010
0100
0000
0010
0000
1000
0001
0010
0001
,  // measure 55
1000
0000
0010
0000
0110
0000
0000
0000
0001
0000
0010
0001
0020
0000
0000
0000
,  // measure 56
0000
0000
0100
0000
0100
0000
0130
0000
1000
0000
0001
1000
0001
0000
0100
0010
,  // measure 57
0100
0000
0001
0000
0010
0000
0100
0000
1000
0000
0010
1000
0010
0000
0100
0000
,  // measure 58
0001
0010
0001
0000
1000
0000
0100
0000
0001
0000
0100
0000
1000
0000
0010
0000
,  // measure 59
0000
0000
0010
0000
0101
0000
0000
0000
1000
0000
0001
0010
0100
0000
0010
0000
,  // measure 60
0001
0000
1000
0010
0100
0000
0010
0000
1000
0000
0010
0000
0001
0000
0020
0000
,  // measure 61
0000
0000
1030
0000
0001
0000
1000
0000
0001
0000
0000
0100
0001
0000
1000
0000
,  // measure 62
0010
0000
1000
0100
0000
0000
0010
0000
0001
0000
1000
0010
0000
0000
1000
0100
,  // measure 63
0010
0000
0001
1000
0001
0000
0100
0000
0010
0000
0010
0000
1000
0000
1000
0000
,  // measure 64
0001
0000
1000
0000
0100
0010
0100
0010
1000
0000
0001
0010
0100
0000
0010
0100
,  // measure 65
1000
0000
0010
0100
0001
0000
1000
0001
0200
0300
0000
0000
0110
0000
0000
0000
;
