#TITLE:QUAKE;
#SUBTITLE:;
#ARTIST:Polyphonix;
#TITLETRANSLIT:;
#SUBTITLETRANSLIT:;
#ARTISTTRANSLIT:;
#GENRE:;
#CREDIT:;
#BANNER:QUAKE_banner.png;
#BACKGROUND:QUAKE_bg.png;
#LYRICSPATH:;
#CDTITLE:;
#MUSIC:QUAKE.ogg;
#OFFSET:-0.190000;
#SAMPLESTART:31.570000;
#SAMPLELENGTH:12.000000;
#LASTBEATHINT:268.500000;
#SELECTABLE:YES;
#BPMS:0.000000=130.000000
,180.000000=132.000000
,183.000000=137.000000
,188.000000=142.000000
,192.000000=148.000000
,196.000000=150.000000
;
#STOPS:
;
#BGCHANGES:;
#KEYSOUNDS:;
#ATTACKS:;

//---------------dance-single - ----------------
#NOTES:
     dance-single:
     :
     Easy:
     6:
     0.230451,0.271603,0.123456,0.197529,0.000000,196.000000,181.000000,15.000000,24.000000,0.000000,0.000000,0.230451,0.271603,0.123456,0.197529,0.000000,196.000000,181.000000,15.000000,24.000000,0.000000,0.000000:
0000
0000
0000
0000
,
0000
0000
0000
0000
,
0000
0000
0000
0000
,
0000
0000
0000
0000
,
0000
0000
0000
0000
,
1000
0100
1000
0000
,
0001
0100
0001
0000
,
0010
0100
0010
0000
,
0100
1000
1001
0000
,
0010
0010
0010
0000
,
1000
1000
1000
0000
,
0001
0001
0001
0000
,
0100
0100
0100
0000
,
0001
0100
0010
0000
,
1000
0100
0010
0000
,
0001
1000
0010
0100
,
2002
0000
3003
0000
,
0100
0010
0100
0000
,
0010
0100
0010
0000
,
1000
0100
1000
0000
,
0001
0010
2002
3003
,
1000
0010
1000
0000
,
0010
1000
0010
0000
,
0100
0010
0100
0000
,
0002
0000
1003
0100
,
2020
3030
0100
0000
,
0001
0010
0100
0000
,
1000
0100
0010
0000
,
0001
1000
2002
3003
,
0100
0001
0010
0000
,
0100
1000
0010
0000
,
1000
0100
0010
0000
,
0002
0000
0100
0103
,
0020
0000
0000
0030
2000
0000
0000
3000
,
0200
0000
0000
0300
0002
0000
0000
0003
,
0010
0100
1000
0000
,
0010
0100
0001
0000
,
1000
0100
1100
0000
,
0001
0010
0011
0000
,
0100
0010
0110
0000
,
1000
0001
0010
0100
,
2000
0000
0010
3010
,
0200
0000
0001
0301
,
0002
0000
0013
0000
,
0200
0000
1300
0000
,
0010
0000
0100
0000
,
0001
0000
1000
0000
,
0001
0010
0100
1000
,
0220
0000
0330
0000
,
1000
0100
1000
0010
,
1000
0001
0010
0000
,
0001
0100
0001
0010
,
0100
1000
2002
3003
,
0100
0010
1000
0100
,
0010
0001
0100
0000
,
0001
0010
0100
0010
,
0001
0100
1000
0100
,
0010
0100
0101
0000
,
1000
0010
1100
0000
,
0010
1000
0100
0000
,
0010
0001
0100
0010
,
1000
0100
1001
0000
,
0010
0100
1001
0000
,
0100
0001
0010
0001
,
1000
0100
0010
0001
,
2002
0000
0000
0000
,
3003
0000
0000
0000
;

//---------------dance-single - ----------------
#NOTES:
     dance-single:
     :
     Medium:
     11:
     0.436210,0.434564,0.255142,0.106995,0.098765,371.000000,340.000000,31.000000,13.000000,0.000000,0.000000,0.436210,0.434564,0.255142,0.106995,0.098765,371.000000,340.000000,31.000000,13.000000,0.000000,0.000000:
// measure 0
0000
0000
0000
0000
,  // measure 1
0000
0000
0000
0000
,  // measure 2
0000
0000
0000
0000
,  // measure 3
1000
0000
0000
0000
0100
0000
0000
1000
0000
0000
0001
0000
0100
0000
0000
0000
,  // measure 4
0010
0000
0100
0000
0001
0000
0000
1000
0000
0010
0000
0010
0000
0000
0000
0000
,  // measure 5
1001
0000
0000
0000
0010
0000
0000
0001
0000
0000
0100
0000
0010
0000
0000
0000
,  // measure 6
1000
0000
0100
0000
0010
0000
0000
0001
0000
0100
0000
0100
0000
0000
0000
0000
,  // measure 7
0110
0000
0000
0000
1000
0000
0000
0001
0000
0000
0010
0000
0100
0000
0000
0000
,  // measure 8
1000
0000
0001
0000
1000
0000
0000
0010
0000
0100
0000
0100
0000
0000
0000
0000
,  // measure 9
1001
0000
0000
0000
0010
0000
0000
1000
0000
0000
0001
0000
0100
0000
0000
0000
,  // measure 10
0011
0000
0000
0000
1000
0000
0000
0100
0000
0000
0010
0000
0001
0000
0000
0000
,  // measure 11
1010
0000
0000
0000
0100
0000
0000
0010
0000
0000
1000
0000
0100
0000
0000
1000
,  // measure 12
0000
0001
0100
0010
1000
0000
0101
0000
,  // measure 13
0010
0100
0010
0000
1000
0100
1000
0000
,  // measure 14
0001
0010
0001
0000
0100
0010
0100
0000
,  // measure 15
0001
0010
0100
0010
0001
1000
0010
0100
,  // measure 16
0020
0000
0030
0110
,  // measure 17
1001
0000
1000
0100
1000
0010
1000
0000
,  // measure 18
0001
0010
0001
1000
0001
0010
0001
0000
,  // measure 19
0100
0001
0100
0010
0100
0001
0100
0000
,  // measure 20
0010
1000
0100
1000
0020
0000
0130
0000
,  // measure 21
1010
0000
1000
0100
0010
0100
1000
0000
,  // measure 22
0001
0100
0010
0100
0001
0000
0010
0000
,  // measure 23
0001
0100
1000
0000
1000
0100
0001
0000
,  // measure 24
1000
0000
0010
0000
0100
0000
0000
0010
0000
0000
0100
0000
0001
0000
0000
0000
,  // measure 25
0011
0000
1000
0010
0100
0010
1000
0000
,  // measure 26
1100
0000
0001
0100
0010
0100
0001
0000
,  // measure 27
1001
0000
0100
0010
1000
0001
0010
0000
,  // measure 28
0001
0100
0010
1000
0200
0000
1300
0000
,  // measure 29
1010
0000
0100
0010
1000
0100
0010
0000
,  // measure 30
0001
0100
0010
0100
0001
0010
0100
0000
,  // measure 31
1000
0010
0001
0000
0001
0010
1000
0000
,  // measure 32
0010
0000
0100
0000
0010
0000
0000
1000
0000
0000
0001
0000
0010
0000
0000
0000
,  // measure 33
1001
0000
0000
0000
0100
0000
0000
0010
0000
0000
0100
0000
0100
0000
0000
0000
,  // measure 34
0001
0010
0100
1000
,  // measure 35
0010
0000
0000
0000
0100
0000
0000
0001
0000
0000
0010
0000
0010
0000
0000
0000
,  // measure 36
0001
1000
0100
0010
,  // measure 37
0002
0100
0010
0103
,  // measure 38
2010
0100
0010
3100
,  // measure 39
1000
0010
0100
0000
0001
0010
0100
0000
,  // measure 40
1000
0001
0010
0100
1000
0000
1001
0000
,  // measure 41
0110
0000
0000
0000
0001
0000
0000
1000
0000
0000
0100
0000
1000
0000
0000
0000
,  // measure 42
1001
0000
0000
0000
0100
0000
0000
0010
0000
0000
0100
0000
0001
0000
0000
0000
,  // measure 43
0011
0000
0000
0000
1000
0000
0000
0100
0000
0000
0010
0000
0100
0000
0000
1000
,  // measure 44
0000
0001
0100
0000
0010
0000
0110
0000
,  // measure 45
1000
0100
1000
0000
0001
0100
0001
0000
,  // measure 46
1000
0010
1000
0000
0001
0000
0010
0000
,  // measure 47
0001
1000
0100
0010
,  // measure 48
2002
0000
0000
3003
,  // measure 49
0110
0000
0100
0000
0010
0100
0010
0000
,  // measure 50
1000
0100
1000
0000
0001
0010
0001
0000
,  // measure 51
1000
0000
1100
0000
0001
0100
0001
0000
,  // measure 52
0010
0001
1000
0001
0020
0000
0130
0000
,  // measure 53
0011
0000
0001
0000
0100
0010
0100
0000
,  // measure 54
0001
0010
0001
0000
1000
0100
1000
0000
,  // measure 55
0010
0000
0110
0000
1000
0100
0010
0000
,  // measure 56
0001
0100
0001
0100
0010
1000
0010
0000
,  // measure 57
1010
0000
1100
0000
1000
0010
1000
0000
,  // measure 58
0010
0100
0010
0100
0002
0000
0013
0000
,  // measure 59
0001
0000
0011
0000
0100
0010
0100
0000
,  // measure 60
0010
1000
0100
1000
0020
0000
0130
0000
,  // measure 61
0001
0000
1001
0000
1000
0100
0010
0000
,  // measure 62
0001
0100
0010
0100
0002
0000
0013
0000
,  // measure 63
0100
0000
1001
0000
0100
0010
1000
0000
,  // measure 64
0100
1000
0010
0100
0001
0010
0100
0000
,  // measure 65
2002
0000
0000
0000
,  // measure 66
3003
0000
0000
0000
;

//---------------dance-single - ----------------
#NOTES:
     dance-single:
     :
     Hard:
     15:
     0.699583,0.714192,0.230451,0.246912,0.823039,595.000000,567.000000,28.000000,30.000000,0.000000,0.000000,0.699583,0.714192,0.230451,0.246912,0.823039,595.000000,567.000000,28.000000,30.000000,0.000000,0.000000:
// measure 0
0000
0000
0000
0000
,  // measure 1
0000
0000
0000
0000
,  // measure 2
0000
0000
0000
0000
,  // measure 3
0110
0000
0000
0000
0001
0010
0000
0200
0000
0000
0310
0000
0000
0100
1000
0000
,  // measure 4
0010
0000
0100
0000
0001
0100
0000
1000
0000
0100
0000
0010
0000
1000
0100
0000
,  // measure 5
0110
0000
0000
0000
0001
1000
0000
0200
0000
0000
0310
0000
0000
0010
0100
1000
,  // measure 6
0001
0000
0100
0000
0010
0100
0000
0001
0000
0010
0000
1001
0000
0100
0010
0000
,  // measure 7
0100
0000
1000
0000
0010
0001
0000
0020
0000
0000
0130
0000
0000
0010
0100
0001
,  // measure 8
0010
0000
0100
0000
1000
0100
0000
0001
0000
0100
0000
1000
0000
0001
1000
0000
,  // measure 9
1010
0000
0000
0000
0100
0001
0100
0002
0000
0000
0013
0000
0000
0100
1000
0100
,  // measure 10
2000
0000
0000
0000
3001
0100
0001
0200
0000
0000
0310
0000
0000
0010
1000
0100
,  // measure 11
0020
0000
0000
0000
0031
0100
0000
0010
0000
0000
1000
0000
0100
0010
0000
0001
,  // measure 12
0000
0000
0100
0000
1000
0000
0100
0000
0001
0000
0010
0100
1000
0000
0000
0000
,  // measure 13
0010
0010
0100
0100
0001
0001
1000
1000
,  // measure 14
0001
0001
0010
0010
0100
0100
1000
1000
,  // measure 15
0001
0010
0001
0010
0100
1000
0100
1000
0010
0100
0010
0100
0010
0000
1000
0000
,  // measure 16
1000
0001
0000
1000
0001
0000
0100
0010
0100
0000
0001
0000
0011
0000
0000
0000
,  // measure 17
1100
0000
0000
0000
0010
0100
0000
0001
0010
0100
0000
1000
0010
0000
0100
0000
,  // measure 18
0010
0000
1000
0000
0100
1000
0000
0001
0100
0010
0000
0100
0010
1000
0001
0000
,  // measure 19
0010
0000
0100
0000
1000
0100
0000
0010
0100
1000
0000
0100
0010
0000
0001
0000
,  // measure 20
1000
0000
1000
0000
0001
0010
0000
0001
0100
0010
0100
0010
1000
0000
0100
0000
,  // measure 21
0010
0000
0001
0000
0100
0001
0000
0010
0001
0010
0000
0001
0100
0000
0010
0000
,  // measure 22
1000
0000
0100
0000
1000
0010
0000
1000
0100
1000
0000
0001
0100
0010
1000
0000
,  // measure 23
0001
0000
0010
0000
0001
0100
0000
0100
0001
0010
0000
0001
1000
0000
0010
0000
,  // measure 24
0100
0000
0100
0000
0001
0010
0000
1000
0000
0010
0000
0001
0000
0100
0010
0000
,  // measure 25
2002
0000
3003
0000
0100
0001
0000
0010
0100
1000
0000
0100
0010
0000
0001
0000
,  // measure 26
1000
0000
0010
0000
1000
0100
0000
0010
0001
0100
0000
0010
0100
0010
1000
0000
,  // measure 27
0001
0000
0100
0000
0010
1000
0000
1000
0100
0010
0000
0100
1000
0000
0001
0000
,  // measure 28
0010
0000
1000
0000
0010
0001
0000
1000
0010
0100
0010
0100
0001
0000
0010
0000
,  // measure 29
0001
0000
1000
0000
0100
0010
0000
0010
0100
1000
0000
0001
0100
0000
0010
0000
,  // measure 30
1000
0000
0001
0000
0010
0100
0000
0100
1000
0010
0000
0010
0100
0001
0010
0000
,  // measure 31
0100
0000
1000
0000
0010
1000
0000
0100
1000
0010
0000
1000
0001
0000
0010
0000
,  // measure 32
0001
0000
0001
0000
1000
0010
0000
0100
0010
0100
0010
1000
0000
0000
0001
0000
,  // measure 33
0010
0000
0200
0000
0000
2300
0000
3002
0000
0000
0023
0000
0000
1030
0000
0000
,  // measure 34
0010
0000
0200
0000
0000
2300
0000
3002
0000
0000
0203
0000
0000
1300
0000
0000
,  // measure 35
0100
0000
0010
0000
1000
0200
0000
0320
0000
0000
0031
0000
0000
1001
0000
0000
,  // measure 36
0100
0000
0001
0000
0010
0100
0000
2000
0000
0000
3200
0000
0000
0302
0000
0000
,  // measure 37
0103
0000
1000
0000
0010
0100
0000
0010
0100
0001
0000
0010
0001
0000
1000
0000
,  // measure 38
0010
0000
1000
0000
0100
1000
0000
0100
1000
0010
0000
0100
0010
0000
1000
0000
,  // measure 39
0001
0000
0010
0000
0001
0100
0000
0100
0010
0000
1000
0000
0001
0010
0000
0010
,  // measure 40
0100
0000
1000
0000
0100
0001
0000
0100
1000
0000
0001
0000
0010
0100
0010
0100
,  // measure 41
2000
0000
0000
0000
3001
0100
0000
0020
0000
0000
0130
0000
0000
0001
0010
0000
,  // measure 42
0200
0000
0000
0000
1300
0010
0000
0100
0000
0000
0010
0000
0000
1000
0100
0010
,  // measure 43
0100
0000
0000
0000
1000
0001
0000
0020
0000
0000
0031
0000
1000
0010
0000
0110
,  // measure 44
0000
1000
0100
0001
0100
1000
1001
0000
,  // measure 45
0010
0010
0100
0100
1000
1000
0001
0001
,  // measure 46
0100
0010
0100
0010
1000
0100
1000
0100
,  // measure 47
0010
0000
0001
0000
1000
0000
0001
0000
0010
0100
1000
0100
0010
0000
0001
0000
,  // measure 48
0202
0000
0000
0303
,  // measure 49
1010
0000
0000
0000
0101
0000
0000
0000
0010
0001
0100
0000
0010
1000
0100
0000
,  // measure 50
0010
0100
0010
0100
1000
0000
0001
0000
0100
0010
0100
0010
1000
0000
0001
0000
,  // measure 51
0011
0000
0000
0000
1100
0000
0000
0000
0010
1000
0100
0000
0010
0001
0100
0000
,  // measure 52
0001
0000
1000
0100
0010
0000
0100
1000
0001
0000
0100
0000
1000
0000
0100
0000
,  // measure 53
0101
0000
0000
0000
1010
0000
0000
0000
1000
0100
0010
0000
0001
1000
0100
0000
,  // measure 54
1000
0010
1000
0010
0100
0000
0001
0000
0010
0001
0010
0001
1000
0000
0010
0000
,  // measure 55
0110
0000
0000
0000
1001
0000
0000
0000
0001
0010
0100
0000
1000
0000
0010
0000
,  // measure 56
1000
0100
1000
0100
0010
0001
0010
0001
0100
0000
0010
1000
0001
0000
0000
0000
,  // measure 57
0011
0000
0001
0000
1001
0000
0000
0000
1000
0010
1000
0000
1000
0000
0100
0000
,  // measure 58
0010
0001
0100
0001
0010
0000
0001
0000
1000
0010
0100
0010
1000
0000
0001
0000
,  // measure 59
1001
0000
1000
0000
0110
0000
0000
0000
0001
0100
0001
0000
0001
0000
0010
0000
,  // measure 60
0100
0000
1000
0010
0100
0000
0001
0010
0100
0000
1000
0000
0100
0000
0001
0000
,  // measure 61
0101
0000
0100
0000
1100
0000
0000
0000
0010
0100
0001
0000
0010
0000
0100
0000
,  // measure 62
1000
0010
0100
0010
1000
0000
0001
0000
0010
0001
0100
0001
0010
0000
0100
0000
,  // measure 63
1100
0000
1000
0000
1001
0000
0000
0000
0010
0100
0001
0000
0010
0000
0100
0000
,  // measure 64
1000
0100
1000
0010
0100
0001
0010
0001
1000
0100
0010
0001
1000
0000
0010
0000
,  // measure 65
0220
0000
0000
0000
,  // measure 66
0000
0000
0000
0330
;
