#TITLE:ポチコの幸せな日常;
#SUBTITLE:;
#ARTIST:NU-KO;
#TITLETRANSLIT:Pochiko no shiawasena nichijou;
#SUBTITLETRANSLIT:;
#ARTISTTRANSLIT:;
#GENRE:PUPCORE;
#CREDIT:;
#BANNER:Pochiko_no_shiawasena_nichijou_banner.png;
#BACKGROUND:Pochiko_no_shiawasena_nichijou.png;
#LYRICSPATH:;
#CDTITLE:;
#MUSIC:Pochiko no shiawasena nichijou.ogg;
#OFFSET:-0.560000;
#SAMPLESTART:42.410000;
#SAMPLELENGTH:13.000000;
#SELECTABLE:YES;
#BPMS:0.000000=192.000000
;
#STOPS:
;
#BGCHANGES:;
#KEYSOUNDS:;
#ATTACKS:;

//---------------dance-single - ----------------
#NOTES:
     dance-single:
     :
     Easy:
     7:
     0.322437,0.343209,0.107479,0.148817,0.000000,273.000000,260.000000,13.000000,18.000000,0.000000,0.000000,0.322437,0.343209,0.107479,0.148817,0.000000,273.000000,260.000000,13.000000,18.000000,0.000000,0.000000:
0000
0000
0000
0000
,
0000
0000
0000
0000
,
0000
0000
0000
0000
,
0000
0000
0000
0000
,
0000
0000
0000
0000
,
0000
0000
0000
0000
,
0010
0010
0100
0001
,
2000
0000
3000
0000
,
0001
0000
0010
0010
,
0100
0000
1100
0000
,
2000
0000
3010
0010
,
0100
0001
0001
0000
,
1000
0001
0010
0100
,
2000
0000
0000
3000
,
0100
0100
0010
0001
,
0001
0000
1010
0000
,
0100
1000
0001
0010
,
1000
0010
0001
0000
,
0200
0000
0310
0010
,
1000
0001
1000
0000
,
0001
0010
0100
1000
,
0001
0010
0001
0000
,
1000
0010
0220
0330
,
0010
1000
0100
0000
,
0010
0001
0100
0000
,
0010
1000
0100
0000
,
0010
0001
0100
0110
,
0010
1000
0100
0000
,
0010
0001
0100
0010
,
0220
0000
0000
0330
,
1000
0000
1000
0001
,
0100
0010
1000
0000
,
2002
0000
3003
0000
,
0100
0000
0100
0000
0010
0000
0010
1000
,
0000
0000
0001
0010
,
0100
0010
0001
0000
,
0100
0000
0001
0000
1000
0000
0010
0100
,
0000
0010
0000
0000
1000
0000
1000
0100
,
0000
0100
1000
0001
,
1000
0010
0100
0000
,
0001
1000
0100
0010
,
0100
0000
1000
0001
0000
0000
0000
0000
,
0100
0010
0000
0000
0100
0010
0000
0000
,
1000
0001
0010
0100
,
1000
0010
1000
0100
,
0010
0000
0001
0000
0100
0000
0000
0010
,
0000
0000
0010
0000
1000
0000
0001
0001
,
0000
1000
0010
0000
,
0100
0000
0010
0000
1000
0000
0001
1000
,
0000
0000
0010
2000
0000
0000
3000
0000
,
1001
0000
0000
0000
,
0010
0000
0010
0000
,
0100
0000
0100
0000
,
0001
0000
0001
0000
,
1000
0000
1000
0000
,
0010
0000
1000
0000
,
0001
0000
0100
0000
,
0001
0000
0010
0000
0100
0000
1000
0010
,
0000
0010
0100
0001
,
1000
0000
0100
0000
0010
0000
0000
0001
,
0000
0001
1000
0010
,
0100
0010
1000
0000
,
0100
1000
0100
0010
,
0200
0000
0300
0000
,
0001
0010
0100
0010
,
0001
0010
0100
0000
,
2002
0000
3003
0000
,
0010
0010
0100
0000
,
0001
0000
0011
0000
,
1000
0000
1100
0000
,
0010
0000
0110
0000
,
0100
0000
0101
0000
,
0010
0000
1000
0010
,
1000
0000
0001
0000
,
0010
0100
0010
0000
,
0002
0000
1003
0000
,
0010
1000
0100
0000
,
1000
0000
0001
0000
0010
0000
0100
1000
,
0000
0001
0000
2000
0000
0000
0000
3001
,
0000
0100
0010
1000
,
0001
0010
0100
0000
,
1000
0100
0010
0100
,
1000
0001
0010
0100
,
0010
0001
0100
0010
,
1000
0000
0001
0000
,
0220
0000
0330
0000
,
0001
0010
0001
0010
,
0100
0000
1000
0000
0100
0000
0000
1000
,
0000
0000
1000
0000
0100
0000
0010
0001
,
0000
0000
0001
0000
0010
0000
0100
1000
,
0000
0000
1000
0000
0010
0000
0100
0001
,
0000
1000
0000
0000
0001
0000
0000
1000
,
0000
0010
0000
0000
;

//---------------dance-single - ----------------
#NOTES:
     dance-single:
     :
     Medium:
     12:
     0.529127,0.572790,0.181887,0.190155,0.000000,448.000000,426.000000,22.000000,23.000000,0.000000,0.000000,0.529127,0.572790,0.181887,0.190155,0.000000,448.000000,426.000000,22.000000,23.000000,0.000000,0.000000:
0000
0000
0000
0000
,
0000
0000
0000
0000
,
0000
0000
0000
0000
,
0000
0000
0000
0000
,
0000
0000
0000
0000
,
0000
0000
0000
0000
,
0001
0000
0011
0000
1000
0100
1000
0000
,
0020
0000
0130
0000
,
1000
0100
0010
0000
0001
0000
1000
0010
,
0000
0100
0010
0100
0000
0000
0001
0010
,
0100
0000
0010
0000
0100
1000
0001
0000
,
1000
0000
0010
0100
0000
0001
1000
0000
,
0001
0010
0100
1000
0001
0000
1001
0000
,
0100
0010
0100
0010
0000
0100
0010
0000
,
1000
0000
1010
0000
0100
0001
0100
0000
,
0001
0010
0100
1000
,
0010
1000
0001
0000
0100
0010
0100
0000
,
0001
0010
0100
2000
0000
0000
3001
0000
,
0100
0010
0100
0000
0001
1000
0001
0000
,
1000
0100
0010
0002
0000
0000
0103
0000
,
0010
1000
0010
0000
0100
0001
1000
0010
,
1000
0100
0010
0001
,
1000
0001
0100
0110
,
0010
0100
1000
0000
0100
0010
0001
0000
,
0010
0100
1000
0000
0100
0010
1000
0001
,
0010
0100
1000
0000
0100
0010
0001
0000
,
0010
0100
1000
0000
1001
0000
1001
0000
,
0100
0010
1000
0000
0100
0010
0001
0000
,
0100
1000
0001
0010
1000
0100
0001
0010
,
0200
0000
0000
0310
0000
0000
0010
0000
,
1010
0000
0000
0001
0010
0000
0001
1000
,
0010
0000
0100
0001
0000
1000
0000
1000
,
0001
0010
0100
1000
,
0010
0010
0010
0000
1000
0100
0001
0100
,
0000
0010
0100
0000
1000
0010
0100
0001
,
0000
0010
0000
2200
0000
3300
0000
0001
,
0000
0010
0001
0010
0100
1000
0100
1000
,
0000
1010
0000
0000
0100
0001
1000
0010
,
0000
0100
0010
0100
0001
0000
1000
0100
,
0000
0010
0000
0022
0000
0033
0000
1000
,
0000
0100
1000
0100
0010
0001
0010
0000
,
0001
1000
0010
0200
0000
0000
0000
0301
,
0000
0001
0010
0100
1000
0000
1001
0000
,
0010
0100
0010
0200
0000
0000
0301
0000
,
1000
0010
1000
0000
0001
0100
0001
0000
,
1000
0100
0010
0100
1000
0000
0001
0010
,
0000
0010
0001
0000
1000
0100
0010
0001
,
0000
1000
0001
1000
0010
0000
0010
0000
,
0100
0000
0100
0000
0100
0010
1000
0001
,
0010
0000
0001
2000
0000
0000
3000
0000
,
0002
0000
0023
0000
,
0230
0000
2300
0000
,
3010
0010
0100
0100
,
0001
0001
1000
1000
,
0100
1000
0100
0000
0010
0001
0010
0000
,
0001
0100
0001
0000
1000
0010
1000
0000
,
0001
0100
0010
1000
,
0100
0000
0010
0000
0001
0100
0001
0200
,
0000
0000
0310
0000
1000
0001
1000
0000
,
0010
0000
0010
0000
0100
0010
1000
0100
,
0000
1000
0010
0000
1000
0001
1000
0000
,
0001
0010
0100
2000
0000
0000
3001
0000
,
0100
0010
0100
0000
0010
1000
0100
0010
,
0000
0001
0010
0100
,
1000
0001
1000
0000
0001
0010
0100
1000
,
0000
0001
0000
1000
0000
0010
0100
0000
,
0220
0000
0000
0000
0000
0330
0000
0000
,
1000
0001
1000
0000
0000
0000
0000
0000
,
0011
0000
1100
0000
,
1000
0010
0110
0000
,
0001
0000
0010
0000
0001
1000
0001
1000
,
0000
0110
0000
0000
1000
0000
0010
1000
,
0000
0001
0100
0010
,
1000
0100
1001
0000
,
0100
0010
0100
0000
0001
1000
0100
0010
,
0000
0001
0010
0000
0001
1000
0001
0010
,
0000
0100
0000
2000
0000
0000
0000
3001
,
0000
0100
0010
0100
0001
1000
0001
1000
,
0000
0010
0000
0100
0000
0001
0000
0011
,
0000
0000
1000
0000
0001
0010
0100
1000
,
0000
0010
0000
0220
0000
0330
0000
1000
,
0000
1000
0100
0010
0100
0000
0000
0010
,
0000
0001
0010
0100
0010
0000
0000
0001
,
0000
1000
0001
1000
0010
0100
0010
0000
,
2000
0000
3001
0010
,
0110
0000
0000
1001
0000
0000
0110
0000
,
1000
0010
1000
0000
0001
0010
0001
0000
,
1000
0000
0010
0100
0001
1000
0000
0001
,
0000
0010
0001
0010
0100
0000
0000
1000
,
0000
0010
0100
0010
1000
0000
0000
0001
,
0000
1000
0001
1000
0100
0010
0100
1000
,
0000
1000
0001
0000
0010
0100
0000
1000
,
0010
0000
0100
0001
0000
0000
0000
0000
;

//---------------dance-single - ----------------
#NOTES:
     dance-single:
     :
     Hard:
     16:
     0.870461,0.878278,0.537394,0.165352,0.421648,737.000000,672.000000,65.000000,20.000000,0.000000,0.000000,0.870461,0.878278,0.537394,0.165352,0.421648,737.000000,672.000000,65.000000,20.000000,0.000000,0.000000:
// measure 0
0000
0000
0000
0000
,  // measure 1
0000
0000
0000
0000
,  // measure 2
0000
0000
0000
0000
,  // measure 3
0000
0000
0000
0000
,  // measure 4
0000
0000
0000
0000
,  // measure 5
0000
0000
0000
0000
,  // measure 6
1100
0000
0101
0000
0010
0010
0010
0000
,  // measure 7
1000
0001
0010
0100
0010
0001
1000
0010
,  // measure 8
1000
0001
0100
0001
1000
0100
0010
0011
,  // measure 9
0000
0000
1000
0000
0010
0000
1010
0000
0000
0000
0100
0000
0010
0000
0100
0010
,  // measure 10
1000
0000
0001
0000
0010
0001
0010
0000
0100
0000
1000
0000
0100
1000
0100
0000
,  // measure 11
1000
0010
0001
0021
0000
1000
1030
0000
,  // measure 12
0001
0000
0010
0100
0010
0000
0001
0000
1000
0000
0010
0100
0010
0000
1000
0000
,  // measure 13
0010
0010
0010
0020
0000
0130
1001
0000
,  // measure 14
1010
0000
0011
0000
0100
0100
0100
0001
,  // measure 15
0010
0001
0010
0000
0001
1000
0001
0000
0100
0010
0100
0000
0010
0000
1000
0000
,  // measure 16
0010
0001
1000
0100
0010
0001
1000
1001
,  // measure 17
0000
0000
0100
0000
0010
0000
0110
0000
0000
0000
1000
0000
0001
0010
0001
0000
,  // measure 18
1000
0000
0100
0010
0001
0000
0010
0000
0001
0000
1000
0100
0010
0000
0100
0000
,  // measure 19
1000
0001
0010
0110
0000
1000
1100
0000
,  // measure 20
0001
0000
1000
0010
1000
0000
0010
0000
0100
0000
0010
0000
0110
0000
0000
0000
,  // measure 21
0001
0010
0001
0100
0010
1000
0100
0001
,  // measure 22
0100
1000
0010
0100
0001
1000
0110
0000
,  // measure 23
0010
0000
0100
0000
0001
1000
0000
1000
0001
0000
0010
0000
0100
0010
0000
0010
,  // measure 24
0001
0000
1000
0000
0010
0100
0000
0100
0010
0000
0001
0000
0100
0000
1000
0000
,  // measure 25
0010
0000
0001
0000
1000
0100
0000
0100
0010
0000
0100
0000
1000
0001
0000
0001
,  // measure 26
0100
0000
0010
0000
1000
0100
0000
0100
0010
0000
0000
0000
0101
0000
0000
0000
,  // measure 27
0010
0000
0100
0000
1000
0001
0000
0001
1000
0000
0100
0000
0010
1000
0000
1000
,  // measure 28
0010
0000
0001
0000
0100
0000
1000
0000
0010
0001
0100
0010
1000
0100
0010
0001
,  // measure 29
2000
0000
0000
3001
0000
0000
0110
0000
,  // measure 30
0011
0000
1000
0100
0011
0000
1000
0010
,  // measure 31
0100
0000
0001
0000
0010
0000
0001
0000
1000
0100
0010
0100
1000
0000
0001
0000
,  // measure 32
0200
0000
0010
0010
0010
0010
0310
0000
,  // measure 33
1001
0000
1001
0000
1001
0000
0000
0000
0010
0000
0100
0000
0001
0010
0100
0000
,  // measure 34
0000
0000
0100
1000
0001
0000
0100
0000
0010
0000
1000
0001
0010
0000
0001
0000
,  // measure 35
1000
0010
1000
0200
0000
0310
0001
1000
,  // measure 36
0000
0000
1000
0010
0100
0000
0010
0000
1000
0000
0001
0000
0010
0000
1001
0000
,  // measure 37
0000
1100
0000
0101
0010
0010
0100
0020
,  // measure 38
0000
0000
0130
0001
1000
0000
0001
0000
0010
0000
0001
0010
0100
0000
0010
0000
,  // measure 39
0100
0000
1000
0100
0010
0000
0100
0000
0000
0000
1100
0000
0000
0000
0101
0000
,  // measure 40
0000
0000
0010
0100
0001
0000
1000
0000
0010
0000
0100
0000
0001
0000
0010
0000
,  // measure 41
0100
1000
0010
0110
0000
1001
0000
0001
,  // measure 42
0011
0010
0000
0100
1100
1000
0002
0000
,  // measure 43
1003
0000
0010
0100
0001
0000
0010
0000
0001
0010
0100
0000
2000
0000
0000
0000
,  // measure 44
3001
0000
0100
0010
1000
0000
0010
0000
1000
0000
0100
0010
0001
0000
1000
0000
,  // measure 45
0001
1000
0001
0000
0100
0000
0010
0000
1000
0010
1000
0000
0001
0000
0101
0000
,  // measure 46
0000
0000
1000
0000
0100
0010
0100
0000
1000
0000
0001
0000
0010
0000
0011
0000
,  // measure 47
0000
1000
0100
0100
0100
0010
0100
1000
,  // measure 48
0001
0000
0000
0000
0011
0000
0000
0000
1010
0000
0100
0000
0001
0000
1000
0001
,  // measure 49
0100
0010
1000
0200
0000
0000
0310
0000
,  // measure 50
0012
1000
1000
1003
,  // measure 51
0010
0100
0000
0100
0010
1000
0100
0010
,  // measure 52
0001
0100
1000
0100
0001
0010
1000
0010
,  // measure 53
0001
0000
0100
0000
0010
0000
1000
0000
0100
0000
0010
0100
1000
0000
0001
0000
,  // measure 54
1000
0010
0100
0010
1000
0001
0010
0100
,  // measure 55
0010
0000
0001
0000
1000
0100
0010
0000
0001
0000
1000
0000
0010
0100
0001
0000
,  // measure 56
0100
0010
0100
0010
1000
0001
1000
0001
,  // measure 57
0010
0000
0001
0000
1000
0010
0100
0000
0010
0000
0100
0000
0010
0000
1001
0000
,  // measure 58
0000
0000
0100
0010
0100
0000
0001
0000
0010
0000
0100
0000
0010
0000
0001
0000
,  // measure 59
1000
0000
0010
0000
0010
0000
0010
0000
0100
0001
0100
0000
0010
0000
2000
0000
,  // measure 60
0000
0000
3001
0100
0010
0000
0100
0000
0001
0000
0010
0000
0001
0010
0100
0000
,  // measure 61
1000
0000
0100
0000
1000
0001
1000
0000
0010
0000
0100
0000
0010
0000
0000
0000
,  // measure 62
1000
0001
0010
1000
0010
0001
1000
0100
,  // measure 63
0000
0000
1000
0000
0001
0010
0001
0000
1000
0000
0100
0000
0001
0000
0100
0000
,  // measure 64
1000
0010
0001
0010
0100
0010
1000
0001
,  // measure 65
0000
0000
0011
0000
0000
0000
1100
0000
0000
0000
0001
0000
0100
0010
0100
0000
,  // measure 66
0020
1000
1000
1030
0200
0001
0001
0301
,  // measure 67
0010
0110
2002
0000
3003
0000
0010
0000
,  // measure 68
1000
0000
0010
0100
0000
0001
1000
0000
0001
0010
0000
0100
,  // measure 69
0010
0000
0010
0100
0000
1000
0001
0000
0000
1001
0000
0000
,  // measure 70
0100
0000
0010
1000
0000
0001
1000
0000
0100
0010
0000
0100
,  // measure 71
1000
0000
0000
0011
0000
0000
1000
0001
0010
0001
0000
0000
,  // measure 72
0110
0000
0100
0001
0000
1000
0010
0000
1000
0001
0000
0010
,  // measure 73
0100
0000
0000
0000
0010
0000
0001
0000
0000
0000
1000
0000
0100
0000
0000
0000
0010
0000
0100
0000
0000
1000
0000
0000
,  // measure 74
0000
0000
1000
0000
0001
0000
0000
0000
0100
0010
1000
0001
0100
0000
0010
0000
,  // measure 75
0000
0000
0010
0100
0010
0000
1000
0000
0001
0010
0001
0000
1000
0000
0100
0000
,  // measure 76
0010
0000
0011
0000
0000
0000
1100
0000
0000
0000
1000
0010
0100
0000
0020
0000
,  // measure 77
0000
0000
1030
0100
1000
0000
0001
0000
0100
0000
0010
0000
1000
0000
1100
0000
,  // measure 78
0000
0101
0000
0011
0000
1010
0000
0101
,  // measure 79
0000
0000
0100
0010
0100
0000
0001
0000
1000
0000
0100
1000
0001
0000
0100
0000
,  // measure 80
0010
0000
1000
0001
0010
0000
0002
0000
0000
0000
1003
0000
0100
0000
0110
0000
,  // measure 81
0000
0000
0010
0000
0001
0010
0001
0000
0010
0000
0100
0000
1000
0000
1100
0000
,  // measure 82
0000
0000
1000
0000
0001
1000
0010
0000
1000
0000
0100
0000
0010
0000
0011
0000
,  // measure 83
0000
0000
0100
0000
0010
0000
1000
0001
1000
0000
0010
0000
0100
0000
0001
0000
,  // measure 84
0020
0001
0001
0031
2000
0100
0100
3100
,  // measure 85
1000
0010
0100
0010
1000
0000
0001
0010
0100
0010
0001
0000
2000
0000
0000
0000
,  // measure 86
3001
0000
0010
0001
0010
0000
0001
0000
1000
0000
0100
1000
0100
0000
0010
0000
,  // measure 87
0100
0000
1000
0000
0001
0010
0100
0000
0010
0000
0001
0000
1000
0000
1010
0000
,  // measure 88
0000
0000
0100
0010
0100
0000
0001
0000
1000
0000
0001
0000
0000
0000
0011
0000
,  // measure 89
0000
0000
1000
0100
0010
0000
0001
0000
1000
0000
0010
0000
0000
0000
0101
0000
,  // measure 90
0000
0000
0010
0100
0001
0000
1000
0000
0100
0000
0010
0000
0001
0000
0011
0000
,  // measure 91
0000
0110
0110
0000
1010
1010
0000
0101
,  // measure 92
1001
0000
1010
0011
0000
0000
0000
0000
;
