#TITLE:Pledge of Wind;
#SUBTITLE:;
#ARTIST:TAG feat. Risa Yuzuki;
#TITLETRANSLIT:;
#SUBTITLETRANSLIT:;
#ARTISTTRANSLIT:;
#GENRE:;
#CREDIT:from「CHRONO CIRCLE」;
#BANNER:Pledge of Wind_banner.png;
#BACKGROUND:Pledge of Wind.png;
#LYRICSPATH:;
#CDTITLE:;
#MUSIC:Pledge of Wind.ogg;
#OFFSET:-0.590000;
#SAMPLESTART:55.970001;
#SAMPLELENGTH:15.000000;
#LASTBEATHINT:306.000000;
#SELECTABLE:YES;
#BPMS:0.000000=150.000000
;
#STOPS:
;
#BGCHANGES:;
#KEYSOUNDS:;
#ATTACKS:;

//---------------dance-single - ----------------
#NOTES:
     dance-single:
     :
     Easy:
     5:
     0.243056,0.293877,0.116004,0.139205,0.000000,220.000000,205.000000,15.000000,18.000000,0.000000,0.000000,0.243056,0.293877,0.116004,0.139205,0.000000,220.000000,205.000000,15.000000,18.000000,0.000000,0.000000:
// measure 0
0000
0000
0000
0000
,  // measure 1
0010
0001
1000
0000
,  // measure 2
0100
1000
0001
0000
,  // measure 3
0100
0010
0001
0000
,  // measure 4
0010
0000
0110
0000
,  // measure 5
0001
0100
0010
0000
,  // measure 6
0010
0100
1000
0000
,  // measure 7
0200
0000
0301
0000
,  // measure 8
0001
0000
0000
0010
0000
0000
0000
0000
,  // measure 9
0100
1000
0100
0000
,  // measure 10
1000
0001
1000
0000
,  // measure 11
0001
0010
0001
0000
,  // measure 12
0001
1000
0001
0000
,  // measure 13
0010
0001
0100
0000
,  // measure 14
0010
1000
0100
0000
,  // measure 15
2000
0000
3001
0000
,  // measure 16
0001
0010
0100
1000
,  // measure 17
0010
0000
0010
0100
,  // measure 18
0001
0000
0010
0001
,  // measure 19
1000
0000
1000
0010
,  // measure 20
0100
0000
0001
0001
,  // measure 21
1000
0100
0010
0000
,  // measure 22
0001
0100
0010
0000
,  // measure 23
2000
0000
3010
0000
,  // measure 24
0100
0001
0010
0100
,  // measure 25
1000
0010
1010
0000
,  // measure 26
0001
0100
0101
0000
,  // measure 27
0010
0000
0010
1000
,  // measure 28
0001
0000
1001
0000
,  // measure 29
0010
0001
0010
0000
,  // measure 30
0100
1000
0100
0000
,  // measure 31
2000
0000
3010
0000
,  // measure 32
0002
0000
0103
0000
,  // measure 33
0001
0010
0100
1000
,  // measure 34
2002
0000
3003
0000
,  // measure 35
0010
0100
0010
0000
,  // measure 36
1000
0100
1000
0000
,  // measure 37
0001
0100
0001
0000
,  // measure 38
0010
0000
0110
0000
,  // measure 39
0010
0001
1000
0000
,  // measure 40
0010
1000
0001
0000
,  // measure 41
0100
0001
1000
0010
,  // measure 42
0220
0000
0330
0000
,  // measure 43
1000
0100
1000
0000
,  // measure 44
0001
0010
0001
0000
,  // measure 45
1000
0100
0010
0000
,  // measure 46
0001
0000
1001
0000
,  // measure 47
0010
1000
0010
0000
,  // measure 48
1000
0100
1000
0000
,  // measure 49
0001
0100
0001
0000
,  // measure 50
0220
0000
0000
0000
0000
0330
0000
0000
,  // measure 51
0001
0010
0100
0000
,  // measure 52
0010
0100
1000
0000
,  // measure 53
1000
0010
0100
0000
,  // measure 54
0010
0100
0001
0000
,  // measure 55
0010
0001
1000
0000
,  // measure 56
1000
0001
0100
0000
,  // measure 57
0010
1000
0001
1000
,  // measure 58
0200
0000
0000
0000
,  // measure 59
0300
0000
0000
0000
,  // measure 60
1001
0000
0010
0000
,  // measure 61
1001
0000
0100
0000
,  // measure 62
1000
0010
1000
0000
,  // measure 63
0001
0010
0001
0000
,  // measure 64
0010
0100
0010
0000
,  // measure 65
0100
1000
0100
0000
,  // measure 66
1000
0000
0001
1000
,  // measure 67
2002
0000
3003
0000
,  // measure 68
0010
0100
1000
0000
,  // measure 69
0010
0100
0001
0000
,  // measure 70
0010
0001
1000
0000
,  // measure 71
0100
1000
2002
3003
,  // measure 72
0010
0100
0010
0000
,  // measure 73
1000
0100
1000
0000
,  // measure 74
0001
1000
0100
0010
,  // measure 75
2002
0000
3003
0000
,  // measure 76
0110
0000
0000
0000
;

//---------------dance-single - ----------------
#NOTES:
     dance-single:
     :
     Medium:
     10:
     0.388889,0.411427,0.162405,0.262942,0.146938,352.000000,331.000000,21.000000,34.000000,0.000000,0.000000,0.388889,0.411427,0.162405,0.262942,0.146938,352.000000,331.000000,21.000000,34.000000,0.000000,0.000000:
// measure 0
0000
0000
0000
0000
,  // measure 1
0001
0000
0000
1000
0000
0000
0020
0000
0000
0000
0000
0000
0130
0000
0000
0000
,  // measure 2
0010
0000
0000
1000
0000
0000
0100
0000
0020
0000
0000
0000
0031
0000
0000
0000
,  // measure 3
1000
0000
0000
0001
0000
0000
0200
0000
0000
0000
0000
0000
0310
0000
0000
0000
,  // measure 4
1000
0000
0000
0001
0000
0000
0010
0000
0100
0000
0000
0000
0110
0000
0000
0000
,  // measure 5
1000
0000
0000
0010
0000
0000
0200
0000
0000
0000
0000
0000
0301
0000
0000
0000
,  // measure 6
0010
0000
0000
0001
0000
0000
1000
0000
0020
0000
0000
0000
0130
0000
0000
0000
,  // measure 7
0001
0000
1000
0200
0000
0000
0310
0000
,  // measure 8
0001
0000
0000
1000
0000
0000
1001
0000
0000
0000
0000
0000
0010
0000
0000
0000
,  // measure 9
1000
0000
0001
0100
0001
0000
0010
0000
,  // measure 10
0001
0000
1000
0010
1000
0000
0100
0000
,  // measure 11
1000
0000
0010
1000
0001
0000
0010
0000
,  // measure 12
0001
0000
1000
0100
0010
0000
0001
0000
,  // measure 13
0100
0000
0010
0000
1000
0001
0100
0000
,  // measure 14
0001
0000
0010
0000
0100
1000
0001
0000
,  // measure 15
2000
0000
0000
0010
3010
0000
0000
0100
,  // measure 16
0000
0001
0000
1000
0000
0001
0010
0000
,  // measure 17
0001
0000
1000
0000
0010
1000
0010
0000
,  // measure 18
0100
0001
0010
0100
,  // measure 19
1000
0000
0001
0000
1000
0010
0100
0000
,  // measure 20
0001
0010
0220
0330
,  // measure 21
0001
0000
1000
0000
0010
0100
0001
0000
,  // measure 22
1000
0000
0001
0000
0010
0100
1000
0000
,  // measure 23
0020
0000
0000
0100
0130
0000
0000
0001
,  // measure 24
0000
0010
0000
0001
0000
1000
0010
0000
,  // measure 25
1000
0001
0100
0000
0010
0100
0000
0000
,  // measure 26
0001
0010
0100
0000
1000
0001
0000
0000
,  // measure 27
0010
0000
0001
0000
1000
0001
0100
0000
,  // measure 28
0010
1000
2020
3030
,  // measure 29
0100
0000
0001
0000
0010
0001
1000
0000
,  // measure 30
0010
0000
1000
0000
0001
0100
0010
0000
,  // measure 31
2000
0000
0000
0001
3001
0000
0000
0000
,  // measure 32
0010
0001
1000
0100
,  // measure 33
1000
0010
1000
0000
0001
0100
0001
0000
,  // measure 34
0010
0000
0000
0100
0000
0000
0220
0000
0000
0000
0000
0000
0330
0000
0000
0000
,  // measure 35
1000
0000
0000
0100
0000
0000
1001
0000
0000
0000
0000
0000
0010
0000
0000
0000
,  // measure 36
0001
0000
0000
0100
0000
0000
0010
0000
1000
0000
0000
0000
0100
0000
0000
0000
,  // measure 37
1000
0000
0000
0010
0000
0000
0110
0000
0000
0000
0000
0000
0100
0000
0000
0000
,  // measure 38
0001
0000
0000
0010
0000
0000
0100
0000
2000
0000
0000
0000
3001
0000
0000
0000
,  // measure 39
0100
0000
0000
0010
0000
0000
1010
0000
0000
0000
0000
0000
0100
0000
0000
0000
,  // measure 40
0001
0000
0000
1000
0000
0000
0100
0000
0020
0000
0000
0000
0031
0000
0000
0000
,  // measure 41
1000
0000
0000
0100
0000
0000
0000
0000
0001
0000
0000
0010
0000
0000
0020
0000
,  // measure 42
0000
0030
0100
1001
,  // measure 43
0010
0000
0000
0100
0000
0000
0002
0000
0000
0000
0000
0000
1003
0000
0000
0000
,  // measure 44
0100
0000
0000
0010
0000
0000
0001
0000
0200
0000
0000
0000
0310
0000
0000
0000
,  // measure 45
1000
0000
0000
0001
0000
0000
0020
0000
0000
0000
0000
0000
0130
0000
0000
0000
,  // measure 46
1000
0000
0000
0001
0000
0000
1000
0000
0010
0000
0000
0010
0000
0000
0010
0000
,  // measure 47
0100
0000
0000
0001
0000
0000
0010
0000
0000
0000
0100
0000
1000
0000
0000
0000
,  // measure 48
0010
0000
0000
1000
0000
0000
0001
0000
0100
0000
0000
0000
0010
0000
0000
0000
,  // measure 49
1000
0000
0000
0001
0000
0000
0000
0000
0010
0000
0000
0100
0000
0000
0220
0000
,  // measure 50
0000
0000
0000
0000
0000
0330
0000
0000
,  // measure 51
0001
0100
0010
0000
1000
0000
0010
0000
,  // measure 52
1000
0100
0010
0000
0001
0000
0100
0000
,  // measure 53
0010
1000
0001
0000
1000
0000
0100
0000
,  // measure 54
0010
0100
1000
0000
0001
0000
1001
0000
,  // measure 55
0100
0000
0010
0100
0000
0001
0000
0010
,  // measure 56
0001
0000
1000
0010
0000
0100
0000
0010
,  // measure 57
1000
0000
0001
0000
0010
0100
0010
0100
,  // measure 58
0010
0000
0000
0001
0000
0000
2002
0000
0000
0000
0000
0000
3003
0000
0000
0000
,  // measure 59
0220
0000
0000
0000
0000
0330
0000
0000
,  // measure 60
1010
0000
0011
0000
,  // measure 61
0001
0000
0000
1000
0000
0000
0010
0000
0100
0000
0000
0000
0110
0000
0000
0000
,  // measure 62
1000
0000
0000
0100
0000
0000
0010
0000
0000
0000
0001
0000
0100
0000
0000
0000
,  // measure 63
0001
0000
0000
0010
0000
0000
0100
0000
1000
0000
0000
0000
1001
0000
0000
0000
,  // measure 64
0010
0100
0001
0000
0010
0100
1000
0000
,  // measure 65
0001
1000
0010
0000
0100
0001
1000
0000
,  // measure 66
0100
0000
0000
1000
0000
0000
0000
0000
0001
0000
0000
0100
0000
0000
0020
0000
,  // measure 67
0000
0000
0100
0130
,  // measure 68
0001
0000
0000
0010
0000
0000
0022
0000
0000
0000
0033
0000
0000
0000
0000
0000
,  // measure 69
1000
0000
0000
0010
0000
0000
1000
0000
0100
0000
0000
0000
0010
0000
0000
0000
,  // measure 70
0001
0000
0000
1000
0000
0000
2200
0000
0000
0000
3300
0000
0000
0000
0000
0000
,  // measure 71
0010
0000
0000
0100
0000
0000
0010
0000
1000
0000
0000
1000
0000
0000
1000
0000
,  // measure 72
0001
0100
0001
0000
1000
0010
1000
0000
,  // measure 73
0001
0010
0100
0000
1000
0010
0100
0000
,  // measure 74
0001
0000
0000
1000
0000
0000
0000
0000
1000
0000
0000
0001
0000
0000
0220
0000
,  // measure 75
0000
0000
0000
0330
,  // measure 76
1001
0000
0000
0000
;

//---------------dance-single - ----------------
#NOTES:
     dance-single:
     :
     Hard:
     14:
     0.690499,0.646528,0.332545,0.123737,0.444682,625.000000,582.000000,43.000000,16.000000,0.000000,0.000000,0.690499,0.646528,0.332545,0.123737,0.444682,625.000000,582.000000,43.000000,16.000000,0.000000,0.000000:
// measure 0
0000
0000
0000
0000
,  // measure 1
0001
0000
1000
0010
0000
1000
0020
0000
0000
0000
0130
0000
0001
0000
0010
0000
,  // measure 2
0100
0000
1000
0001
0000
0010
0001
0000
0100
0000
0010
0000
0110
0000
0000
0000
,  // measure 3
1000
0000
0001
0100
0000
0001
0200
0000
0000
0000
0310
0000
1000
0000
0001
0000
,  // measure 4
0010
0000
0100
1000
0000
0001
0100
0000
0001
0000
0000
0000
1001
0000
0000
0000
,  // measure 5
0010
0000
1000
0001
0000
0010
0200
0000
0000
0000
0310
0000
0001
0000
1000
0000
,  // measure 6
0010
0000
0100
0001
0000
1000
0100
0000
0010
0000
0100
0000
0001
0000
0000
0000
,  // measure 7
1100
0000
0000
0000
0001
0000
0010
0001
1000
0000
0010
0000
0100
0010
0100
0010
,  // measure 8
1000
0000
0000
1001
0000
0000
0110
0000
0000
0000
0100
0000
0001
0000
0000
0000
,  // measure 9
0010
0001
1000
0001
0010
0100
1000
0010
,  // measure 10
0000
0110
0000
0001
1000
0100
0010
0100
,  // measure 11
1000
0001
1000
0010
1000
0100
0001
0100
,  // measure 12
0010
0100
1000
0001
0100
0010
0100
0001
,  // measure 13
1000
0010
0001
0010
1000
0001
0010
0100
,  // measure 14
0000
0011
0000
0100
0010
0100
0001
1000
,  // measure 15
0020
0000
0000
0000
0130
0000
0001
0000
1000
0000
0001
0000
0010
0100
0010
0000
,  // measure 16
0000
0000
1100
0000
0000
0010
0100
0000
0001
0000
1000
0000
0001
0010
0100
0000
,  // measure 17
1000
0010
0100
0010
1000
0001
0100
1000
,  // measure 18
0000
1010
0000
0100
0010
0001
0010
0100
,  // measure 19
0001
0010
0100
1000
0010
1000
0100
0001
,  // measure 20
0100
1000
0000
0102
0000
0010
0013
0000
,  // measure 21
0100
1000
0001
0100
0010
1000
0001
0010
,  // measure 22
0100
1000
0010
0100
1000
0100
0001
0100
,  // measure 23
0020
0000
0000
0000
1030
0000
0100
0010
0100
0000
1000
0000
0001
0000
0100
0000
,  // measure 24
0000
0000
1010
0000
0000
0001
0010
0000
0001
0000
1000
0000
0100
0010
0001
0000
,  // measure 25
1000
0000
0010
0000
0001
0000
0010
0000
1000
0000
0001
0020
0000
0000
0130
0000
,  // measure 26
1000
0100
0001
0100
1000
0002
0000
0103
,  // measure 27
0001
0010
1000
0001
0100
1000
0010
0100
,  // measure 28
0001
0000
1000
0000
0010
0000
0001
0000
0010
0000
0000
1000
0001
0000
0010
0000
,  // measure 29
0100
1000
0001
0100
0010
1000
0001
0010
,  // measure 30
0000
0010
0110
0000
1100
0000
0001
1000
,  // measure 31
0010
0000
0100
0000
0010
0000
1000
0001
1000
0000
0000
0000
0010
0000
0000
0000
,  // measure 32
0100
0000
0001
0000
0010
0000
0100
1000
0100
0000
0000
0000
1000
0000
0000
0000
,  // measure 33
0001
0000
1000
0000
0010
0000
0100
0000
0001
0010
0001
0000
1000
0010
1000
0000
,  // measure 34
1001
0000
0000
0110
0000
0000
1001
0000
0000
0000
0010
0000
0010
0000
0000
0000
,  // measure 35
0100
0000
0010
0100
0000
0001
0100
0000
0001
0000
0010
0000
0100
0000
1000
0000
,  // measure 36
0010
0000
0100
0010
0000
1000
0010
0000
0100
0000
0001
0000
0011
0000
0000
0000
,  // measure 37
1000
0000
0010
0100
0000
0010
1000
0000
0001
0000
0010
0000
0100
0000
1000
0000
,  // measure 38
0010
0000
0100
0001
0000
1000
0001
0000
0010
0000
0000
0000
1001
0000
0000
0000
,  // measure 39
0100
0000
0001
0010
0000
0001
1000
0000
0010
0000
0100
0000
0001
0000
1000
0000
,  // measure 40
0001
0000
0010
0100
0000
1000
0001
0000
0100
0000
0010
0000
0100
0000
0001
0010
,  // measure 41
0001
0000
0000
1001
0000
0000
1000
0010
1000
0000
0000
1001
0000
0000
0100
0000
,  // measure 42
0000
0000
0010
0000
0100
0000
0010
0100
0010
0000
0000
0000
1001
0000
0000
0000
,  // measure 43
0100
0000
0001
0010
0000
0100
1000
0000
0010
0000
0100
0000
0010
0000
1000
0100
,  // measure 44
0010
0000
0100
1000
0000
0001
1000
0000
0010
0000
1000
0000
0100
0000
0001
0000
,  // measure 45
0100
0000
1000
0001
0000
0100
0010
0000
1000
0000
0001
0000
0010
0000
0100
0000
,  // measure 46
1000
0000
0010
0100
0000
0001
0010
0000
0011
0000
0000
0110
0000
0000
1100
0000
,  // measure 47
1000
0000
0001
0100
0000
0010
1000
0000
0100
0000
1000
0000
0010
0000
0100
0000
,  // measure 48
0001
0000
0010
0001
0000
0100
0001
0000
1000
0000
0010
0000
1000
0000
0001
0100
,  // measure 49
0001
0000
0000
0101
0000
0000
1000
0010
1000
0000
0000
1010
0000
0000
1001
0000
,  // measure 50
0000
0000
0010
0000
0000
0000
0100
0000
0001
0000
1000
0000
0100
0010
0100
0000
,  // measure 51
1000
0000
0001
0000
0010
0001
0000
0100
0001
0000
0010
0001
0000
0100
0001
0000
,  // measure 52
1000
0000
0010
0000
1000
0100
0000
1000
0010
0000
1000
0100
0000
1000
0010
0000
,  // measure 53
0100
0000
0001
0000
0100
1000
0000
0100
0001
0000
0100
1000
0000
0100
0001
0000
,  // measure 54
0010
0000
1000
0000
0010
0001
0000
0010
1000
0000
0010
0000
0001
0000
1000
0000
,  // measure 55
0010
0100
0001
1000
0000
0011
0000
1000
,  // measure 56
0001
0010
0100
0010
0000
1100
0000
0010
,  // measure 57
0100
0000
0001
0000
1000
0010
1000
0000
0001
0000
0100
0000
0001
0010
0001
0000
,  // measure 58
1000
0000
0000
0110
0000
0000
2002
0000
0000
0000
0000
0000
0000
0000
0000
0000
,  // measure 59
3003
0000
0000
0000
0000
0010
0010
0000
,  // measure 60
2020
3030
0022
0033
,  // measure 61
1001
0000
0000
0100
0000
0000
0010
0000
1000
0000
0001
0010
0200
0000
0000
0000
,  // measure 62
1300
0000
0001
0100
0000
0001
1000
0000
0010
0000
0100
0000
0001
0000
0010
0000
,  // measure 63
0100
0000
0010
0001
0000
1000
0001
0000
0100
0000
0010
0000
0110
0000
0000
0000
,  // measure 64
1000
0000
0001
0010
0000
0100
1000
0000
0010
0000
1000
0000
0010
0000
0001
0000
,  // measure 65
0010
0000
0100
0001
0000
0100
0010
0000
1000
0000
0100
0000
0001
0000
0100
0000
,  // measure 66
1000
0000
0000
0101
0000
0000
0010
0001
0010
0000
0000
1100
0000
0000
0010
0000
,  // measure 67
0000
0000
0010
0000
0100
0000
0010
0100
0001
0000
0000
0000
1001
0000
0000
0000
,  // measure 68
0010
0000
1000
0010
0000
0100
0010
0000
1000
0000
0001
0000
0010
0000
0100
1000
,  // measure 69
0001
0000
0010
0001
0000
1000
0001
0000
0100
0000
0010
0000
0100
0000
0001
0010
,  // measure 70
0001
0000
1000
0010
0000
1000
0001
0000
0100
0000
0001
0000
0100
0000
0010
0000
,  // measure 71
1000
0000
0100
1000
0000
0010
1000
0000
1010
0000
0000
0101
0000
0000
0011
0000
,  // measure 72
0001
0100
1000
0100
0001
0010
1000
0010
,  // measure 73
0001
0000
1000
0010
0000
0100
0001
0000
0010
0000
0100
0000
0010
0000
0001
1000
,  // measure 74
0001
0000
0000
1010
0000
0000
0100
0001
0100
0000
0000
0011
0000
0000
2000
0000
,  // measure 75
0000
0000
0010
0000
0000
0000
3010
0000
0100
0000
0001
0000
1000
0010
0100
0001
,  // measure 76
0010
0000
0000
0000
;
