#TITLE:PLASMA SOUL NIGHT feat. Nana Takahashi / 709sec.;
#SUBTITLE:;
#ARTIST:BEMANI Sound Team "L.E.D.";
#TITLETRANSLIT:;
#SUBTITLETRANSLIT:;
#ARTISTTRANSLIT:L.E.D.;
#GENRE:LIGHTNING EUROBEAT;
#CREDIT:;
#BANNER:PLASMA SOUL NIGHT_banner.png;
#BACKGROUND:PLASMA SOUL NIGHT.png;
#LYRICSPATH:;
#CDTITLE:;
#MUSIC:PLASMA SOUL NIGHT.ogg;
#OFFSET:-0.490000;
#SAMPLESTART:43.972000;
#SAMPLELENGTH:11.600000;
#LASTBEATHINT:362.000458;
#SELECTABLE:YES;
#BPMS:0.000000=178.000000
;
#STOPS:258.000000=0.674000
;
#BGCHANGES:;
#KEYSOUNDS:;
#ATTACKS:;

//---------------dance-single - ----------------
#NOTES:
     dance-single:
     :
     Easy:
     10:
     0.437987,0.464825,0.142233,0.213349,0.019755,388.000000,370.000000,18.000000,27.000000,0.000000,0.000000,0.437987,0.464825,0.142233,0.213349,0.019755,388.000000,370.000000,18.000000,27.000000,0.000000,0.000000:
0000
0000
0000
0000
,
0001
1000
0010
1000
,
0001
0000
0100
0000
0010
0100
0010
0000
,
2000
0001
0010
3001
,
0100
0010
0010
0000
1000
0001
0001
0000
,
0010
0001
1000
0010
,
0100
0000
0001
0000
1000
0001
1000
0000
,
0200
0010
0010
0310
,
0000
0001
1000
0001
0000
1000
0001
0000
,
0100
0010
0010
0010
,
1000
0001
0000
0000
1000
0000
0001
0000
,
0010
0000
0001
0000
1000
0100
0010
0000
,
0001
1000
2002
3003
,
0010
0000
0010
0000
0010
0100
0010
0000
,
1000
0000
0100
0000
1000
0001
1000
0000
,
0010
0000
0100
0000
0001
1000
0001
0000
,
0010
0001
1000
0110
,
0002
0000
0010
0000
1003
0000
0010
0100
,
0000
0100
0010
0000
1000
0000
0100
0000
,
0010
0002
0000
0000
,
1003
0010
0100
0010
,
1000
0001
0010
0100
,
1000
0000
0001
0000
1000
0010
0100
0000
,
0010
0220
0000
0330
,
0001
0010
0100
1000
,
0001
0000
0100
0000
0001
0100
0001
0000
,
1000
0000
0010
0000
1000
0010
1000
0000
,
0001
1000
0100
0010
,
0001
0100
0010
1000
,
0001
0000
0010
0000
0001
1000
0001
0000
,
1000
0000
0010
0000
1000
0001
1000
0000
,
0010
0000
0000
0000
0100
0000
0000
0000
0001
0000
0000
1000
0000
0000
0001
0000
,
0020
0000
0030
0000
,
0001
0000
0101
0000
0010
0000
1000
0100
,
0000
0100
1000
0000
0001
0000
0010
0000
,
0001
0000
0100
0010
0200
0000
0000
0000
,
0310
0000
0010
0000
1000
0001
1000
0000
,
0010
0000
0100
0000
0001
0000
0010
0001
,
0000
0001
1000
0000
0100
0000
0010
0000
,
0100
2002
0000
3003
,
0010
0010
0010
0110
,
1000
0000
0100
0000
1000
0001
1000
0000
,
0001
0000
0010
0000
0001
1000
0001
0000
,
0100
0000
0010
0000
1000
0001
0010
0000
,
0001
2002
0000
3003
,
0010
0000
0010
0000
0010
0100
0010
0000
,
2000
0000
0000
0000
0000
0000
0000
0000
3001
0000
0000
0010
0000
0000
0100
0000
,
1000
0020
0000
0000
,
0230
0000
0000
0300
,
0001
0001
0011
0000
,
1000
0010
1010
0000
,
0100
0100
0100
0100
,
0001
1000
0001
1001
,
0010
0001
1000
0010
,
1000
0100
0001
0100
,
1000
0010
0100
0010
,
1000
0001
1000
0001
1000
0000
1001
0000
,
0001
0000
0010
0000
0001
0100
0001
0000
,
1000
0000
0010
0000
1000
0100
1000
0000
,
0001
0010
0100
1000
,
0010
0000
0100
0000
0001
1000
0001
0000
,
1000
0000
0010
0000
0100
0010
0100
0000
,
0001
0000
0010
0000
0100
0010
0100
0000
,
1000
0000
0000
0000
0000
0000
0001
0000
0100
0000
0000
0010
0000
0000
0100
0000
,
0020
0000
0030
0000
,
1000
1001
0010
0100
,
0001
1000
0001
0000
0010
0000
0001
0000
,
1000
0100
0010
0000
0001
0000
0202
0000
,
0000
0303
0010
0010
,
0010
1010
1000
0100
,
1000
0001
0010
0000
0001
0000
0100
0000
,
0001
0010
0100
0000
1000
0000
0220
0000
,
0000
0330
0001
0001
,
0001
1001
0100
0010
,
1000
0010
1000
0000
0001
0000
0010
0000
,
0001
0100
0001
0000
1000
0000
0010
0000
,
0100
0000
0000
0001
0000
0000
0010
0000
0002
0000
0000
0000
0000
0000
0000
0000
,
1003
0000
0001
0010
,
0100
1000
0100
0000
2000
0000
0000
0000
,
0010
3010
0100
0010
,
0100
0000
0010
0000
1000
0001
0100
0010
,
1000
0000
0001
0000
0010
0000
0000
0010
,
0000
0010
0001
0001
,
0001
1000
0001
0000
0200
0000
0010
0000
,
0000
0301
0010
0000
,
0110
0000
0100
1000
,
0100
0010
0100
0000
0001
0000
0010
0000
,
0001
0100
0001
0000
1000
0100
0010
0000
,
0100
0010
0001
0000
0000
1000
0001
1000
,
0010
0000
0000
0100
0000
0000
0010
0000
0000
0000
0000
0000
2002
0000
0000
0000
,
0000
0000
3003
0000
;

//---------------dance-single - ----------------
#NOTES:
     dance-single:
     :
     Medium:
     13:
     0.621987,0.572092,0.260760,0.229153,0.027656,551.000000,518.000000,33.000000,29.000000,0.000000,0.000000,0.621987,0.572092,0.260760,0.229153,0.027656,551.000000,518.000000,33.000000,29.000000,0.000000,0.000000:
0000
0000
0000
0000
,
0001
0010
0001
1000
0100
1000
0010
0000
,
1000
0010
0100
0010
1000
0001
0010
0002
,
0000
0100
1000
0103
,
0010
0100
0110
0000
1000
0001
0010
0100
,
1000
0010
0100
0000
0001
1000
0010
1000
,
0001
0010
0100
0000
1000
0100
0010
0100
,
1000
0001
0010
0001
1000
0010
0100
0001
,
0000
0100
0010
0100
0001
0000
1001
0000
,
0100
0000
0110
0000
0001
1000
0000
1001
,
0000
0001
0100
0010
1000
0100
0010
0000
,
0001
1000
0010
1000
0001
0000
0011
0000
,
1000
0100
1000
0001
0100
0000
1010
0000
,
1000
0000
0001
0000
0010
0001
0000
1001
,
0000
0100
0001
1000
0100
0010
0100
0000
,
2000
0000
0010
0000
0001
0000
3010
0010
,
0000
0100
0001
1000
0010
0000
0110
0000
,
0002
0000
0013
0100
1000
0000
0001
0100
,
0000
0001
1000
0000
1000
0100
0010
0001
,
0000
0001
0020
0000
0100
0000
0130
0000
,
1000
0001
0100
0010
1000
0000
0011
0000
,
0001
1000
0000
1000
0010
0100
0010
0100
,
0000
0100
0001
0000
1000
0100
0010
0001
,
0000
0001
2000
0000
0010
0000
3001
0000
,
0110
0101
1010
1100
,
0001
0010
0001
1000
0010
0000
0010
0100
,
0000
0001
1000
0000
1000
0100
0010
0001
,
0000
1000
0001
0000
0010
0100
0010
0001
,
0000
1000
0010
0100
0020
0000
1030
0000
,
0001
0010
0001
0100
0010
1000
0100
0000
,
1000
0010
0100
0001
0010
0001
1000
0000
,
0001
0000
1000
0000
0001
0000
0010
0000
0100
0000
0000
0100
0000
0000
0100
0000
,
2002
0000
3003
0000
0010
0100
0001
0100
,
0000
0100
0010
0000
1000
0100
0010
0100
,
0000
0100
0001
0000
0100
1000
0001
1000
,
0000
0010
0100
0020
1000
0000
0130
0000
,
0000
0001
0010
0001
1000
0000
1001
0000
,
0010
1000
0010
0000
0100
0001
1000
0010
,
0000
1000
0100
0000
0010
0001
1000
0010
,
0000
0100
0002
0000
0010
0000
0013
0000
,
1000
0100
0001
0100
1000
0010
0100
0000
,
0001
0010
0100
0000
1000
0010
0100
0000
,
0001
1000
0100
0000
1000
0001
0010
0000
,
0001
1000
0100
0010
0100
0000
1100
0000
,
1000
0010
0100
0001
0010
0000
0011
0000
,
2000
0000
3010
0100
0010
1000
0001
0010
,
0200
0000
0000
0000
0000
0000
0000
0000
0310
0000
0000
0010
0000
0000
0010
0000
,
0001
0000
0001
1000
0001
0100
0010
0000
,
1000
0100
1000
0010
0100
0001
0010
0000
,
0201
0000
0000
0010
0000
0000
0301
0000
,
1000
0010
1000
0000
0001
0010
0001
0000
,
1000
0100
1000
0010
0100
0010
0000
1010
,
0000
0010
0100
0000
0001
0010
0002
0000
,
0003
0000
0101
0000
0010
0100
0000
0110
,
0000
0010
1000
0010
2000
0000
3100
0000
,
1000
0000
1000
0001
0010
0100
0010
0000
,
0001
0000
1000
0000
0001
0000
1000
0000
0010
0000
0000
0110
0000
0000
0100
0000
,
0002
0000
0013
0100
1000
0000
0010
0100
,
0000
0100
0010
0000
1000
0010
0100
0000
,
0001
1000
0010
0100
0010
0000
1000
0100
,
0000
1000
0010
0000
1000
0100
0010
0000
,
0001
0100
0010
0000
0100
0010
0100
0001
,
0000
0001
1000
0000
0010
0100
0010
0000
,
1000
0000
0001
0000
0010
0000
0100
0000
1000
0000
0000
1001
0000
0000
0001
0000
,
0200
0000
0000
0000
0300
0010
0010
0000
,
0010
0100
0010
0000
1000
0001
0010
0000
,
0001
0000
1000
0001
0000
0100
0010
0000
,
1000
0100
0010
0001
0000
0001
0010
0200
,
1000
0000
1300
0000
0001
0010
0001
1000
,
0010
0100
0010
0000
0110
0000
1000
0000
,
0001
1000
0010
0100
0000
0100
0010
0000
,
1000
0001
0010
0100
0000
0100
0020
0000
,
0001
0000
0130
0000
1000
0100
1000
0001
,
0010
0000
0110
0000
0001
1000
0001
0010
,
0100
0000
1000
0010
0000
0100
0001
0000
,
0010
0100
1000
0001
0000
0001
1000
0000
,
0010
0000
0000
0100
0000
0000
0110
0000
0000
0000
0001
0000
1000
0000
0000
0000
,
0001
1000
0100
0010
0001
0100
0001
1000
,
0100
0010
0100
0000
2200
0000
3300
0000
,
0001
0000
0000
0011
0000
0000
0010
0000
0100
0000
1000
0000
0001
0000
0010
0000
,
0001
1000
0010
0000
0100
0010
0100
0010
,
1000
0000
1001
0000
0020
0000
0130
0020
,
0000
1030
0100
1000
0002
0000
0013
0002
,
0000
1003
0010
0100
0020
0000
1000
0000
,
0100
0000
1030
0000
0001
0100
0101
0000
,
0001
1000
0100
0010
0100
1000
0002
0000
,
0103
0010
0100
0001
0000
1000
0010
0000
,
0100
0001
1000
0000
0001
0010
0100
1000
,
0010
0100
0001
1000
0000
0010
1000
0010
,
0001
0000
0000
1010
0000
0000
0101
0000
0000
0000
0000
0000
0220
0000
0000
0000
,
0000
0000
0330
0000
;

//---------------dance-single - ----------------
#NOTES:
     dance-single:
     :
     Hard:
     17:
     0.894035,0.893894,0.505717,0.142233,0.485962,792.000000,728.000000,64.000000,18.000000,0.000000,0.000000,0.894035,0.893894,0.505717,0.142233,0.485962,792.000000,728.000000,64.000000,18.000000,0.000000,0.000000:
// measure 0
0000
0000
0000
0000
,  // measure 1
1000
0010
1000
0000
0100
0000
0010
0001
0010
0000
0100
0000
1000
0000
0001
0000
,  // measure 2
0010
0100
0010
0000
0001
0000
1000
0100
1000
0000
0001
0000
0010
0000
0200
0000
,  // measure 3
0001
0010
0001
0310
,  // measure 4
1000
0000
0010
0000
1010
0000
0100
0001
0010
0000
0001
0000
1001
0000
0000
0000
,  // measure 5
0010
0001
0010
0000
0100
0000
1000
0001
1000
0000
0010
0000
0100
0000
0001
0000
,  // measure 6
1000
0010
1000
0000
0001
0000
0100
0010
0100
0000
0001
0000
1000
0000
0020
0000
,  // measure 7
0001
0000
0000
0000
0100
0000
0000
0000
0001
0000
0000
0000
0130
0000
0001
1000
,  // measure 8
0000
0000
0010
0000
1010
0000
1000
0000
0001
0000
0000
0101
0000
0000
0010
1000
,  // measure 9
0100
1000
1100
0000
0001
0011
0000
1010
,  // measure 10
0000
0000
0100
0000
0010
0000
0100
0000
0001
0000
1000
0100
0010
0000
0100
0000
,  // measure 11
1000
0000
0001
0000
0010
0000
0001
0000
1000
0010
0100
0000
0001
0000
0010
0000
,  // measure 12
0001
0000
1000
0010
0100
0000
0010
0000
1000
0000
0001
0000
0010
0000
0100
0000
,  // measure 13
1100
0000
0101
0000
0010
0110
0000
1001
,  // measure 14
0000
0000
0010
0000
1000
0000
0100
0000
0010
0001
1000
0000
0010
0000
0100
0000
,  // measure 15
0001
0000
1000
0000
0010
0000
0100
0000
0001
0010
0100
1000
0010
0000
0200
0000
,  // measure 16
0000
0000
0310
0000
1000
0000
0001
0000
1000
0000
0010
0100
0010
0000
1000
0001
,  // measure 17
1000
0000
0011
0001
1000
0010
0100
0001
,  // measure 18
0000
0000
0001
0000
0010
0000
0001
0000
0100
0010
1000
0000
0010
0000
1000
0000
,  // measure 19
0000
0001
0101
1000
0000
0010
1010
0001
,  // measure 20
1000
0000
0100
0000
0010
0000
0001
0000
1000
0001
0010
0000
0100
0000
1000
0000
,  // measure 21
0010
0000
0100
0000
0001
0000
0010
0000
0001
1000
0100
0000
1000
0000
0010
0000
,  // measure 22
0000
0000
0010
0000
1000
0000
0001
0000
0100
0010
1000
0001
0100
0000
0001
0000
,  // measure 23
0000
0000
0001
0000
0010
0000
0100
0000
0010
0000
0100
1000
0100
0000
0010
0000
,  // measure 24
0011
0001
1100
1000
0110
0010
1000
0001
,  // measure 25
0100
0000
0001
0000
1000
0000
0100
0000
0010
0000
0100
1000
0100
0000
0010
0000
,  // measure 26
0000
0000
0001
0000
0010
0000
0100
0000
0010
0000
0001
0010
0100
0000
0010
0000
,  // measure 27
0000
0000
0001
0000
1000
0000
0100
0000
1000
0001
1000
0000
0010
0000
0100
0000
,  // measure 28
0000
0000
0010
0000
1000
0000
0001
0000
1000
0000
0100
0010
0100
0000
1000
0000
,  // measure 29
0001
0010
0001
0100
0001
0010
1000
0110
,  // measure 30
0000
0100
1000
0100
0001
1000
1001
0000
,  // measure 31
0110
0000
0010
0000
0100
0000
0100
0000
0101
0000
0000
1100
0000
0000
0110
0000
,  // measure 32
0010
0000
0001
0010
0001
0100
0010
1000
0100
1000
0010
0100
0002
0000
0000
0000
,  // measure 33
1003
0000
0010
0000
1000
0000
0100
0000
1000
0010
0100
0000
0010
0000
1000
0000
,  // measure 34
0000
0000
1001
0000
0001
0000
0010
0000
0001
0100
0010
0000
0100
0000
0001
0000
,  // measure 35
0000
0000
0001
0000
1000
0000
0100
0000
0010
0001
1000
0000
0010
0000
0100
0000
,  // measure 36
0001
0000
0011
0000
0001
0000
0001
0000
1001
0000
0001
0000
0101
0000
0000
1000
,  // measure 37
0010
0000
0100
0010
0100
0000
0010
0000
1000
0000
0100
0010
0100
0000
1000
0000
,  // measure 38
0000
0000
1000
0000
0001
0010
0100
0000
1000
0000
0100
0010
0001
0000
1000
0000
,  // measure 39
0000
0000
0010
0000
0100
0000
0001
0010
0100
0000
1000
0000
0020
0000
0000
0000
,  // measure 40
1030
1000
1100
1000
1000
1001
1001
0000
,  // measure 41
0010
0000
0001
0000
0100
0000
0010
0000
1000
0000
0100
0010
0100
0000
1000
0000
,  // measure 42
0000
0000
0001
0000
0010
0100
0010
0000
0001
0000
1000
0000
0010
0000
0110
0000
,  // measure 43
0000
0000
1000
0000
0001
0000
0010
0000
0001
0000
1000
0100
0010
0000
0001
0000
,  // measure 44
0000
0000
0001
0000
0010
0100
1000
0000
0010
0000
0100
0010
0100
0000
0001
0000
,  // measure 45
1000
0000
0010
0000
0100
0000
0001
0000
1000
0001
0100
0010
1000
0001
0010
0100
,  // measure 46
2000
0000
0000
0000
0000
0000
0000
0000
3010
0000
0000
0011
0000
0000
1100
0000
,  // measure 47
0001
1000
0010
0100
0001
0010
0100
1000
,  // measure 48
0010
0100
0010
0100
0001
0010
0001
0010
0100
1000
0100
0010
0002
0000
0000
0000
,  // measure 49
2003
0000
0000
0000
0000
0000
0010
0000
3010
0000
0000
0000
0100
0001
0100
0000
,  // measure 50
0000
0000
0010
0000
0100
0000
0010
0000
1000
0000
0001
0010
0001
0000
1000
0000
,  // measure 51
0010
0100
0110
0000
0001
0101
0000
1100
,  // measure 52
0000
0000
1000
0000
0010
0000
1000
0000
0001
1000
0100
0010
0002
0000
0000
0000
,  // measure 53
0013
0000
1100
0000
0010
0110
0000
1001
,  // measure 54
0000
0000
0100
0000
0010
0000
1000
0000
0100
0000
0001
0000
0100
1000
0001
0000
,  // measure 55
0100
0000
0010
0000
0100
0000
0001
0000
1000
0100
1000
0010
0100
0000
0001
0000
,  // measure 56
0010
0000
0010
0000
0011
0000
0010
0000
1100
0000
0000
0101
0000
0000
1000
0010
,  // measure 57
0100
0000
0001
0000
1000
0100
0010
0000
0100
0000
1000
0000
0001
0000
0100
0000
,  // measure 58
0000
0000
0010
0100
0010
0000
1000
0000
0001
0000
1000
0100
0010
0000
0001
0000
,  // measure 59
1000
0000
0010
0000
0100
0000
0001
1000
0100
0000
1000
0000
0010
0000
0110
0000
,  // measure 60
0000
0000
1000
0000
0001
0000
0010
0000
0001
0010
0100
1000
0001
0000
0100
0000
,  // measure 61
0010
0000
1000
0000
0100
1000
0001
0000
0100
0000
0010
0000
1000
0001
0010
0000
,  // measure 62
0001
0000
1000
0000
0100
1000
0001
0000
0100
0000
0010
0000
1000
0000
0000
0000
,  // measure 63
1010
0000
0010
0000
1010
0000
1000
0000
0101
0000
0000
1100
0000
0000
0011
0000
,  // measure 64
2200
0000
0000
0000
0000
0000
0000
0000
3300
0000
0001
0010
0100
1000
0010
0100
,  // measure 65
0001
1000
0100
0010
0002
0000
0000
0000
1003
0000
0010
0100
0010
0000
1000
0000
,  // measure 66
0001
0000
0010
0000
0100
0000
0010
0000
0000
0000
0001
1000
0001
0000
1000
0000
,  // measure 67
0100
0000
0001
0000
0100
0000
1000
0000
0000
0000
0010
0000
0100
0010
0100
0000
,  // measure 68
0001
1000
0100
0010
0000
0001
1001
0001
,  // measure 69
0101
0000
0001
0000
1001
0000
0000
0000
0100
0000
0010
0100
0010
0000
1000
0000
,  // measure 70
0001
0000
0010
0100
1000
0000
0010
0000
0000
0000
0100
0000
0010
1000
0100
0000
,  // measure 71
0010
0000
0001
0000
1000
0000
0100
0000
0000
0000
1000
0010
0100
0000
0001
0000
,  // measure 72
0010
0000
0001
0000
0010
0001
0100
0000
0000
0000
0010
0000
1010
0000
0010
0000
,  // measure 73
0110
0000
0000
1001
0000
0000
1000
0100
0010
0000
0001
0000
0010
0000
1000
0000
,  // measure 74
0010
0000
0001
0000
0100
1000
0100
0000
0000
0000
0010
0100
0010
0000
1000
0000
,  // measure 75
0001
0000
0010
0000
0001
0000
1000
0000
0000
0000
0010
0100
0001
0000
1000
0000
,  // measure 76
1010
0000
0000
0011
0000
0000
1100
0000
0000
0000
0001
0010
0001
0000
1000
0000
,  // measure 77
0100
0000
0010
0000
0100
1000
0001
0000
0100
0000
0010
0000
1000
0000
0001
0000
,  // measure 78
0010
0001
1000
0100
1000
0001
0010
0100
2000
0000
0000
0000
0000
0000
3001
0010
,  // measure 79
0100
0000
0000
1001
0000
0000
0010
0000
0100
0000
0001
0000
1000
0000
0100
0000
,  // measure 80
0010
0000
0001
0000
1000
0000
0010
0000
1000
0100
1000
0100
0010
0001
0010
0001
,  // measure 81
1000
0000
0010
0100
0010
0000
0000
0000
1000
0100
0010
0000
0100
0000
1000
0001
,  // measure 82
0010
0000
0001
0000
1000
0000
0000
0000
0010
0100
0001
0000
0100
0000
0010
1000
,  // measure 83
0100
1000
0001
0200
0010
0000
1000
0000
,  // measure 84
0010
0000
1300
0000
0100
0001
0011
0000
,  // measure 85
1000
0000
0001
0000
0010
0000
0001
1000
0100
0000
1000
0000
0020
0000
0000
0000
,  // measure 86
0130
0000
0001
0100
0010
0000
1000
0000
0001
0010
0100
0000
1000
0000
0010
0000
,  // measure 87
1000
0001
0100
0020
1000
0000
0001
0000
,  // measure 88
1030
0000
0001
0000
1000
0100
0010
0001
0000
0000
1000
0000
1001
0000
0001
0000
,  // measure 89
0110
0000
0000
1001
0000
0000
0010
0100
0000
0000
0000
0000
2002
0000
0000
0000
,  // measure 90
0000
0000
3003
0000
;
