#TITLE:PIT A PAT;
#SUBTITLE:;
#ARTIST:Zekk;
#TITLETRANSLIT:;
#SUBTITLETRANSLIT:;
#ARTISTTRANSLIT:;
#GENRE:NEO CANDY RAVE;
#CREDIT:;
#BANNER:PIT A PAT_banner.png;
#BACKGROUND:PIT A PAT_bg.png;
#LYRICSPATH:;
#CDTITLE:;
#MUSIC:PIT A PAT.ogg;
#OFFSET:0.080000;
#SAMPLESTART:93.089996;
#SAMPLELENGTH:11.230000;
#LASTBEATHINT:344.500000;
#SELECTABLE:YES;
#BPMS:0.000000=170.000000
;
#STOPS:
;
#BGCHANGES:-1.830=PIT A PAT_BGA.avi=1.000=0=0=0=StretchNoLoop====,
99999=-nosongbg-=1.000=0=0=0 // don't automatically add -songbackground-
;
#KEYSOUNDS:;
#ATTACKS:;

//---------------dance-single - ----------------
#NOTES:
     dance-single:
     :
     Easy:
     7:
     0.302449,0.348107,0.146571,0.171000,0.000000,260.000000,242.000000,18.000000,21.000000,0.000000,0.000000,0.302449,0.348107,0.146571,0.171000,0.000000,260.000000,242.000000,18.000000,21.000000,0.000000,0.000000:
0000
0000
0000
0000
,
0000
0000
0000
0000
,
0000
0000
0000
0000
,
0000
0000
0000
0000
,
0000
0000
0000
0000
,
0001
0010
0000
0001
,
1000
0010
0000
1000
,
0001
0000
0100
0000
,
0220
0000
0330
0000
,
1000
0100
0010
0000
,
0001
0100
0010
0000
,
1000
0100
0010
0000
,
0001
0100
0010
0000
,
1000
0001
0010
0100
,
0010
0001
0001
0000
,
0100
0010
1000
0001
,
2002
0000
3003
0000
,
0100
0001
0010
0001
,
0100
0010
0100
0000
,
0010
1000
0100
1000
,
0010
0100
0010
0000
,
1000
0100
0010
0001
,
0100
0010
1000
0000
,
0001
0010
0100
1000
,
0010
0100
0220
0330
,
0001
1000
0010
1000
,
0001
0010
0100
0000
,
0010
0001
1000
0001
,
0010
0100
1000
0000
,
1000
0001
0100
0001
,
1000
0010
0100
0000
,
0010
1000
0001
1000
,
0200
0000
0300
0000
,
0010
0001
0010
0000
,
0001
0100
0001
0000
,
1000
0100
1000
0000
,
2002
0000
3003
0000
,
0020
0000
0130
0001
,
0100
0010
0100
0000
,
0020
0000
1030
0100
,
1000
0010
0100
0000
,
0010
1000
0100
0010
,
0002
0100
0103
0000
,
0001
0010
0100
1000
,
0002
0010
0013
0000
,
1000
0000
0010
1000
,
0001
0100
0010
0000
,
1000
0100
0010
0001
,
2002
0000
3003
0000
,
0010
0000
0010
0000
,
0001
0000
0001
0000
,
0100
0000
0100
0000
,
1000
0000
1000
0000
,
0010
0001
0100
0000
,
0010
1000
0100
0000
,
1000
0100
0001
0100
,
1000
0001
1001
0000
,
0110
0000
0001
0010
,
0100
0010
0001
0000
,
1001
0000
1000
0010
,
0100
0010
1000
0000
,
0010
0100
0110
0000
,
0001
0010
0011
0000
,
1000
0001
0010
0100
,
2200
0000
3300
0000
,
0202
0000
0303
0000
,
0010
1000
0100
1000
,
0001
0100
0001
0000
,
1000
0010
1000
0001
,
0100
0001
0010
0000
,
0001
0010
0100
1000
,
0010
0100
0001
0000
,
1000
0100
0010
0001
,
1000
0001
1001
0000
,
0010
1000
0100
1000
,
0001
0100
0101
0000
,
0010
1000
0001
0010
,
0001
1000
1010
0000
,
0001
0000
0100
0001
,
0011
0000
1000
0100
,
1000
0010
0100
0001
,
0022
0000
0033
0000
,
1000
0000
0100
0000
,
1000
0010
1000
0000
,
0001
0000
0100
0000
,
0001
1000
0110
0000
;

//---------------dance-single - ----------------
#NOTES:
     dance-single:
     :
     Medium:
     11:
     0.496714,0.522161,0.301286,0.211714,0.004071,427.000000,390.000000,37.000000,26.000000,0.000000,0.000000,0.496714,0.522161,0.301286,0.211714,0.004071,427.000000,390.000000,37.000000,26.000000,0.000000,0.000000:
0000
0000
0000
0000
,
0000
0000
0000
0000
,
0000
0000
0000
0000
,
0000
0000
0000
0000
,
0000
0000
0000
0000
,
1000
0010
0100
0000
0010
0000
0100
0001
,
0000
0001
0010
0000
0220
0000
0330
0000
,
1000
0000
0001
0000
0010
0001
1000
0000
,
0001
0100
0010
0000
0220
0000
0330
0000
,
1000
0000
0100
0000
1000
0100
0010
0000
,
0001
0000
0100
0000
0001
0010
0100
0000
,
1000
0000
0010
0000
1000
0100
0010
0000
,
0001
0000
0010
0000
0001
0100
0010
0000
,
1000
0000
1100
0000
0001
0100
0010
0000
,
0100
0000
0011
0000
0001
1000
0100
0000
,
1000
0010
0100
0000
0001
0010
0100
1000
,
0020
0000
0000
0000
0000
0030
0000
0000
,
0110
0000
1000
0001
0010
0001
0000
0100
,
0000
0010
0100
0000
0110
0000
0000
0000
,
1000
0000
0100
1000
0010
0000
0100
0000
,
0001
0000
0010
0001
1000
0001
0010
0000
,
0001
0000
0100
0010
0100
0001
0000
0010
,
0000
0100
1000
0000
1001
0000
0000
0000
,
0010
0100
0010
0000
1000
0100
1000
0000
,
0010
0110
1000
1001
,
0010
1000
0001
0000
1000
0001
0100
0000
,
0001
1000
0100
0010
0002
0000
1003
0000
,
0010
0100
0001
0000
0010
0100
1000
0000
,
0010
0000
0110
0000
1000
0001
1000
0000
,
0001
0100
0010
0000
1000
0100
0010
0000
,
0001
0100
0010
1000
0002
0000
1003
0000
,
1000
0100
0010
0000
0001
0010
0100
1000
,
0020
0000
0130
0000
,
0001
0100
0001
0000
0100
0000
0101
0000
,
1000
0100
1000
0100
1000
0000
1000
0000
,
0100
0010
0100
0000
0100
0010
0100
0000
,
0220
0000
0330
0000
,
1001
0000
0010
1000
0100
1000
0010
0000
,
0100
0010
0000
0100
0010
0000
0110
0000
,
0001
0100
0010
0100
0001
0000
0010
0000
,
0001
0100
0000
0001
0100
0000
0101
0000
,
1000
0100
0010
0100
2000
0000
3001
0000
,
0010
0100
0000
0010
0100
0000
0110
0000
,
0001
0010
0100
1000
0010
0100
0010
0000
,
2000
0000
0001
3001
,
0100
0000
0000
0010
0000
0000
0100
0000
0000
0000
0001
0000
0010
0000
0001
0000
,
1000
0000
0010
1000
0000
0001
0100
0000
,
0001
1000
0001
0000
1000
0010
0100
0001
,
0020
0000
0000
0030
,
0000
0100
1000
0000
0001
0000
0100
0001
,
0000
1000
0001
0000
2002
0000
3003
0000
,
0000
0010
0100
0000
0001
0000
0010
0001
,
0000
1000
0100
0000
0010
0010
0000
0000
,
0000
0001
0100
0000
0010
0000
1000
0100
,
0000
0100
1000
0000
0001
0000
0100
0000
,
0001
0000
0011
0000
1000
0010
1000
0000
,
0001
1000
0010
0100
0002
0000
0003
0000
,
0011
0000
1000
0100
1000
0001
0000
0010
,
0000
0001
0100
0000
0110
0000
0000
0000
,
1010
0000
0010
1000
0100
0000
1000
0000
,
0010
0000
0100
0001
0010
0000
0001
0000
,
1000
0100
0010
0001
0200
0000
0300
0000
,
0001
0010
0100
1000
0020
0000
0030
0000
,
1000
0100
1000
0010
0100
0001
0010
0001
,
0200
0000
0000
0000
0000
0300
0000
0000
,
0220
0000
0000
0000
0000
0330
0000
0000
,
1001
0000
0010
1000
0001
0100
0000
0010
,
0000
0100
0001
0000
0011
0000
0000
0000
,
1100
0000
1000
0010
0100
0010
1000
0000
,
0101
0000
0010
0100
0001
0100
0010
0000
,
2000
0000
3001
0010
0001
1000
0000
0010
,
0000
1000
0100
0000
0110
0000
0000
0000
,
0001
0100
0001
0000
1000
0100
1000
0000
,
0100
0110
0001
1001
,
0010
0110
0010
0110
,
1000
0100
0010
0001
0200
0000
0310
0000
,
0010
0100
0001
0000
0010
0100
1000
0000
,
0001
1001
0001
1001
,
2000
0000
0000
0000
3010
0000
0100
0001
,
0020
0000
0000
0000
0130
0000
1000
0010
,
1000
0100
0010
0001
1000
0001
0010
0100
,
2000
0001
3001
0000
,
0100
0000
0010
0000
1000
0000
0100
1000
,
0001
0100
0110
0000
,
0001
0010
1000
0000
1000
0010
0001
0000
,
0011
0110
1100
0000
;

//---------------dance-single - ----------------
#NOTES:
     dance-single:
     :
     Hard:
     15:
     0.793347,0.905079,0.390857,0.171000,0.472286,682.000000,634.000000,48.000000,21.000000,0.000000,0.000000,0.793347,0.905079,0.390857,0.171000,0.472286,682.000000,634.000000,48.000000,21.000000,0.000000,0.000000:
// measure 0
0000
0000
0000
0000
,  // measure 1
0000
0000
0000
0000
,  // measure 2
0000
0000
0000
0000
,  // measure 3
0000
0000
0000
0000
,  // measure 4
0000
0000
0000
0000
,  // measure 5
0001
0100
1000
0000
0100
0010
1000
0100
,  // measure 6
0000
0100
0010
0001
1000
0000
1001
0000
,  // measure 7
0010
1000
0100
0010
0001
0100
0010
1000
,  // measure 8
0001
0000
1000
0100
1000
0100
1000
0020
0200
0000
0330
0000
0000
0000
0000
0000
,  // measure 9
1001
0000
0000
0000
0010
0000
0001
0000
0100
0000
0010
0100
0000
0010
0100
0000
,  // measure 10
0001
0000
0010
0000
0100
0000
1000
0000
0010
0000
1000
0100
0000
1000
0010
0000
,  // measure 11
0100
0000
0001
0000
0100
0000
1000
0000
0100
0000
0001
0010
0000
0100
1000
0000
,  // measure 12
0010
0000
0001
0000
0010
0000
1000
0000
0001
0000
1000
0100
0000
0010
0001
0000
,  // measure 13
1000
0000
0001
0000
0100
0010
0100
0000
0001
0000
0010
0100
2000
0000
0000
0000
,  // measure 14
3001
0000
1000
0000
0010
0100
0010
0000
1000
0000
0100
0010
0002
0000
0000
0000
,  // measure 15
0103
0000
0010
0000
1000
0000
0001
0000
1000
0010
1000
0010
0100
0001
0100
0001
,  // measure 16
0020
0000
0000
0000
0000
0100
0130
0000
,  // measure 17
1001
0000
0100
1000
0100
0001
0010
1000
,  // measure 18
0001
0000
1000
0000
0010
0000
0001
0000
0100
0000
0010
0000
1000
0001
0100
0000
,  // measure 19
0010
0000
1000
0000
0100
0000
0001
0000
0100
0000
1000
0001
0100
0000
0010
0000
,  // measure 20
1000
0000
0001
0000
0010
0001
1000
0000
0010
0100
0000
0100
0010
0000
1000
0000
,  // measure 21
0002
0000
0013
1000
0010
0001
0100
1000
,  // measure 22
0001
0000
1000
0000
0100
0000
0001
0000
0010
0000
0100
0000
1000
0010
0100
0000
,  // measure 23
0001
0000
0010
0000
0100
0000
0010
0000
0001
0000
1000
0100
1000
0000
0010
0000
,  // measure 24
0100
0000
0010
1000
0100
0000
0010
0001
0100
0010
0000
0010
0100
0000
0001
0000
,  // measure 25
0010
0001
1001
1000
0010
0100
0110
0010
,  // measure 26
1000
0000
0100
0000
0001
0000
0100
0000
1000
0001
0000
0001
1000
0000
0010
0000
,  // measure 27
0100
0001
0011
0010
0100
1000
1100
0100
,  // measure 28
0010
0000
0001
0000
1000
0000
0010
0000
0001
0010
0000
0010
1000
0000
0001
0000
,  // measure 29
0100
0010
1001
0010
0100
0010
1001
0010
,  // measure 30
0100
0000
1000
0000
0100
0000
0001
0000
0010
0100
0000
0100
0010
0000
0001
0000
,  // measure 31
1000
0001
0110
1000
0001
1000
0110
0001
,  // measure 32
2002
0000
3003
0000
,  // measure 33
0010
0010
0010
0000
0100
0100
0010
0100
,  // measure 34
0001
0001
0001
0001
1001
0000
1001
0000
,  // measure 35
0100
0000
0100
0000
0100
0000
0000
0000
0010
0000
0010
0000
0010
0100
0010
0000
,  // measure 36
2000
0000
3000
0000
,  // measure 37
0001
0000
0010
0000
0001
0000
1000
0100
1000
0100
1000
0000
0010
0000
0100
0000
,  // measure 38
0001
0000
0010
0001
0010
0000
0100
0000
1000
0100
1000
0000
0001
0000
0100
0000
,  // measure 39
0010
0000
1000
0010
1000
0000
0001
0100
0001
0100
0001
0000
1000
0000
0100
0000
,  // measure 40
1000
0010
0100
0000
0001
0010
0100
0000
1000
0010
0100
0001
0020
0000
0000
0000
,  // measure 41
0031
0000
0100
0010
0100
0000
0010
1000
0010
1000
0010
0000
0100
0000
0001
0000
,  // measure 42
1000
0000
0001
0100
0001
0000
1000
0100
1000
0100
1000
0000
0010
0000
0100
0000
,  // measure 43
0001
0000
0010
0001
0010
0000
0001
1000
0001
1000
0001
0000
0100
0000
0010
0000
,  // measure 44
1000
0100
1000
0000
0010
1000
0010
0000
1000
0001
0010
0100
0020
0000
0000
0000
,  // measure 45
0130
0000
0000
1001
0000
0000
0100
0001
0100
0001
0010
0001
0010
0000
0100
0000
,  // measure 46
1000
0000
0010
1000
0010
0000
0100
0001
0100
0001
0100
0000
0010
0000
1000
0000
,  // measure 47
0100
0000
1000
0000
0010
0000
0100
0000
0001
0010
0001
0010
0100
1000
0100
1000
,  // measure 48
0020
0000
0130
0000
,  // measure 49
0001
0010
0100
0000
0011
0000
1000
0010
,  // measure 50
0000
0100
1000
0000
0202
0000
0303
0000
,  // measure 51
0010
0100
1000
0000
1001
0000
0010
0100
,  // measure 52
0000
0000
0010
0000
0001
0000
0000
0000
0010
1000
0100
0000
0000
0000
0000
0000
,  // measure 53
0010
0000
0001
0000
1000
0000
0010
1000
0001
0000
0010
0000
0001
0000
1000
0000
,  // measure 54
0000
0000
1000
0000
0010
0000
0100
0001
0010
0000
0000
0000
0011
0000
0000
0000
,  // measure 55
1100
0000
0001
0000
0010
0001
0100
0010
,  // measure 56
1000
0000
0001
0010
0100
0010
0001
0000
2000
0000
0000
0000
3000
0000
0000
0000
,  // measure 57
1001
0000
0010
1000
0100
1000
0000
1010
,  // measure 58
0000
0001
0010
0100
1000
0000
1001
0000
,  // measure 59
0100
0000
0010
0000
0100
0000
0001
0000
0010
0000
0001
1000
0001
0000
0000
0000
,  // measure 60
0110
0000
0000
0000
0001
0010
0001
0000
0000
0000
0001
0000
0010
0000
0100
0000
,  // measure 61
1000
0010
1000
0010
1000
0010
1000
0010
1000
0000
0000
0000
0101
0000
0000
0000
,  // measure 62
0001
0010
0001
0010
0001
0010
0001
0010
0001
0000
0000
0000
1100
0000
0000
0000
,  // measure 63
0001
1000
0010
0000
1000
0001
0010
0000
0001
0100
0010
1000
0100
0010
0001
0100
,  // measure 64
0020
0000
0000
0000
,  // measure 65
0200
0000
0000
0000
0000
0330
0110
0000
,  // measure 66
1001
0000
0010
0001
0010
1000
0100
0001
,  // measure 67
1000
0000
0001
0000
0100
0000
1000
0000
0010
0000
0100
0000
0001
1000
0010
0000
,  // measure 68
0100
0000
0001
0000
0010
0000
1000
0000
0010
0000
0001
1000
0010
0000
0100
0000
,  // measure 69
0001
0000
1000
0000
0100
1000
0001
0000
0100
0010
0000
0010
0100
0000
0001
0000
,  // measure 70
2000
0000
3100
0001
0100
1000
0010
0001
,  // measure 71
1000
0000
0001
0000
0010
0000
1000
0000
0100
0000
0010
0000
0001
0100
0010
0000
,  // measure 72
1000
0000
0100
0000
0010
0000
0100
0000
1000
0000
0001
0010
0001
0000
0100
0000
,  // measure 73
0010
1000
0001
0000
0010
0001
1000
0000
0010
0100
0000
0100
0010
1000
0100
0000
,  // measure 74
1000
0100
0101
0100
1000
0100
0101
0100
,  // measure 75
1000
0000
0010
0000
0001
0000
0010
0000
1000
0000
0001
0100
0001
0000
0000
0000
,  // measure 76
0001
0010
1010
0010
0001
0010
1010
0010
,  // measure 77
0001
0000
0100
0000
1000
0000
0100
0000
0010
1000
0000
0001
0100
0000
0010
0000
,  // measure 78
1000
0000
0000
0000
1001
0000
0000
0000
0011
0000
0000
0000
0001
0010
0100
1000
,  // measure 79
0010
0000
0000
0000
1010
0000
0000
0000
0101
0000
0000
0000
0010
1000
0001
0100
,  // measure 80
0001
0000
0010
0000
0100
0000
1000
0000
0010
1000
0010
1000
0001
0100
0001
0100
,  // measure 81
0020
0000
0130
0000
2002
3003
0000
0000
,  // measure 82
0011
0000
1000
0000
0011
0000
1000
0100
,  // measure 83
1100
0000
1001
0000
1100
0000
0010
1000
,  // measure 84
1010
0001
0011
0000
1010
0000
0001
0010
,  // measure 85
0011
0110
1100
0000
;

//---------------dance-double - ----------------
#NOTES:
     dance-double:
     :
     Easy:
     7:
     0.280347,0.313296,0.089571,0.138429,0.000000,241.000000,230.000000,11.000000,17.000000,0.000000,0.000000,0.280347,0.313296,0.089571,0.138429,0.000000,241.000000,230.000000,11.000000,17.000000,0.000000,0.000000:
00000000
00000000
00000000
00000000
,
00000000
00000000
00000000
00000000
,
00000000
00000000
00000000
00000000
,
00000000
00000000
00000000
00000000
,
00000000
00000000
00000000
00000000
,
00100000
00010000
00000000
00010000
,
10000000
00100000
00000000
00100000
,
01000000
00010000
00100000
00001000
,
00022000
00000000
00033000
00000000
,
00000010
00001000
00000010
00000000
,
00001000
00000001
00001000
00000000
,
00000100
00010000
00000100
00000000
,
00100000
00001000
00100000
00000000
,
00010000
01000000
00100000
00000000
,
10000000
01000000
00100000
00000000
,
00010000
00100000
00001000
00010000
,
00020200
00000000
00030300
00000000
,
00000010
00001000
00000100
00000010
,
00000001
00000100
00000001
00000000
,
00001000
00000010
00010000
00000100
,
00010000
00001000
01000000
00000000
,
00100000
10000000
01000000
10000000
,
00010000
00100000
01000000
00000000
,
00100000
00001000
00010000
00000100
,
00001000
00000010
00000110
00000000
,
00000001
00001000
00000100
00001000
,
00000001
00000010
00000100
00000000
,
00010000
00001000
00100000
00001000
,
01000000
00010000
10000000
00000000
,
00100000
10000000
01000000
10000000
,
00010000
00100000
00001000
00000000
,
00010000
00000010
00001000
00000100
,
00022000
00000000
00033000
00000000
,
00100000
00000000
00010000
00000000
,
00100000
00001000
00100000
00000000
,
01000000
00000000
10000000
01000000
,
20000000
00000000
30000000
00000000
,
00010000
00000000
01000000
00010000
,
00100000
00001000
00010000
00000000
,
00000010
00000000
00001000
00000001
,
00000100
00000010
00010000
00000000
,
00001000
00000000
00100000
00010000
,
10000000
00010000
00100000
00000000
,
00001000
00000000
00010000
00000010
,
00001000
00001000
00001000
00000000
,
00000002
00000000
00000013
00000100
,
00020000
00000000
00031000
00100000
,
00010000
00100000
01000000
10000000
,
20020000
00000000
30030000
00000000
,
01000000
00000000
01000000
00000000
,
00010000
00000000
00010000
00000000
,
00100000
00000000
00100000
00000000
,
00001000
00000000
00001000
00000000
,
00010000
00000100
00010000
00000000
,
00001000
00100000
00001000
00000000
,
00010000
00000000
00001000
00000000
,
00022000
00000000
00033000
00000000
,
00000010
00000000
00001000
00000100
,
00001000
00000000
00000001
00000000
,
00000100
00000000
00000010
00001000
,
00000100
00000000
00010000
00000000
,
00001000
00100000
00001000
00000000
,
00010000
00000010
00010000
00000000
,
00001000
00100000
00010000
10000000
,
00200000
00000000
00300000
00000000
,
02200000
00000000
03300000
00000000
,
00010000
00000000
00100000
00001000
,
00010000
00001000
00100000
00000000
,
00001000
00000000
00010000
00000010
,
00001000
00000100
00010000
00000000
,
00000010
00001000
00000100
00000010
,
00000001
00001000
00000010
00000000
,
00010000
00001000
00100000
00010000
,
10000000
00100000
01100000
00000000
,
10000000
01000000
10000000
00100000
,
10000000
00010000
00010000
00000000
,
00100000
00001000
00010000
00001000
,
00100000
00001000
00001000
00000000
,
00011000
00000000
00000010
00000000
,
00000110
00000000
00001000
00000000
,
00000001
00000010
00000100
00001000
,
00000020
00000000
00000030
00000000
,
00001000
00000000
00000100
00000000
,
00010000
00001000
00100000
00000000
,
00010000
00000000
01000000
00000000
,
00001000
00010000
00011000
00000000
;

//---------------dance-double - ----------------
#NOTES:
     dance-double:
     :
     Medium:
     11:
     0.493225,0.556971,0.276857,0.187286,0.004071,424.000000,390.000000,34.000000,23.000000,0.000000,0.000000,0.493225,0.556971,0.276857,0.187286,0.004071,424.000000,390.000000,34.000000,23.000000,0.000000,0.000000:
00000000
00000000
00000000
00000000
,
00000000
00000000
00000000
00000000
,
00000000
00000000
00000000
00000000
,
00000000
00000000
00000000
00000000
,
00000000
00000000
00000000
00000000
,
00000010
00000001
00001000
00000000
00000010
00000000
00010000
00001000
,
00000000
00001000
00010000
00000000
00022000
00000000
00033000
00000000
,
00100000
00000000
00010000
00000000
10000000
01000000
10000000
00000000
,
00100000
01000000
00010000
00100000
00002000
00000000
00003000
00000000
,
00010000
00000000
00010000
00000000
00001000
00010000
00001000
00000000
,
00010000
00000000
00010000
00000000
00000100
00001000
00000100
00000000
,
00010000
00000000
00001000
00000000
00100000
00010000
00100000
00000000
,
00001000
00010000
00002020
00003030
,
00000100
00000000
00000001
00000000
00000010
00000001
00001000
00000000
,
00000010
00000000
00001000
00000000
00000100
00010000
00001000
00000000
,
00100000
00001000
00010000
00000000
00001000
00100000
00010000
01000000
,
00200000
00000000
00000000
00300000
,
01100000
00000000
10000000
01000000
00100000
01000000
00000000
10000000
,
00000000
00010000
00100000
00000000
00101000
00000000
00000000
00000000
,
00010000
00000100
00010000
00000000
00001000
00010000
00000100
00000000
,
00001000
00000000
00000001
00000010
00000000
00000010
00000001
00000000
,
00000101
00000000
00000010
00001000
00000100
00001000
00000000
00000001
,
00000000
00000100
00000010
00000000
00000110
00000000
00000000
00000000
,
00001000
00000100
00010000
00000000
00001000
00010000
00001000
00000000
,
00100000
00110000
01000000
11000000
,
10000000
00100000
01000000
00000000
00010000
00100000
00001000
00000000
,
00010000
00000100
00001000
00000100
00010000
00000000
00000010
00000000
,
00000010
00001000
00000100
00000000
00000010
00000001
00000100
00000000
,
00000010
00001000
00000100
00010000
00002000
00000000
00013000
00000000
,
00001000
00101000
01000000
01010000
,
00100000
10000000
01000000
10000000
00100000
00000000
01000000
00000000
,
00010000
00100000
00001000
00000000
00010000
00000100
00001000
00000100
,
00020000
00000000
00031000
00000000
,
00001000
00010000
00000100
00000000
00001000
00000000
00001000
00000000
,
00000001
00000000
00000001
00000100
00000001
00000000
00000011
00000000
,
00001000
00000010
00001000
00000000
00000100
00000000
00010000
00000000
,
00022000
00000000
00033000
00000000
,
00001000
00000000
00100000
00010000
01000000
00100000
10000000
00000000
,
00010000
10000000
00000000
00010000
01000000
00000000
00001000
00000000
,
00011000
00000000
00010000
00000010
00000100
00000010
00001000
00000000
,
00000001
00000010
00000000
00000100
00001000
00000000
00010100
00000000
,
00010000
00000010
00000000
00000010
00001000
00000100
00001000
00000000
,
00000001
00000100
00000000
00000010
00001000
00000000
00001100
00000000
,
00010000
00001000
00100000
00000000
00010000
01000000
00010000
00100000
,
02000000
00000000
00000000
03000000
,
10000000
00000000
00000000
00010000
00000000
00000000
10000000
00000000
00000000
00000000
00100000
00000000
01000000
00000000
00010000
00000000
,
00100000
00001000
00000000
00010000
00000100
00000000
00001000
00000000
,
00000010
00000100
00000001
00000000
00000010
00000100
00010000
00001000
,
00020000
00000000
00031000
00000000
,
00000000
01000000
00100000
00000000
10000000
00000000
01000000
00100000
,
00000000
00001000
00010000
00000000
00022000
00000000
00033000
00000000
,
00000000
00000010
00000100
00000000
00000001
00000000
00000010
00000001
,
00000000
00001000
00000001
00000000
00000220
00000000
00000330
00000000
,
00001000
00000000
00000100
00000000
00010000
00001000
00010000
00000000
,
00001000
00000000
00100000
00000000
00010000
01000000
00010000
00000000
,
10000000
00000000
00100000
00000000
10000000
01000000
00100000
00000000
,
00010000
00100000
00001000
00010000
00000200
00000000
00000300
00000000
,
00001010
00000000
00000100
00000000
00000001
00000010
00000000
00000100
,
00000000
00010000
00001000
00000000
00011000
00000000
00000000
00000000
,
00100000
00010000
00100000
00000000
01000000
10000000
01000000
00000000
,
10000000
00000000
00100000
01000000
00000000
00010000
00100000
00000000
,
00001000
00010000
00000100
00010000
00001000
00000000
00011000
00000000
,
00001000
00100000
00001000
00010000
00001000
00000000
00011000
00000000
,
00100000
00010000
01000000
00100000
10000000
00010000
00100000
00001000
,
00020000
00000000
00000000
00030000
,
00002200
00000000
00003300
00000000
,
00000101
00000000
00000010
00001000
00000100
00001000
00000000
00000001
,
00000000
00000010
00000100
00000000
00010100
00000000
00000000
00000000
,
00001000
00100000
00001000
00000000
00010000
00000100
00010000
00000000
,
00001000
00000000
00100000
00010000
01000000
00100000
10000000
00000000
,
11000000
00000000
00100000
01000000
00010000
01000000
00000000
00001000
,
00000000
00100000
00001000
00000000
00011000
00000000
00000000
00000000
,
00000010
00001000
00000100
00000000
00000010
00000001
00001000
00000000
,
00000010
00010010
00001000
00011000
,
00100000
00010000
10000000
00000000
00100000
10000000
00010000
00000000
,
01000000
00010000
00100000
00001000
00020000
00000000
00031000
00000000
,
00001000
00010000
00000010
00000000
00001000
00000001
00000100
00000000
,
00000010
00001000
00000100
00010000
00002000
00000000
00013000
00000000
,
00101000
00000000
00000000
00000000
00010000
00000000
00100000
01000000
,
10000000
00000000
00000000
00000000
00100000
00000000
01000000
00010000
,
00100000
00001000
00010000
00000100
00001000
00000010
00000100
00000001
,
00000020
00000000
00000000
00000030
,
00000001
00001010
00000100
00000011
,
00000100
00000000
00011000
00000000
00000010
00000000
00001000
00000100
,
00010000
00001000
00100000
00000000
00010000
01000000
00100000
00000000
,
11000000
00100000
00011000
00000000
;

//---------------dance-double - ----------------
#NOTES:
     dance-double:
     :
     Hard:
     15:
     0.778225,0.905079,0.293143,0.179143,0.447857,669.000000,633.000000,36.000000,22.000000,0.000000,0.000000,0.778225,0.905079,0.293143,0.179143,0.447857,669.000000,633.000000,36.000000,22.000000,0.000000,0.000000:
00000000
00000000
00000000
00000000
,
00000000
00000000
00000000
00000000
,
00000000
00000000
00000000
00000000
,
00000000
00000000
00000000
00000000
,
00000000
00000000
00000000
00000000
,
00100000
01000000
10000000
00000000
00100000
01000000
00001000
00010000
,
00000000
00000100
00010000
00000010
00001000
00000000
00001001
00000000
,
00000010
00000100
00000001
00000000
00000010
00000100
00010000
00001000
,
00100000
00000000
00010000
10000000
00100000
10000000
00010000
00200000
02000000
00000000
03300000
00000000
00000000
00000000
00000000
00000000
,
11000000
00000000
00000000
00000000
00100000
00000000
01000000
00000000
00010000
00000000
00100000
00001000
00000000
00010000
00001000
00000000
,
00000100
00000000
00000010
00000000
00001000
00000000
00000001
00000000
00000010
00000000
00000100
00000010
00000002
00000000
00000000
00000000
,
00001003
00000000
00000010
00000000
00010000
00000000
00000100
00000000
00001000
00000000
00000010
00010000
00000000
00001000
00010000
00000000
,
00001000
00000000
00100000
00000000
00010000
00000000
01000000
00000000
00100000
00000000
10000000
00010000
02000000
00000000
00000000
00000000
,
03100000
00000000
10000000
00000000
01000000
10000000
00010000
00000000
00100000
00000000
00001000
01000000
00020000
00000000
00000000
00000000
,
00130000
00000000
00001000
00000000
00010000
00000000
00000010
00000000
00001000
00000000
00000001
00000010
00000200
00000000
00000000
00000000
,
00000310
00000000
00000001
00000000
00001000
00000000
00000100
00000000
00010000
00001000
00100000
00010000
01000000
00100000
10000000
00010000
,
00200000
00000000
00000000
00000000
00000000
01000000
01300000
00000000
,
10010000
00000000
00100000
00010000
01000000
10000000
01000000
00001000
,
00010000
00000000
00100000
00000000
01000000
00000000
10000000
00000000
02000000
00000000
00000000
00000000
03010000
00100000
00001000
00000000
,
00010000
00000000
00000100
00000000
00000010
00000000
00000001
00000000
00001000
00000000
00000100
00000010
00000100
00000000
00001000
00000000
,
00000001
00000000
00000010
00000000
00000100
00010000
00001000
00000000
00010000
00001000
00000000
00001000
00010000
00000000
00000010
00000000
,
00000200
00000000
00000301
00000010
00001000
00000010
00000001
00001000
,
00000100
00010000
01000000
00100000
10000000
00000000
00110000
00000000
,
10000000
00000000
00100000
01000000
00100000
00000000
10000000
00000000
00010000
00000000
00100000
00001000
00100000
00000000
00010000
00000000
,
01000000
00000000
00000000
00000000
00110000
00000000
00000000
00000000
10000000
00000000
00000000
00000000
01000000
00100000
01000000
00100000
,
00010000
01000000
10000000
01000000
00010000
00100000
00001000
01000000
,
00100000
00000000
01000000
00000000
00001000
00000000
00010000
00000000
00000010
00000000
00001000
00000100
00000010
00000000
00000001
00000000
,
00000100
00001000
00000100
00000001
00000010
00000100
00010000
00001000
,
00100000
00000000
00001000
00000000
00010000
00000000
00000100
00000000
00000010
00000001
00000000
00000001
00001000
00000000
00000010
00000000
,
00010000
00001000
00000010
00001000
00010000
00100000
00010000
00001000
,
00000010
00000000
00001000
00000000
00010000
00000000
01000000
00000000
10000000
00000000
00100000
01000000
00100000
00000000
10000000
00000000
,
00010000
00000000
00100000
00000000
00001000
00000000
00010000
00000000
00000010
00001000
00000100
00001000
00000001
00000010
00000100
00001000
,
00000020
00000000
00020000
00030030
,
00000100
00000100
00000100
00000000
00010000
00010000
00010000
00010000
,
00001000
00001000
00100000
00001000
00011000
00000000
00010100
00000000
,
00000010
00000000
00000010
00000000
00000110
00000000
00000000
00000000
00000001
00000000
00000001
00000000
00000001
00000010
00000001
00000000
,
00000002
00000000
00001003
00000000
,
00000010
00000000
00010000
00001000
00010000
00000000
00000100
00001000
00000100
00001000
00000100
00000000
00010000
00000000
00001000
00000000
,
00100000
00000000
00010000
10000000
00010000
00000000
10000000
00100000
10000000
00000000
00010000
00100000
00010000
00000000
01000000
00000000
,
00001000
00000000
00010000
00000010
00010000
00000000
00000100
00010000
00001000
00010000
00000100
00000000
00001000
00000000
00000010
00000000
,
00000100
00000000
00000001
00000010
00000001
00000000
00001000
00000010
00001000
00000000
00000001
00000010
00000002
00000000
00000000
00000000
,
00000103
00000000
00000010
00001000
00000010
00000000
00010000
00001000
00010000
00001000
00010000
00000000
00001000
00000000
00100000
00000000
,
00010000
00000000
10000000
00010000
10000000
00000000
00100000
00000000
01000000
00010000
01000000
00000000
00010000
00000000
00100000
00000000
,
00001000
00000000
00010000
00001000
00010000
00000000
00001000
00100000
00001000
00100000
00001000
00000000
00010000
00000000
00000100
00000000
,
00001000
00000010
00001000
00000000
00000001
00000100
00000001
00000000
00001000
00000000
00000000
00000000
00001001
00000000
00000000
00000000
,
00000010
00000000
00000000
00010100
00000000
00000000
00000010
00000100
00000001
00000100
00000010
00001000
00000100
00000000
00000010
00000000
,
00000001
00000000
00001000
00000010
00000100
00000000
00000010
00010000
00001000
00000000
00100000
00000000
00010000
00000000
00010000
00000000
,
10000000
00000000
00100000
00000000
01000000
00000000
00001000
00000000
00100000
00010000
00100000
00010000
01000000
00100000
01000000
00100000
,
20000000
00000000
30010000
00000000
,
01000000
00001000
00010000
00000000
11000000
00000000
00010000
00100000
,
00000000
00000100
00010000
00000000
00002020
00000000
00003030
00000000
,
00000001
00000010
00001000
00000000
00000011
00000000
00010000
00000100
,
00000000
00000000
00001000
00000000
00000010
00000000
00010000
00000000
00001000
00100000
01000000
00000000
00000000
00000000
00000000
00000000
,
10000000
00000000
01000000
00000000
10000000
00000000
00100000
01000000
00001000
00000000
00010000
00000000
01000000
00000000
00000000
00000000
,
00100000
00000000
00001000
00000000
00010000
00000000
00000010
00001000
00000100
00000000
00000010
00000000
00000001
00000000
00000000
00000000
,
00001000
00000000
00000101
00000000
00000010
00001000
00010000
00100000
,
00010000
00000000
10000000
00100000
01000000
00100000
10000000
00010000
02000000
00000000
00000000
00000000
03100000
00000000
00000000
00000000
,
10010000
00000000
00100000
00001000
00010000
00000010
00000000
00000110
,
00000000
00000000
00000001
00000000
00000010
00000000
00000100
00000000
00001000
00000000
00000000
00000000
00001000
00000010
00000100
00000000
,
00000001
00000000
00000100
00000000
00001000
00000000
00000100
00000000
00000001
00000000
00000010
00000100
00010000
00000000
00001000
00000000
,
00200000
00000000
00000000
00000000
01300000
10000000
00010000
00000000
01000000
00000000
00010000
00000000
00100000
00000000
01000000
00000000
,
10000000
01000000
10000000
01000000
00100000
00010000
00100000
00010000
01000000
00000000
00000000
00000000
00011000
00000000
00000000
00000000
,
00000010
00001000
00000010
00001000
00000001
00000100
00000001
00000100
00000010
00000000
00000000
00000000
00011000
00000000
00000000
00000000
,
00100000
00010000
01000000
00000000
00100000
10000000
01000000
00000000
00100000
00001000
00010000
00000100
00001000
00000010
00000100
00000001
,
00000020
00000000
00000000
00000030
,
00001100
00000000
00000000
00000000
00010000
00000000
00001000
00100000
00001000
00000000
00010000
00000000
00000100
00000000
00000000
00000000
,
00011000
00000000
00000100
00001000
00000010
00000001
00000010
00010000
,
00001000
00000000
00000100
00000000
00000010
00000000
00000001
00000000
00000020
00000000
00000000
00000000
00001030
00000100
00010000
00000000
,
00001000
00000000
00100000
00000000
01000000
00000000
10000000
00000000
00010000
00000000
00100000
01000000
00100000
00000000
00010000
00000000
,
10000000
00000000
01000000
00000000
00100000
00001000
00010000
00000000
00001000
00010000
00000000
00010000
00001000
00000000
01000000
00000000
,
00200000
00000000
10300000
01000000
00010000
01000000
10000000
00010000
,
00100000
00001000
00000100
00000010
00000001
00000000
00001100
00000000
,
00000001
00000000
00000100
00000010
00000100
00000000
00000001
00000000
00001000
00000000
00000100
00010000
00000100
00000000
00001000
00000000
,
00001100
00000000
00000001
00000000
00000110
00000000
00000000
00000000
00001010
00000000
00000010
00000000
00010000
00000100
00001000
00000100
,
00010000
00000100
00000001
00000100
00001000
00000010
00000001
00000010
,
00010000
00000000
00001000
00000000
00100000
00000000
01000000
00000000
10000000
00000000
00010000
00100000
00010000
00000000
00000000
00000000
,
10000000
01000000
00010000
01000000
10000000
00010000
00001000
00010000
,
00100000
00000000
00000100
00000000
00001000
00000000
00000100
00000000
00000010
00000001
00000000
00001000
00000100
00000000
00010000
00000000
,
00001000
00000000
00000000
00000000
00011000
00000000
00000000
00000000
00010100
00000000
00000000
00000000
00001000
00100000
01000000
10000000
,
00100000
00000000
00000000
00000000
01010000
00000000
00000000
00000000
01001000
00000000
00000000
00000000
00010000
00000100
00000010
00000001
,
00001000
00000000
00000010
00000000
00010000
00000000
00001000
00000000
00100000
00010000
01000000
00001000
00010000
00000100
00001000
00000010
,
00000200
00001000
00000301
00000000
,
00000011
00000000
00010000
00000000
00001100
00000000
00000010
00010000
,
00001000
00000100
00000001
00000010
00000100
00000000
00011000
00000000
,
00100000
10000000
10100000
00000000
00010000
00100000
00101000
00000000
,
00000110
00011000
01100000
00000000
;
