#TITLE:PARTY TIME!;
#SUBTITLE:;
#ARTIST:RoughSketch & Hommarju;
#TITLETRANSLIT:;
#SUBTITLETRANSLIT:;
#ARTISTTRANSLIT:;
#GENRE:;
#CREDIT:;
#BANNER:PARTY TIME!_banner.png;
#BACKGROUND:PARTY_TIME!.png;
#LYRICSPATH:;
#CDTITLE:;
#MUSIC:PARTY TIME!.ogg;
#OFFSET:-0.600000;
#SAMPLESTART:90.269997;
#SAMPLELENGTH:16.299999;
#SELECTABLE:YES;
#BPMS:0.000000=190.000000
;
#STOPS:209.000000=0.158000,
210.500000=0.158000,
360.000000=0.158000,
361.500000=0.158000
;
#BGCHANGES:;
#KEYSOUNDS:;
#ATTACKS:;

//---------------dance-single - ----------------
#NOTES:
     dance-single:
     :
     Easy:
     8:
     0.363943,0.463123,0.092793,0.160279,0.000000,302.000000,291.000000,11.000000,19.000000,0.000000,0.000000,0.363943,0.463123,0.092793,0.160279,0.000000,302.000000,291.000000,11.000000,19.000000,0.000000,0.000000:
0000
0000
0000
0000
,
0000
0000
0000
0000
,
0000
0000
0000
0000
,
0000
0000
0000
0000
,
0000
0000
0000
0000
,
0000
0000
0000
0000
,
0000
0000
0000
0000
,
0000
0000
0000
0000
,
0000
0000
0000
0000
,
1001
0000
0000
0000
,
0100
0000
0000
0000
0010
0000
0000
1000
,
0001
0000
1000
0000
,
0010
0000
0100
0001
,
1001
0000
0010
0000
,
0100
0000
0000
0000
0001
0000
1000
0001
,
1000
0000
0010
0000
,
0100
0010
1000
0001
,
0100
0100
0010
0110
,
1000
0001
0010
0001
,
1000
0010
0100
0010
,
1000
0010
0001
0010
,
0100
0001
1000
0100
,
0010
0001
1000
0010
,
0100
0001
1000
0100
,
1000
0000
0010
0000
0100
0000
0001
1000
,
0000
0000
0010
0100
,
0001
0010
0001
0010
,
0001
0100
0001
0100
,
0001
1000
0001
1000
,
0010
1000
0100
1000
,
0010
0100
0001
0100
,
0010
1000
0001
1000
,
1001
0000
0110
0000
,
1000
0010
0100
0001
,
0020
0000
0000
0030
,
0002
0000
0000
0003
,
0200
0000
0000
0300
,
0010
0010
0010
0010
,
1000
0100
1000
0001
,
1000
0010
1000
0100
,
0010
0001
0010
1000
,
0010
0100
0010
0001
,
0100
0010
0100
1000
,
0100
0001
1000
0001
,
0010
0001
1000
0100
,
2000
0000
0000
3010
,
0100
0000
0001
0000
0100
0001
0100
0000
,
0010
0000
1000
0000
0010
1000
0020
0000
,
1030
0000
0001
0000
1000
0001
1000
0000
,
0010
0000
0010
0000
0010
0100
0020
0000
,
1030
0000
0100
0000
1000
0001
0200
0000
,
0310
0000
1000
0000
0001
1000
0200
0000
,
1300
1000
0000
0001
0001
0000
0100
0000
,
0010
0100
0010
2000
,
0000
0000
0000
3002
,
0000
0000
0000
0023
,
0000
0000
0000
0230
,
0000
0000
0300
1000
,
0010
1000
0001
0100
,
0000
0010
1000
0001
,
0010
0001
1000
0100
,
0000
1000
0001
0102
,
0000
0100
0000
0013
,
0000
1000
0010
2010
,
0000
0100
0000
3100
,
0000
0001
0100
0110
,
0000
0010
1000
0001
,
0100
0000
0010
0000
1000
0001
2000
0000
,
3001
0002
1003
0100
,
0010
0100
0100
0010
,
0010
0000
0010
0000
0010
0010
0020
0000
,
0000
0000
0030
1000
,
0001
0000
0100
0000
0010
1000
0000
0000
,
0001
0010
0001
1000
,
0100
0000
1000
0000
0010
0100
0000
0000
,
0001
0010
0100
1000
,
0001
0000
0100
0000
0010
0100
0000
0000
,
0001
1000
0100
0010
,
0001
0000
1000
0000
0010
0100
0000
0000
,
0010
0000
0100
0000
0110
0000
0000
0001
,
0000
1000
0000
0001
0000
1000
0000
0001
,
0000
1000
0000
0001
0000
1000
0000
0010
,
0000
0100
0000
0010
0000
0100
0000
0010
,
0000
0100
0000
0010
0100
0000
0001
0000
,
1000
0000
0010
0000
1000
0100
0000
0000
,
0010
0001
0100
0010
,
1000
0000
0001
0000
0010
0001
0000
0000
,
1001
0100
0010
1000
,
0100
1000
0200
0310
,
0001
0010
0002
0103
,
0000
0010
0000
0000
0100
0000
0001
0000
,
1000
0001
1000
0000
1001
0000
0000
0000
;

//---------------dance-single - ----------------
#NOTES:
     dance-single:
     :
     Medium:
     12:
     0.648348,0.694685,0.236201,0.059050,0.000000,538.000000,510.000000,28.000000,7.000000,0.000000,0.000000,0.648348,0.694685,0.236201,0.059050,0.000000,538.000000,510.000000,28.000000,7.000000,0.000000,0.000000:
0000
0000
0000
0000
,
0000
0000
0000
0000
,
0000
0000
0000
0000
,
0000
0000
0000
0000
,
0000
0000
0000
0000
,
0000
0000
0000
0000
,
0000
0000
0000
0000
,
0000
0000
0000
0000
,
0000
0000
0000
0000
,
1000
0000
0010
0000
0100
0000
0001
0010
,
0001
0000
0100
0000
0010
1000
0010
0000
,
1000
0000
0001
1000
0010
0000
0100
0010
,
0001
0000
0010
0000
0100
1000
0100
0000
,
0001
0000
1000
0010
1000
0000
0001
0100
,
0010
0000
1000
0000
0100
0001
0100
0000
,
1000
0010
1000
0010
0100
0001
0100
0001
,
0010
0000
0100
0000
1000
0001
1000
0001
,
0200
0010
0010
0310
,
0001
0000
0010
0001
0000
0100
0010
0100
,
0000
0010
1000
0010
0100
0001
0100
0000
,
0001
0010
0100
1000
0000
0010
0100
0010
,
0000
1000
0100
0010
0001
0010
0100
0000
,
1000
0010
0100
0010
0000
1000
0001
0010
,
0000
0001
0100
1000
0100
0001
0010
0000
,
0001
0100
0010
0100
0001
1000
0100
0010
,
0000
0010
0100
1000
0001
0100
0010
0000
,
0000
1010
0000
0011
0000
1010
0000
0011
,
0000
1100
0000
0101
0000
1100
0000
0101
,
0000
1010
0000
1100
0000
1010
0000
1100
,
0000
0011
0000
0101
0000
0001
0010
0001
,
1000
0100
0010
0100
0000
1000
0010
0100
,
0000
0010
0100
0001
0100
0010
1000
0000
,
0001
0010
1000
0010
0001
0100
0010
0001
,
0000
0001
0010
0100
1000
0000
0110
0000
,
0010
0100
0010
0000
1000
0001
1000
0001
,
0010
0100
0010
0000
0001
1000
0001
1000
,
0010
1000
0010
0000
0100
0001
0010
0001
,
1000
0000
1100
0000
1000
0010
0100
0000
,
0001
0010
0001
0000
1000
0100
0010
0001
,
0100
0010
0100
0000
0001
0100
0010
1000
,
0100
1000
0001
0000
0010
0001
0100
0010
,
1000
0010
0100
0010
1000
0000
0001
0000
,
0100
0010
0100
0000
0001
0010
0100
1000
,
0100
1000
0010
0000
0100
0001
1000
0001
,
0100
0010
0100
0000
0001
1000
0100
0010
,
0001
1000
0001
0000
0100
0010
0100
0010
,
1000
0100
0001
0100
2000
0000
3001
0000
,
0100
0001
0100
1000
0200
0000
0310
0000
,
1000
0010
0001
0010
1000
0010
1000
0000
,
0001
0100
1000
0100
0001
0100
0001
0000
,
1000
0010
1000
0010
0100
0001
0010
0000
,
0001
0100
0001
0100
0010
1000
0100
0000
,
1000
1000
0000
0001
0001
0000
0100
0010
,
0100
0010
1000
0001
0010
0000
0002
0000
,
0010
0000
0013
0000
0100
0001
0100
0000
,
0010
0000
1000
0100
1000
0000
0020
0000
,
1000
0000
0130
0000
0010
1000
0010
0000
,
1000
0000
0100
1000
0001
0000
0100
0000
,
0010
0100
0000
0010
0100
0000
0001
1000
,
0001
1000
0100
0000
0010
0000
0001
0000
,
1000
0100
0000
0010
0001
0000
1000
0010
,
0100
0001
1000
0100
1000
0000
1010
0000
,
0100
0000
0010
0000
0100
0010
0100
0000
,
0010
0000
0100
0001
0010
0001
0100
0000
,
0001
0010
0001
0000
0010
0001
0100
0000
,
0010
0000
1000
0001
1000
0001
0100
0000
,
0110
0000
0010
0000
1000
0001
1000
0000
,
1001
0000
0010
0100
0001
0010
0001
1000
,
0100
0000
1000
0001
0010
0000
0001
0100
,
0010
1000
0100
0010
0001
0000
1000
0000
,
1000
0000
1000
0000
1000
1000
0010
0010
,
0010
0010
0100
0000
0110
0000
0001
0010
,
0100
0010
0001
1000
0100
0010
0000
0100
,
0001
0100
1000
0001
0010
0000
0001
0100
,
1000
0100
0010
0100
0001
0010
0000
0001
,
0100
1000
0100
0010
2000
0000
3100
0010
,
0100
1000
0001
0100
0010
0100
0000
0010
,
1000
0100
1000
0001
0100
0000
0010
0100
,
0010
0100
0001
1000
0001
0010
0000
0010
,
0100
1000
0001
0010
0100
0000
0000
1100
,
0000
0101
0000
1100
0000
0101
0000
0011
,
0000
1010
0000
0011
0000
1000
0010
0100
,
0010
0100
0001
0010
0100
2000
0000
3001
,
0100
0010
1000
0100
0010
0000
0001
0100
,
0010
0100
0001
0010
1000
0010
0000
0010
,
0001
0100
0010
1000
0100
0000
1000
0100
,
0001
0100
1000
0100
0010
0100
0000
1000
,
0001
0010
0100
1000
0001
0000
0100
0010
,
0100
0001
0100
0010
1000
0000
0010
1000
,
0010
0100
0001
0010
1000
0000
0010
0010
,
0000
0100
0100
0000
1000
0001
1000
0001
,
0010
0100
1000
0000
1001
0000
0000
0000
;

//---------------dance-single - ----------------
#NOTES:
     dance-single:
     :
     Hard:
     15:
     0.776090,0.771872,0.286816,0.194022,0.316341,644.000000,610.000000,34.000000,23.000000,0.000000,0.000000,0.776090,0.771872,0.286816,0.194022,0.316341,644.000000,610.000000,34.000000,23.000000,0.000000,0.000000:
// measure 0
0000
0000
0000
0000
,  // measure 1
0000
0000
0000
0000
,  // measure 2
0000
0000
0000
0000
,  // measure 3
0000
0000
0000
0000
,  // measure 4
0000
0000
0000
0000
,  // measure 5
0000
0000
0000
0000
,  // measure 6
0000
0000
0000
0000
,  // measure 7
0000
0000
0000
0000
,  // measure 8
0000
0001
1000
1001
,  // measure 9
0210
0000
0001
0000
0010
0000
0301
1000
,  // measure 10
0200
0000
0000
0000
1000
0000
0000
0000
0310
0000
0000
0001
0000
0000
1000
0000
,  // measure 11
0020
0000
1000
0000
0100
0000
1030
0001
,  // measure 12
0020
0000
0000
0000
0001
0000
0000
0000
0031
1000
0001
0000
0100
0000
0010
0000
,  // measure 13
1000
0000
1001
0000
0001
0010
0100
1000
,  // measure 14
0010
0000
0110
0000
0100
0001
1000
0010
,  // measure 15
0110
0000
1001
0000
1010
0000
0101
0001
,  // measure 16
1000
0010
1000
0010
0100
0001
0100
0001
,  // measure 17
1000
0000
0000
1000
0010
0000
0100
0000
0010
0000
0100
0000
0101
0000
0000
0000
,  // measure 18
0010
0000
0001
0010
0001
0000
1000
0000
0100
0000
1000
0000
0010
0000
0200
0000
,  // measure 19
0000
0310
1000
0001
1000
0100
0010
0000
,  // measure 20
0001
0000
1000
0100
1000
0000
0010
0000
0100
0000
0010
0000
1000
0000
0001
0000
,  // measure 21
0000
1001
1000
0100
0010
0100
1000
0000
,  // measure 22
0010
0000
0100
0001
0100
0000
0010
0000
1000
0000
0100
0000
0001
0000
0100
0000
,  // measure 23
0000
0010
0001
0010
0100
1000
0200
0000
,  // measure 24
1300
0000
0010
1000
0010
0000
0100
0000
0001
0000
0010
0000
0001
0000
1000
0000
,  // measure 25
0000
1001
0100
0010
0100
0010
0110
0000
,  // measure 26
1000
0000
0010
1000
0010
0000
1000
0000
0001
0000
0100
0000
0001
0000
0010
0000
,  // measure 27
0000
0010
0100
1000
0001
0010
0200
0000
,  // measure 28
0310
0000
0001
0010
0001
0000
0010
0000
0100
0000
1000
0000
0001
0000
0100
0000
,  // measure 29
0000
0100
0010
1000
0100
0001
0100
0000
,  // measure 30
0010
0000
0100
1000
0100
0000
1000
0000
0010
0000
0100
0000
0001
0000
0100
0000
,  // measure 31
0000
0010
1000
0001
1000
0100
0001
0100
,  // measure 32
1000
0010
0010
0010
0100
0001
1000
1001
,  // measure 33
0000
0000
0010
0100
0010
0000
1000
0000
0001
0000
0100
0000
0110
0000
0000
0000
,  // measure 34
0001
0000
0010
0000
0001
1000
0000
0001
1000
0000
0010
0000
0100
0000
0010
0000
,  // measure 35
1000
0000
0001
0000
1000
0001
0000
1000
0010
0000
0100
0000
0001
0000
0010
0000
,  // measure 36
0100
0000
1000
0000
0001
1000
0000
0001
0100
0000
0010
0000
1000
0000
0100
0000
,  // measure 37
1100
0000
0011
0000
1000
0001
1001
0000
,  // measure 38
0010
0000
0100
0000
0010
1000
0000
0001
0100
0000
0010
0000
1000
0000
0100
0000
,  // measure 39
0010
0000
0001
0000
1000
0010
0000
1000
0010
0000
0100
0000
0001
0000
0010
0000
,  // measure 40
0100
0000
0010
0000
0001
1000
0000
0001
0100
0000
0010
0000
1000
0000
0100
0000
,  // measure 41
1000
0000
0010
0100
0000
0010
0100
0000
0010
0000
0100
0000
0001
0000
1000
0000
,  // measure 42
0010
0000
1000
0000
0001
0100
0000
0001
0010
0000
0001
0000
0100
0000
0010
0000
,  // measure 43
1000
0000
0100
0000
1000
0001
0000
1000
0010
0000
0100
0000
0010
0000
1000
0000
,  // measure 44
0100
0000
1000
0000
0001
0010
0000
0001
1000
0000
0010
0000
0100
0000
0010
0000
,  // measure 45
1000
0000
0001
0010
0000
0100
1000
0000
0001
0000
1000
0000
0010
0000
0100
0000
,  // measure 46
0001
0000
0100
0000
0001
0010
0000
0001
1000
0000
0100
0000
0001
0000
0100
0000
,  // measure 47
1000
0000
0010
0000
0100
0001
0000
1000
0010
0000
0100
0000
0200
0000
0000
0000
,  // measure 48
0301
0000
0010
0000
0001
1000
0000
0100
1000
0000
0010
0000
0001
0000
0010
0000
,  // measure 49
1000
0000
0010
0100
0000
0010
0100
0000
0001
0000
0010
0000
0210
0000
0000
0000
,  // measure 50
1300
0000
0001
0000
1000
0010
0000
0100
0010
0000
1000
0000
0100
0000
0010
0000
,  // measure 51
0001
0000
0100
0000
0010
1000
0000
0001
0100
0000
0010
0000
0110
0000
0000
0000
,  // measure 52
1000
0000
0100
1000
0000
0000
0001
0010
0001
0010
0000
0000
0100
0000
0010
1000
,  // measure 53
0000
0100
0000
1000
0010
0000
0100
0000
0001
0000
0010
0000
0002
0000
0000
0000
,  // measure 54
0010
0000
1000
0000
0013
0001
2000
0000
,  // measure 55
0100
0000
0000
0000
3001
0000
0000
0010
0000
0000
0100
0000
0020
0000
0000
0000
,  // measure 56
0031
0010
0000
0001
1000
0100
1000
0000
,  // measure 57
1010
0000
0000
0000
0100
0000
0000
0010
0000
0000
1000
0000
0001
0000
0000
0000
,  // measure 58
1000
0010
0000
0100
0010
1000
0001
0000
,  // measure 59
0101
0000
0010
0100
1000
0000
0001
0010
,  // measure 60
0001
0010
0100
1000
0100
0001
0100
0010
,  // measure 61
1000
0010
0001
0000
1001
0000
0210
0000
,  // measure 62
0001
0000
0010
0000
0301
0100
0020
0000
,  // measure 63
1000
0000
0000
0000
0130
0000
0000
0001
0000
0000
1000
0000
2000
0000
0000
0000
,  // measure 64
0010
0010
0000
0100
3100
0100
0020
0000
,  // measure 65
0031
0000
0000
0000
1000
0001
1000
0000
0010
0000
0100
0000
0002
0000
0000
0000
,  // measure 66
1000
1000
0003
0100
0020
1000
0000
1000
,  // measure 67
2030
0000
0001
0000
3001
0100
0010
0000
,  // measure 68
0110
0000
1000
0100
0010
0001
0100
0000
,  // measure 69
1010
0000
0101
0000
1000
0010
0100
0000
,  // measure 70
0100
0000
0000
0010
0100
0000
0100
0000
0100
0000
0100
0000
0010
0000
0010
0000
,  // measure 71
0010
0000
0010
0000
0010
0000
0100
0000
0110
0000
0000
0000
1000
0000
0001
1000
,  // measure 72
0001
0010
0001
1000
0100
0010
0000
0010
,  // measure 73
0100
0000
1000
0000
0001
0000
0100
0000
0101
0000
0000
0000
0010
0000
1000
0010
,  // measure 74
1000
0010
0100
0001
0010
1000
0000
1000
,  // measure 75
0010
0000
0001
0000
1000
0000
0100
0000
1001
0000
0000
0000
0010
0000
0100
0010
,  // measure 76
0100
0010
1000
0100
0001
0100
0000
0010
,  // measure 77
0001
0000
0010
0000
1000
0000
0010
0000
0200
0000
0000
0000
1300
0000
0001
0010
,  // measure 78
0001
1000
0010
0100
0010
1010
0000
0100
,  // measure 79
0010
0000
0100
0000
0001
0000
1000
0000
1001
0000
0000
0000
0010
0000
0100
0001
,  // measure 80
0100
0010
1000
0100
0010
0001
0000
1000
,  // measure 81
0010
0000
0100
0000
0001
0000
0010
0000
0200
0000
0000
0000
1300
0000
0010
1000
,  // measure 82
0010
0000
0100
0000
0001
0000
0010
0000
0100
0000
1001
0000
0000
0000
0100
0010
,  // measure 83
0100
0000
0010
0000
0100
0000
0010
0000
0110
0000
0000
0000
1000
0000
0010
0100
,  // measure 84
0010
0000
1000
0000
0001
0000
0010
0000
0100
0000
0010
0000
0000
0000
0001
0010
,  // measure 85
0001
0000
1000
0000
0100
0000
0001
0000
0100
0000
0000
0000
1000
0000
0001
0010
,  // measure 86
0001
0100
0010
1000
0010
0001
0000
1000
,  // measure 87
0100
0001
0010
0100
2000
0000
3001
0100
,  // measure 88
0010
0100
0000
0001
1000
0000
0010
0000
0001
0000
0010
0000
0100
0000
0010
0000
,  // measure 89
1000
0100
0000
1000
0001
0000
0010
0000
2000
0000
0000
0000
3010
0000
0001
0010
,  // measure 90
0000
0000
0100
1000
0100
0010
0000
0000
0001
0000
0010
0001
0000
1000
0100
0000
,  // measure 91
1000
0100
0010
0001
1001
0000
0000
0000
;
