#TITLE:Oshama Scramble!;
#SUBTITLE:;
#ARTIST:t+pazolite;
#TITLETRANSLIT:;
#SUBTITLETRANSLIT:;
#ARTISTTRANSLIT:;
#GENRE:;
#CREDIT:from「maimai」;
#BANNER:Oshama_Scramble!_banner.png;
#BACKGROUND:Oshama_Scramble!.png;
#LYRICSPATH:;
#CDTITLE:;
#MUSIC:Oshama Scramble!.ogg;
#OFFSET:-0.570000;
#SAMPLESTART:94.970001;
#SAMPLELENGTH:12.000000;
#LASTBEATHINT:380.000000;
#SELECTABLE:YES;
#BPMS:0.000000=190.000000
;
#STOPS:
;
#BGCHANGES:;
#KEYSOUNDS:;
#ATTACKS:;

//---------------dance-single - ----------------
#NOTES:
     dance-single:
     :
     Easy:
     7:
     0.334169,0.480426,0.154321,0.203054,0.000000,288.000000,269.000000,19.000000,25.000000,0.000000,0.000000,0.334169,0.480426,0.154321,0.203054,0.000000,288.000000,269.000000,19.000000,25.000000,0.000000,0.000000:
0000
0000
0000
0000
,
0000
0000
0000
0000
,
0000
0000
0000
0000
,
0000
0000
0000
0000
,
0010
0000
0000
0010
0000
0000
0010
0000
,
1000
0000
0000
1000
0000
0000
1000
0000
,
0001
0010
0100
1000
,
2002
0000
0000
0000
0000
3003
0000
0000
,
0100
0010
0100
0001
,
1000
0100
0001
0100
,
1000
0010
0100
0001
,
0010
1000
0010
0001
,
1000
1000
1000
1000
,
0001
0010
0100
0010
,
0001
0001
0001
0001
,
0200
0000
0310
0000
,
1000
0010
0000
0010
,
0100
0001
0000
0001
,
0010
0001
1000
0001
,
0100
0010
0110
0000
,
1000
0100
0000
0100
,
1000
0001
0010
0000
,
0001
0100
0010
1000
,
0002
0000
0013
0000
,
0100
1000
0000
1000
,
0001
0010
0000
0010
,
0001
0010
0100
1000
,
0010
0010
0110
0000
,
1000
0100
0001
0100
,
1000
0001
0010
0000
,
0001
0100
1000
0100
,
0002
0000
0003
0000
,
2000
0000
0000
0000
0000
3000
0000
0000
,
0010
0010
0010
0010
,
0010
0000
0010
0000
0010
0100
0010
0000
,
0010
0010
0010
0010
,
0010
1000
0010
0000
0010
0001
0010
0000
,
0100
0100
0100
0100
,
0100
0000
0100
0000
0100
0010
0100
0000
,
0100
0100
0100
0100
,
2002
0000
0000
0000
0000
3003
0000
0000
,
0001
0010
0100
0001
,
0100
1000
0100
0010
,
0001
0100
0010
1000
,
0100
1000
0100
0001
,
0100
1100
0100
1100
,
0001
0011
0001
0011
,
1000
0000
0001
0000
1000
0001
0100
0000
,
0020
0000
0000
0030
,
1000
0000
0100
0000
,
2000
0000
3000
0000
,
0001
0000
0010
0000
,
0002
0000
0003
0000
,
0100
0000
0010
0000
,
2000
0000
3000
0000
,
0100
0000
0010
0000
,
0002
0000
0003
0000
,
0210
0000
0000
0000
,
0310
0010
0010
0010
,
0120
0000
0000
0000
,
0130
0100
0100
0100
,
2002
0000
0000
0000
0000
3003
0000
0000
,
0011
0000
1000
0000
,
0000
0110
0000
1001
,
1000
0100
0010
0001
,
0200
0000
0000
0300
,
0010
0000
0010
0000
,
2000
0000
3001
0001
,
0010
0001
1000
0100
,
1000
0010
1000
0010
,
0100
0001
0100
0001
,
0010
0100
1000
0001
,
0220
0000
0000
0000
0000
0330
0000
0000
,
2002
0000
0000
0000
0000
3003
0000
0000
,
0100
0000
0010
0000
,
1000
0100
0001
0100
,
0010
0001
1000
0000
,
0001
0100
1000
0100
,
0010
1000
0001
0000
,
0010
0100
1000
0001
,
0010
0100
0001
0000
,
0100
1000
0010
0100
,
0001
0000
1001
0000
,
0010
0001
1000
0001
,
0100
0010
0110
0000
,
1000
0100
0010
0001
,
2000
0010
3010
0000
,
0001
0010
0100
1000
,
0002
0100
0103
0000
,
0010
0100
0001
1000
,
0100
0100
0100
0100
,
0101
0000
0000
0000
;

//---------------dance-single - ----------------
#NOTES:
     dance-single:
     :
     Medium:
     12:
     0.584795,0.654138,0.560429,0.308642,0.016244,504.000000,435.000000,69.000000,38.000000,0.000000,0.000000,0.584795,0.654138,0.560429,0.308642,0.016244,504.000000,435.000000,69.000000,38.000000,0.000000,0.000000:
0000
0000
0000
0000
,
0000
0000
0000
0000
,
0000
0000
0000
0000
,
0000
0000
0000
0000
,
0001
0000
0000
0100
0000
0000
0100
0000
0000
0000
0010
0000
1000
0000
0010
0000
,
0000
0100
0100
0000
0001
1000
0001
0010
,
0100
0000
0000
1000
0000
0000
1000
0000
0000
0000
0001
0000
0100
0000
0010
0000
,
1000
1000
1000
1010
,
0001
0010
0001
0100
0010
1000
0100
0000
,
1000
0010
0100
0010
1000
0010
0100
0000
,
0001
1000
0010
0100
0010
1000
0100
0000
,
0010
0001
0100
0001
0010
0001
0100
0000
,
0010
0100
0001
1000
0010
1000
0100
0000
,
0010
0100
1000
0001
0100
0010
0001
0000
,
0010
0100
0010
0100
0001
1000
0001
0000
,
0100
0001
1000
0100
0010
0001
1001
0000
,
0010
0100
0020
0000
0000
1030
0000
0001
,
0000
0010
0002
0000
1003
0000
0100
0010
,
0100
0000
1000
0001
1000
0000
0010
0100
,
0001
1000
0200
0000
0310
0000
0001
0000
,
0002
0000
0000
0103
0000
0100
0000
0010
,
0000
1000
0100
0000
0101
0000
0010
0000
,
1000
0010
1000
0000
0100
0000
0010
0100
,
0000
1000
0000
0001
0000
1001
0000
0000
,
0020
0000
0100
0000
0000
0000
0130
0001
,
0000
0010
0002
0000
1000
0000
1003
0000
,
0010
0000
0010
0100
0010
0000
1000
0000
,
1000
0001
0010
0000
0220
0000
0330
0000
,
0001
1000
0200
0000
0000
1300
0000
0010
,
0000
0010
0100
0001
1000
0000
1001
0000
,
0010
0100
0001
0000
1000
0100
0000
0012
,
0000
1000
0100
1003
,
2200
0000
0000
3300
,
0011
0011
0011
0011
,
1001
0000
1001
0000
0010
0100
0010
0000
,
0011
0011
0011
0011
,
1000
0010
1000
0000
0001
0100
0001
0000
,
1100
1100
1100
1100
,
1001
0000
1001
0000
0100
0010
0100
0000
,
1100
1100
0011
0011
,
2002
0000
0000
3003
,
1010
1010
0110
0110
,
0011
0000
0011
0000
0010
0100
0001
0000
,
0101
0101
0110
0110
,
0100
0010
0100
0000
0010
1000
0010
0000
,
1100
1100
0110
0110
,
0101
0000
0101
0000
0100
0010
0100
0000
,
1000
0100
1000
0100
0010
0001
0010
0000
,
0002
0000
0103
0000
,
0110
0000
0010
1000
0010
0000
0100
0000
,
0002
0010
0013
0000
,
0100
0000
0100
1000
0100
0000
1000
0000
,
0020
0130
0110
1000
,
0001
0000
1000
0100
0010
0000
0100
0000
,
2000
3001
0002
0013
,
0001
0100
0001
0100
0010
1000
0010
0000
,
0220
0000
0330
0000
,
2100
0000
0000
0001
0000
0000
3100
0000
,
0001
0010
0100
1000
0001
0010
0100
0000
,
0012
0000
0000
1000
0000
0000
0013
0000
,
1000
0010
0100
0001
1000
0010
0100
0000
,
0120
0000
0000
1000
0000
0000
0130
0000
,
0100
0001
0010
0000
0001
1000
0100
0000
,
2010
3010
0012
0013
,
0001
1000
0100
0010
0001
0000
1001
0000
,
0100
0000
0000
0001
0000
0000
0100
0000
0000
0000
0010
0000
1000
0000
0000
0000
,
0001
0010
0100
1000
0010
0100
0001
0000
,
1000
0000
0000
0010
0000
0000
1000
0000
0000
0000
0001
0000
0100
0000
0010
0000
,
2000
0000
3010
0000
0001
0010
0100
0000
,
1000
0010
0000
1010
0000
0110
0000
1010
,
0000
0101
0000
0110
0000
0101
0000
0010
,
1000
0001
1000
0001
0010
0100
1000
0000
,
0001
0010
0100
0010
0100
1000
0001
0100
,
0020
0000
0000
0030
,
1000
0000
1000
0000
0001
0010
0100
0000
,
1000
0010
0200
0000
0301
1000
0000
1001
,
0000
0010
0200
0000
0301
0000
0001
0010
,
0001
0000
1000
0010
1000
0000
0001
0000
,
1000
0100
0001
0100
1000
0000
1001
0000
,
0010
0100
0002
0000
1003
0100
0000
1010
,
0000
0100
0001
0000
0011
0000
1000
0000
,
0010
1000
0001
0000
0010
0100
0000
1100
,
0000
0001
0000
0011
0000
1000
0002
0000
,
0103
0010
0200
0000
0301
1000
0000
0010
,
0000
1000
0200
0000
0310
0000
0001
0000
,
0010
0000
0001
1000
0001
0000
0100
1000
,
0100
0001
0100
0001
0010
0000
1001
0000
,
0100
0010
2000
0000
3001
0010
0000
0001
,
0000
0010
0100
0000
1100
0000
0001
0000
,
0010
0100
1000
0001
0010
0100
0001
0200
,
0000
0010
0010
0310
,
2002
0000
0000
0000
,
0000
0000
0000
0000
,
0000
0000
0000
0000
,
0000
0000
0000
3003
;

//---------------dance-single - ----------------
#NOTES:
     dance-single:
     :
     Hard:
     18:
     0.916643,1.115883,0.503574,0.259909,0.523879,790.000000,728.000000,62.000000,32.000000,0.000000,0.000000,0.916643,1.115883,0.503574,0.259909,0.523879,790.000000,728.000000,62.000000,32.000000,0.000000,0.000000:
// measure 0
0000
0000
0000
0000
,  // measure 1
0000
0000
0000
0000
,  // measure 2
0000
0000
0000
0000
,  // measure 3
0000
0000
0000
0000
,  // measure 4
2001
0000
0000
0001
0000
0000
3001
0000
0000
0000
1000
0000
0010
0000
1000
0000
,  // measure 5
0001
0100
0010
1000
0100
0001
0100
1000
,  // measure 6
0001
0010
0001
0010
0100
1000
0100
1000
0010
0100
0010
0100
0020
0000
0000
0000
,  // measure 7
1000
1000
1000
1030
,  // measure 8
0001
0000
0100
0001
0000
0100
0001
0000
1000
0100
0010
0000
0100
0000
1000
0000
,  // measure 9
0010
0100
0010
0100
0010
0000
1000
0000
0001
0000
0010
0000
0100
0000
1000
0000
,  // measure 10
0010
0000
1000
0010
0000
1000
0010
0000
0001
0100
0010
0000
1000
0000
0100
0000
,  // measure 11
1000
0000
0001
0010
0001
0000
1000
0000
0010
0000
0100
0000
0002
0000
0000
0000
,  // measure 12
0013
0000
0100
1000
0000
0100
0010
0000
0001
1000
0001
0000
0100
0000
0010
0000
,  // measure 13
1000
0000
0010
0100
0010
0000
1000
0000
0001
0000
0010
0000
0100
0000
0010
0000
,  // measure 14
0001
0000
0010
0100
0000
1000
0100
0000
1000
0001
1000
0001
0100
0000
0010
0000
,  // measure 15
1000
0000
0100
1000
0100
0000
1000
0000
0001
0010
0100
1000
0002
0000
0000
0000
,  // measure 16
0013
0100
0010
0001
0010
0110
0000
2100
,  // measure 17
0000
3010
1020
0000
0130
0000
1000
0010
,  // measure 18
0011
0000
0001
0010
1010
0000
1000
0001
,  // measure 19
1000
0100
0001
0100
1001
0000
0100
0010
,  // measure 20
1000
0100
0020
0031
0000
0011
0000
1100
,  // measure 21
0000
1000
0010
0100
1001
0000
0010
0100
,  // measure 22
0010
1000
0200
0010
0301
0020
0130
1100
,  // measure 23
0000
0101
0000
0110
0000
1000
0001
0010
,  // measure 24
0100
1000
0001
0010
0000
0110
0000
1100
,  // measure 25
0000
0000
1000
0010
2000
0000
0000
0000
3001
0000
0010
0000
0001
0000
1000
0000
,  // measure 26
0100
0000
1000
0100
1000
0000
0010
0000
0100
0000
0001
1000
0001
0000
0010
0000
,  // measure 27
0001
0000
0100
0000
1000
0000
0100
0000
0001
0000
1000
0000
0010
0100
0010
0000
,  // measure 28
2000
0001
3001
0010
0000
0010
0100
1100
,  // measure 29
0000
0000
0001
0010
0100
0000
1000
0000
0010
0000
0100
0001
1000
0000
0010
0000
,  // measure 30
1000
0000
0001
0010
0001
0000
1000
0000
0010
0000
1000
0100
0010
0000
0002
0000
,  // measure 31
1000
0000
0000
0000
1000
0000
0000
0000
0100
0000
0100
0000
0103
0000
0100
0010
,  // measure 32
0100
0000
0002
0000
0000
0000
2003
0000
0000
0000
3001
1000
0100
0000
0000
0000
,  // measure 33
0011
1000
0011
1000
0011
1000
0011
1000
,  // measure 34
0100
0011
0100
0011
0100
1000
1100
0100
,  // measure 35
1100
0001
1100
0001
1100
0001
1100
0001
,  // measure 36
0010
0000
0001
0010
0001
0000
1000
0000
0010
0100
0010
0000
1000
0000
0001
0000
,  // measure 37
1001
0010
1001
0010
1001
0010
1001
0010
,  // measure 38
1001
0000
0100
0000
1001
0000
0100
0000
0010
1000
0001
0000
0100
0010
1000
0000
,  // measure 39
1010
0001
0011
1000
1010
0001
0011
1000
,  // measure 40
0220
0000
0000
0330
,  // measure 41
1000
0000
0010
0100
0001
0000
1000
0001
0010
0000
0100
1000
0001
0000
0010
0100
,  // measure 42
1000
0000
0010
0100
0001
0000
1000
0100
0010
0000
0001
0000
1000
0000
0010
0000
,  // measure 43
0100
0000
0001
1000
0010
0000
1000
0001
0010
0000
0001
1000
0010
0000
1000
0001
,  // measure 44
0100
0000
0010
0100
0010
0000
0100
0000
0002
0000
0023
0000
0230
0000
1300
0000
,  // measure 45
0010
0000
0100
0001
1000
0000
0010
1000
0001
0000
0010
0100
1000
0000
0001
0010
,  // measure 46
0100
0000
1000
0010
0100
0000
0010
1000
0001
0000
0010
0000
1000
0000
0010
0000
,  // measure 47
0001
0000
0100
0000
0010
0000
1000
0000
0010
0100
0001
0010
0100
1000
0010
0100
,  // measure 48
0002
0000
1003
0000
,  // measure 49
0110
0000
1000
0100
0010
0000
0100
0000
,  // measure 50
1100
0000
0100
0001
0000
0010
1000
0010
,  // measure 51
0001
1000
0100
1000
0010
0001
0010
0000
,  // measure 52
1010
0000
0000
0000
1100
0000
0000
0000
0001
0000
0010
0000
0001
0000
1000
0001
,  // measure 53
1000
0010
0100
0010
1000
0100
0001
0100
,  // measure 54
1000
0010
0100
0001
0010
1000
0010
0001
,  // measure 55
2000
0000
0010
0000
0010
0000
3010
0000
0100
0001
0100
0001
1000
0010
1000
0010
,  // measure 56
0100
0001
1000
0001
0010
0100
1000
0100
,  // measure 57
0010
0000
0001
0010
0001
0000
1000
0000
0010
0100
0010
0000
1000
0000
0001
0000
,  // measure 58
1000
0000
0100
0010
0001
0000
0010
0000
0100
0000
1000
0000
1001
0000
0000
0000
,  // measure 59
0010
0000
0100
0010
1000
0000
0001
0000
1000
0100
0010
0000
0100
0000
1000
0000
,  // measure 60
0010
0000
0100
0001
1000
0100
0010
0001
1000
0000
0001
0000
0110
0000
0000
0000
,  // measure 61
0001
0000
0010
0100
0000
0010
0001
0000
1000
0100
0010
0000
0100
0000
1000
0000
,  // measure 62
0001
0100
0001
0100
0001
0000
0010
0000
1000
0100
1000
0100
1000
0000
0010
0000
,  // measure 63
0001
0000
1000
0000
0010
0100
0010
0000
1000
0000
0001
0000
1000
0100
0010
0000
,  // measure 64
0001
0000
0010
0001
1000
0000
0010
1000
0001
0000
0100
0000
0110
0000
0000
0000
,  // measure 65
1000
0000
0010
1000
0100
0000
1000
0000
0001
0010
0100
0000
0010
0000
0001
0000
,  // measure 66
1000
0000
0001
0100
0010
0000
1000
0000
0100
0010
0100
0000
1000
0000
0001
0000
,  // measure 67
0100
0000
0020
0100
0000
0000
0100
0000
0000
0000
0100
0000
0130
0000
0001
0000
,  // measure 68
2000
0001
0000
3001
0200
0010
0000
0310
,  // measure 69
1000
0011
0000
1100
0000
1001
0000
0110
,  // measure 70
0001
0010
1000
0010
0001
0100
1000
0100
,  // measure 71
0001
0011
0010
0110
0100
1100
1000
1010
,  // measure 72
0010
0100
0010
0100
0001
0010
0001
0010
0100
1000
0100
1000
0001
0010
0100
1000
,  // measure 73
0020
0000
0000
0000
,  // measure 74
0230
0000
0000
0000
0000
0000
0000
0000
0310
1000
0001
1000
0020
0000
0000
0000
,  // measure 75
1030
0000
0100
1000
0001
0000
0010
0000
0001
0000
1000
0100
1000
0000
0001
0000
,  // measure 76
0100
0010
0110
0000
1001
0000
0010
0001
,  // measure 77
0100
0000
0010
0100
0010
0000
1000
0000
0100
0000
0010
0100
0010
0000
0100
0000
,  // measure 78
1000
0000
0100
0010
0001
0000
0010
0000
0100
0000
0000
0000
0011
0000
0000
0000
,  // measure 79
1000
0000
0001
0010
0200
0000
0001
0000
0300
0000
1100
0000
0000
0000
0010
0100
,  // measure 80
0001
0000
1000
0010
0100
0000
0001
0000
1001
0000
0000
0000
0100
0000
0010
0000
,  // measure 81
1000
0000
0100
0010
0002
0000
0000
0000
1003
0000
0010
0100
0001
0000
0011
0000
,  // measure 82
0000
0000
1100
0000
0000
0000
0101
0000
0000
0000
1000
0010
0100
0000
0010
0000
,  // measure 83
1000
0000
0001
0010
0200
0000
1000
0000
0300
0000
0010
0001
1000
0000
0010
0000
,  // measure 84
0000
0000
1000
0010
0100
0000
0001
0000
1000
0000
0100
0000
0001
0000
0100
0000
,  // measure 85
1000
0000
0010
0100
0010
0000
1000
0000
0001
0000
0010
0100
0010
0000
0001
0000
,  // measure 86
1000
0000
0001
0010
0100
0000
1000
0000
0001
0000
0000
0000
1100
0000
0000
0000
,  // measure 87
0010
0000
0100
0010
0100
0000
0001
0000
1000
0000
0010
0100
0001
0000
1000
0000
,  // measure 88
0000
0000
1000
0001
0010
0000
0001
0000
0100
0000
0010
0000
1000
0000
0100
0000
,  // measure 89
1000
0000
0001
0010
0100
0000
1000
0000
0010
0000
0100
0000
0001
0010
0100
0000
,  // measure 90
1000
0010
0100
0010
1000
0000
0001
0000
0010
0100
0010
0001
1000
0100
0010
0200
,  // measure 91
0020
0000
0000
0000
,  // measure 92
0000
0000
0000
0000
,  // measure 93
0000
0000
0000
0000
,  // measure 94
0000
0000
0000
0330
;
