#TITLE:おおきなこえで;
#SUBTITLE:;
#ARTIST:猫叉Master feat.Sana;
#TITLETRANSLIT:Ookina koe de;
#SUBTITLETRANSLIT:;
#ARTISTTRANSLIT:Nekomata Master feat.Sana;
#GENRE:WORLD/POPS;
#CREDIT:;
#BANNER:Ookina_koe_de_banner.png;
#BACKGROUND:Ookina_koe_de.png;
#LYRICSPATH:;
#CDTITLE:;
#MUSIC:Ookina koe de.ogg;
#OFFSET:-0.540000;
#SAMPLESTART:72.540001;
#SAMPLELENGTH:12.000000;
#LASTBEATHINT:200.250000;
#SELECTABLE:YES;
#BPMS:0.000000=100.000000
;
#STOPS:
;
#BGCHANGES:;
#KEYSOUNDS:;
#ATTACKS:;

//---------------dance-single - ----------------
#NOTES:
     dance-single:
     :
     Easy:
     4:
     0.148301,0.160583,0.040551,0.113543,0.000000,128.000000,123.000000,5.000000,14.000000,0.000000,0.000000,0.148301,0.160583,0.040551,0.113543,0.000000,128.000000,123.000000,5.000000,14.000000,0.000000,0.000000:
0000
0000
0000
0000
,
0000
0000
0000
0000
,
0000
0000
0000
0000
,
0000
0000
0000
0000
,
1000
0010
1000
0000
,
0001
0100
0001
0000
,
0010
0001
0010
0000
,
0100
1000
0100
0000
,
1000
0001
0100
0000
,
0001
1000
0010
0000
,
0100
0001
1000
0000
,
0100
0000
1001
0000
,
0010
0001
1000
0000
,
0001
1000
0100
0000
,
1000
0100
0010
0000
,
0001
0100
0010
0000
,
1000
0000
0001
0010
,
0001
0000
1000
0100
,
0010
0000
0100
1000
,
0001
0000
0110
0000
,
2000
0000
3010
0100
,
0002
0000
0013
0100
,
2000
0000
3001
0100
,
0020
0000
0030
0000
,
0200
0000
0301
0010
,
0002
0000
1003
0100
,
1000
0000
0001
0000
,
0010
0000
0100
0000
,
2000
0000
3002
0000
,
0203
0000
0300
0000
,
0010
0100
0010
0000
,
1000
0100
1000
0000
,
0001
0010
0001
0000
,
1000
0000
1100
0000
,
0010
0100
0001
0000
,
0010
0100
1000
0000
,
0002
0000
0103
0010
,
0200
0000
0301
0010
,
0100
1000
0100
0000
,
1000
0010
1000
0000
,
0001
0010
0001
0000
,
0100
0010
0100
0000
,
0020
0000
1030
0100
,
2000
0000
3010
0100
,
0020
0000
1030
0001
,
0010
0000
0110
0000
,
0001
0000
0001
0000
,
1000
0000
1000
0000
,
0100
0000
0010
0000
,
0100
0000
1001
0000
;

//---------------dance-single - ----------------
#NOTES:
     dance-single:
     :
     Medium:
     7:
     0.216659,0.240874,0.089213,0.218976,0.000000,187.000000,176.000000,11.000000,27.000000,0.000000,0.000000,0.216659,0.240874,0.089213,0.218976,0.000000,187.000000,176.000000,11.000000,27.000000,0.000000,0.000000:
// measure 0
0000
0000
0000
0000
,  // measure 1
0000
0000
0000
0000
,  // measure 2
0000
0000
0000
0000
,  // measure 3
0000
0000
0000
0000
,  // measure 4
1000
0000
0100
0000
0010
0000
0001
1000
,  // measure 5
0001
0000
0010
0000
0100
0000
1000
0010
,  // measure 6
0100
0000
0010
0000
1000
0000
0100
0010
,  // measure 7
0001
1000
0220
0330
,  // measure 8
0001
0000
0010
0000
0100
0000
1000
0001
,  // measure 9
1000
0000
0010
0000
0100
0000
0001
0010
,  // measure 10
0100
1000
0010
1000
,  // measure 11
2002
3003
0100
0110
,  // measure 12
0001
0000
0010
0000
0001
0000
1000
0100
,  // measure 13
1000
0010
1000
0100
,  // measure 14
0010
0000
0001
0000
1000
0000
0001
0010
,  // measure 15
0100
1000
2002
3003
,  // measure 16
0100
0000
0001
0000
0010
0000
0100
1000
,  // measure 17
0001
0000
1000
0000
0010
0000
0100
0001
,  // measure 18
1000
0100
0010
0001
,  // measure 19
2200
3300
0001
0100
,  // measure 20
0002
0010
1003
0000
,  // measure 21
2000
0010
3001
0000
,  // measure 22
0200
0001
0310
0000
,  // measure 23
0020
0000
1030
0100
,  // measure 24
2000
0001
3010
0000
,  // measure 25
0002
0010
1003
0100
,  // measure 26
1000
0010
0100
0001
,  // measure 27
0022
0033
2020
3030
,  // measure 28
0100
1000
0010
0001
,  // measure 29
0020
0000
0030
0000
,  // measure 30
0001
0000
1000
0000
0100
0000
1000
0010
,  // measure 31
0100
0001
0010
0001
,  // measure 32
1000
0000
0010
0000
0100
0000
0001
1000
,  // measure 33
0100
1000
2002
3003
,  // measure 34
0100
0000
0010
0000
0100
0000
0001
0010
,  // measure 35
0100
0000
1000
0000
0010
0000
1000
0001
,  // measure 36
0100
0000
0010
0000
0100
0001
0010
0000
,  // measure 37
0100
1000
2002
3003
,  // measure 38
0100
0000
0010
0000
1000
0000
0100
0010
,  // measure 39
0001
1000
0001
0000
,  // measure 40
0010
0000
0001
0000
1000
0000
0010
1000
,  // measure 41
0100
0010
0220
0330
,  // measure 42
0001
0000
0010
0000
0100
0000
1000
0010
,  // measure 43
1000
0000
0001
0000
0010
0000
0001
0100
,  // measure 44
0002
1000
0203
0010
,  // measure 45
0301
0010
0100
1000
,  // measure 46
1001
0000
0100
0000
,  // measure 47
0100
0000
0100
0000
,  // measure 48
0010
0000
0010
0000
,  // measure 49
0010
0000
0010
0000
;

//---------------dance-single - ----------------
#NOTES:
     dance-single:
     :
     Hard:
     12:
     0.417098,0.405512,0.064882,0.218976,0.421732,360.000000,352.000000,8.000000,27.000000,0.000000,0.000000,0.417098,0.405512,0.064882,0.218976,0.421732,360.000000,352.000000,8.000000,27.000000,0.000000,0.000000:
// measure 0
0000
0000
0000
0000
,  // measure 1
0000
0000
0000
0000
,  // measure 2
0000
0000
0000
0000
,  // measure 3
0000
0000
0000
0000
,  // measure 4
0001
0000
0000
0001
1000
0000
0000
1000
0010
0000
0000
0010
0100
0000
0010
0000
,  // measure 5
1000
0000
0000
1000
0100
0000
0000
0100
0010
0000
0000
0010
0001
0000
1000
0000
,  // measure 6
0010
0000
0000
0010
0100
0000
0000
0100
0001
0000
0000
0001
0010
0000
0100
0000
,  // measure 7
1000
0000
0000
1000
0001
0000
0000
0001
0100
0000
0010
0000
0110
0000
0000
0000
,  // measure 8
1000
0000
0000
1000
0001
0000
0000
0001
0100
0000
0000
0100
0010
0000
1000
0000
,  // measure 9
0100
0000
0000
0100
0010
0000
0000
0010
0001
0000
0000
0001
1000
0000
0001
0000
,  // measure 10
0100
0000
0000
0100
0001
0000
0000
0001
0010
0000
0000
0010
0100
0000
1000
0000
,  // measure 11
0001
0000
1000
0000
0100
0000
0010
0001
1000
0000
0100
0000
1001
0000
0000
0000
,  // measure 12
0020
0000
0100
0000
0130
0000
0000
0000
0001
0000
0100
0010
0000
0100
0010
0000
,  // measure 13
1000
0000
0001
0000
0001
0000
1000
0000
0100
0000
0010
0001
0000
1000
0100
0000
,  // measure 14
1000
0000
0010
0000
1000
0000
0100
0000
0010
0000
0001
1000
0000
1000
0000
0001
,  // measure 15
0100
0000
0001
0010
0001
0000
1000
0000
0010
0000
0100
0000
0200
0000
0000
0000
,  // measure 16
0301
0000
0010
0000
0100
0000
1000
0000
0010
0000
1000
0010
0000
0100
0001
0000
,  // measure 17
0010
0000
0100
0000
0010
0000
0001
0000
1000
0000
0010
1000
0000
0100
0010
0000
,  // measure 18
0001
0000
1000
0100
1000
0000
0010
0000
0100
0000
0001
0010
0000
0010
0000
0001
,  // measure 19
1000
0000
0000
1000
0001
0000
0000
0001
0100
0000
0000
0100
0010
0000
1000
0000
,  // measure 20
0001
0000
0010
0000
1000
0010
0000
0002
0000
0000
0000
1003
0100
0000
0001
0000
,  // measure 21
0100
1000
0000
0001
0000
1000
0000
0010
0000
0000
0100
0001
0100
0000
0010
0000
,  // measure 22
1000
0000
0100
0000
0001
0100
0000
2000
0000
0000
0000
3001
0100
0000
0010
0000
,  // measure 23
0100
0000
0000
0000
0001
0000
0000
0000
0010
0000
0000
0000
0100
0000
0000
0000
1000
0000
0000
0000
0001
0000
0000
0000
0100
0000
0000
0000
0000
0000
0000
0000
0000
0100
0000
0000
0010
0000
0000
0000
0000
0000
1000
0000
0000
0000
0000
0000
,  // measure 24
0100
0000
0001
0000
0100
1000
0000
1001
0000
0000
0000
0010
0100
0000
0001
0000
,  // measure 25
1000
0010
0000
0001
0000
0010
0000
1010
0000
0000
0000
0100
0001
0000
0010
0000
,  // measure 26
0100
1000
0020
0000
0031
0010
2000
0000
,  // measure 27
3100
0001
0100
1000
0010
0100
0110
0000
,  // measure 28
0020
0032
0203
1300
,  // measure 29
2002
0000
0000
0000
3003
0000
0000
0220
0000
0000
0000
0000
0330
0000
0000
0000
,  // measure 30
0001
0000
0000
0001
1000
0000
0000
1000
0010
0000
0000
0010
0100
0000
0001
0000
,  // measure 31
1000
0100
1000
0000
0010
0000
0000
0010
0100
0000
0001
0000
1000
0000
0100
0000
,  // measure 32
0001
0000
0000
0001
0100
0000
0000
0100
1000
0000
0000
1000
0010
0000
0100
0000
,  // measure 33
0001
0010
0001
0000
1000
0000
0000
1000
0001
0000
0010
0000
0100
0000
1000
0000
,  // measure 34
0001
0000
0000
0001
0010
0000
0000
0010
1000
0000
0000
1000
0010
0000
0001
0000
,  // measure 35
1000
0010
1000
0000
0001
0000
0010
0001
0010
0000
0100
0000
2000
0000
0000
0000
,  // measure 36
3010
0000
0000
0010
1000
0000
0100
1000
0100
0000
1000
0000
0010
0000
1000
0000
,  // measure 37
0001
0000
0010
0000
0001
0000
0100
0001
0100
0000
0001
0000
0020
0000
0000
0000
,  // measure 38
0130
0000
0000
0100
1000
0000
0000
1000
0001
0000
0000
0001
0100
0000
0010
0000
,  // measure 39
1000
0001
1000
0000
0010
0000
0000
0010
0001
0000
0000
0001
0010
0000
1000
0000
,  // measure 40
0100
0000
0000
0100
0010
0000
0000
0010
1000
0000
0000
1000
0010
0000
0001
0000
,  // measure 41
1000
0100
1000
0000
0001
0000
0010
0001
0010
0000
0100
0000
1000
0000
0100
0000
,  // measure 42
0010
0000
0000
0010
0100
0000
0000
0100
1000
0000
0000
1000
0010
0000
0100
0000
,  // measure 43
0001
0010
0001
0000
1000
0000
0010
0100
0010
0000
1000
0000
0100
0000
1000
0000
,  // measure 44
0010
0000
0000
0010
0100
0000
0001
0010
0001
0000
1000
0000
0010
0000
0100
0000
,  // measure 45
0001
0000
0000
0001
0010
0000
0000
0010
0100
0000
0000
0100
1000
0000
0000
0000
,  // measure 46
1002
0203
0020
0300
,  // measure 47
2000
0000
3030
0002
0020
0000
0033
0000
,  // measure 48
0200
2300
3020
0032
,  // measure 49
0020
0003
2000
0000
,  // measure 50
3030
0000
0000
0000
;
