#TITLE:鬼天;
#SUBTITLE:;
#ARTIST:兎々;
#TITLETRANSLIT:Onigami;
#SUBTITLETRANSLIT:;
#ARTISTTRANSLIT:Totto;
#GENRE:ASURA TEK CORE;
#CREDIT:;
#BANNER:Onigami_banner.png;
#BACKGROUND:Onigami.png;
#LYRICSPATH:;
#CDTITLE:;
#MUSIC:Onigami.ogg;
#OFFSET:-0.710000;
#SAMPLESTART:75.239998;
#SAMPLELENGTH:15.000000;
#LASTBEATHINT:292.500000;
#SELECTABLE:YES;
#BPMS:0.000000=161.000000
;
#STOPS:
;
#BGCHANGES:;
#KEYSOUNDS:;
#ATTACKS:;

//---------------dance-single - ----------------
#NOTES:
     dance-single:
     :
     Easy:
     6:
     0.242312,0.344456,0.113079,0.321840,0.052190,195.000000,182.000000,13.000000,37.000000,0.000000,0.000000,0.242312,0.344456,0.113079,0.321840,0.052190,195.000000,182.000000,13.000000,37.000000,0.000000,0.000000:
0000
0000
0000
0000
,
0000
0000
0000
0000
,
0000
0000
0000
0000
,
0000
0000
0000
0000
,
0001
0000
0000
0001
0000
0000
0000
0000
,
1000
0001
0010
0100
,
1000
0000
0000
1000
0000
0000
0010
0000
,
0100
0001
1000
0100
,
0220
0000
0330
0000
,
2002
0000
3003
0000
,
0010
0000
0000
0010
0000
0000
0000
0000
0100
0000
0000
0100
0000
0000
0000
0000
,
0001
0000
0000
0001
0000
0000
0000
0000
1000
0000
0000
0000
1010
0000
0000
0000
,
0100
0000
0000
0100
0000
0000
0000
0000
0001
0000
0000
0001
0000
0000
0000
0000
,
1000
0000
0000
1000
0000
0000
0000
0000
0220
0000
0000
0000
0330
0000
0000
0000
,
0001
0001
0010
0010
,
0100
0100
1000
1000
,
0010
0100
0001
1000
,
0100
0010
0022
0033
,
1000
1000
0100
1000
,
0001
0010
0001
0000
,
0100
0010
0100
0100
,
0001
1000
0100
0000
,
0010
0001
0100
0000
,
0010
1000
0100
0000
,
0001
0100
0000
0100
,
0020
0000
0000
0000
0000
0030
0000
0000
,
1000
0000
1000
0010
,
0100
0000
0100
0001
,
0010
0000
0010
0001
,
1000
0000
0100
0110
,
0010
0001
1000
0000
,
0010
0100
0001
0000
,
1000
1000
0001
0010
,
0001
0100
0020
0000
,
1030
0000
0000
1000
0000
0000
0000
0000
0001
0000
0000
0001
0000
0000
0000
0000
,
0010
0000
0000
0010
0000
0000
0000
0000
0200
0000
0000
0000
0300
0000
0000
0000
,
0010
0000
0000
0010
0000
0000
0000
0000
0001
0000
0000
0001
0000
0000
0000
0000
,
1000
0000
0000
1000
0000
0000
0000
0000
0020
0000
0000
0000
0030
0000
0000
0000
,
0100
0001
0100
0010
,
1000
0100
0010
0000
,
0100
1000
0010
0100
,
0001
1000
0100
0010
,
0022
0000
0033
0000
,
2000
0000
3000
0000
,
0020
0000
0030
0000
,
0200
0000
0300
0000
,
0001
0000
0001
0000
,
1000
0000
1000
0000
,
0100
0010
0100
0000
,
0220
0000
0330
0000
,
0002
0000
0013
0100
,
2000
0000
3010
0100
,
0020
0000
1030
0100
,
2200
0000
3300
0001
,
0002
0000
0103
0010
,
0200
0000
0301
1000
,
2000
0000
3100
0010
,
0001
0000
1001
0000
,
0200
0000
0310
1000
,
0002
0000
0013
0100
,
2000
0000
3010
0000
,
0100
0001
1000
0000
,
0200
0000
1300
0000
,
0020
0000
0031
0000
,
0110
0000
0001
0000
,
2000
0000
3001
0000
,
0220
0000
0000
0000
,
0330
0000
0000
0000
,
0001
0000
0001
0000
,
1000
0000
1000
0000
,
0220
0000
0000
0000
,
0000
0000
0000
0000
,
0330
0000
0000
0000
;

//---------------dance-single - ----------------
#NOTES:
     dance-single:
     :
     Medium:
     10:
     0.453558,0.539734,0.374030,0.347935,0.091333,365.000000,322.000000,43.000000,40.000000,0.000000,0.000000,0.453558,0.539734,0.374030,0.347935,0.091333,365.000000,322.000000,43.000000,40.000000,0.000000,0.000000:
// measure 0
0000
0000
0000
0000
,  // measure 1
0000
0000
0000
0000
,  // measure 2
0000
0000
0000
0000
,  // measure 3
0000
0000
0000
0000
,  // measure 4
0110
0000
0000
0220
0000
0000
0330
0000
,  // measure 5
0000
0000
1000
0001
,  // measure 6
1001
0000
0000
1001
0000
0000
0000
0000
,  // measure 7
0010
0001
0100
1000
,  // measure 8
2002
0000
0000
3003
,  // measure 9
0220
0000
0000
0330
,  // measure 10
0001
0000
0000
0011
0000
0000
0100
0000
1000
0000
0000
1010
0000
0000
0100
0000
,  // measure 11
0001
0000
0000
1001
0000
0000
1000
0000
0001
0000
0010
0000
0100
0000
0000
0000
,  // measure 12
1000
0000
0000
1100
0000
0000
0001
0000
0100
0000
0000
0110
0000
0000
1000
0000
,  // measure 13
0001
0000
0000
1001
0000
0000
0100
0000
0220
0000
0000
0000
0330
0000
0000
0000
,  // measure 14
0001
0000
0000
0010
0000
0000
0100
0000
1000
0000
0001
0000
1000
0000
0000
0000
,  // measure 15
0100
0000
0000
0010
0000
0000
0100
0000
1000
0000
0001
0000
0100
0000
0000
0000
,  // measure 16
0010
0000
0000
1010
0000
0000
1000
0000
0001
0000
0000
0101
0000
0000
0100
0000
,  // measure 17
0001
0010
0100
0010
0100
1000
0010
0000
,  // measure 18
0000
1000
0100
1000
0001
0100
0001
0000
,  // measure 19
1000
0000
1000
0010
1000
0001
0010
0000
,  // measure 20
0000
0001
0010
0001
1000
0010
1000
0000
,  // measure 21
0001
0000
0001
0100
0001
1000
0100
0000
,  // measure 22
0020
0000
0130
1000
0001
0000
1001
0000
,  // measure 23
0200
0000
0310
0001
1000
0000
1001
0000
,  // measure 24
0100
0010
0020
0000
0100
0000
0130
0000
,  // measure 25
1000
0000
0001
0010
0100
1000
0001
0000
,  // measure 26
0000
0100
0001
0100
0010
0100
0001
0000
,  // measure 27
0010
0000
0010
0001
0010
0100
0010
0000
,  // measure 28
0000
0100
1000
0100
0010
0100
0010
0000
,  // measure 29
0100
0000
0100
1000
0010
0100
1000
0000
,  // measure 30
0100
0000
0001
0010
0100
0000
1010
0000
,  // measure 31
0010
0000
0100
0001
1000
0000
0011
0000
,  // measure 32
1000
0000
0000
1000
0010
0000
0000
0000
0010
0000
0000
0010
0001
0000
0000
0000
,  // measure 33
0200
0000
0301
0000
0010
1000
0010
0000
,  // measure 34
0100
0000
0000
0110
0000
0000
0010
0000
1000
0000
0000
1001
0000
0000
0001
0000
,  // measure 35
0010
0000
0000
0011
0000
0000
0001
0000
1000
0000
0100
0000
0010
0000
0000
0000
,  // measure 36
0100
0000
0000
1100
0000
0000
1000
0000
0001
0000
0000
0101
0000
0000
0100
0000
,  // measure 37
0010
0000
0000
1010
0000
0000
1000
0000
0001
0000
1000
0000
0100
0000
0000
0000
,  // measure 38
0010
0100
1000
0010
0100
0001
0010
0000
,  // measure 39
0001
0100
0010
1000
0100
0010
0001
0000
,  // measure 40
1000
0000
0000
1001
0000
0000
0001
0000
0010
0000
0000
0110
0000
0000
0100
0000
,  // measure 41
1000
0001
0010
0100
1000
0010
0100
0000
,  // measure 42
0201
0000
0000
0001
0000
0000
0000
0000
,  // measure 43
0301
0010
0100
1000
,  // measure 44
2010
0000
0000
0010
0000
0000
0000
0000
,  // measure 45
3001
0100
0010
1000
,  // measure 46
1002
0000
0000
0100
0000
0000
0000
0000
,  // measure 47
1003
0100
0010
0001
,  // measure 48
0021
0000
0000
0100
0000
0000
0000
0000
,  // measure 49
0031
0000
0000
1000
0000
0000
0001
0000
1000
0000
0010
0000
0100
0000
0000
0000
,  // measure 50
0102
0000
0013
0100
0010
0001
1000
0000
,  // measure 51
1020
0000
0130
0001
0100
0010
1000
0000
,  // measure 52
1200
0000
0010
0000
1300
0000
0001
0100
,  // measure 53
0020
0000
1000
0000
0100
0000
1030
0001
,  // measure 54
0020
0000
0100
0000
0031
0000
0100
0010
,  // measure 55
2000
0000
3001
0000
0100
0010
1000
0000
,  // measure 56
1020
0130
0021
0130
,  // measure 57
0001
1000
0100
1000
0010
0000
0100
0100
,  // measure 58
0002
0000
0010
0000
1003
0100
0010
0000
,  // measure 59
0210
0000
0001
0000
1300
0001
0100
0000
,  // measure 60
0120
0000
1000
0000
0130
0001
0010
0100
,  // measure 61
2000
0000
3010
0100
0002
0000
0013
0100
,  // measure 62
0020
0000
0031
1000
0200
0000
1300
0001
,  // measure 63
0200
0000
0310
1000
0001
0010
0100
0000
,  // measure 64
2100
0001
0100
3001
,  // measure 65
0022
0030
2000
3003
,  // measure 66
0210
0000
0000
0010
0000
0000
0000
0000
,  // measure 67
0301
1000
0100
0010
,  // measure 68
0210
0000
0000
1000
0000
0000
0000
0000
,  // measure 69
0310
0001
1000
0010
,  // measure 70
2002
0000
0000
0000
,  // measure 71
0000
0000
0000
0000
,  // measure 72
0000
0000
0000
0000
,  // measure 73
3003
0000
0000
0000
;

//---------------dance-single - ----------------
#NOTES:
     dance-single:
     :
     Hard:
     15:
     0.739362,0.825476,0.530601,0.217459,0.569744,595.000000,534.000000,61.000000,25.000000,0.000000,0.000000,0.739362,0.825476,0.530601,0.217459,0.569744,595.000000,534.000000,61.000000,25.000000,0.000000,0.000000:
// measure 0
0000
0000
0000
0000
,  // measure 1
0000
0000
0000
0000
,  // measure 2
0000
0000
0000
0000
,  // measure 3
0000
0000
0000
0000
,  // measure 4
1100
0000
0000
0202
0000
0000
0303
0000
,  // measure 5
0010
1000
0001
0010
0100
1000
0001
1000
,  // measure 6
1010
0000
0000
0022
0000
0000
0033
0000
,  // measure 7
1000
0000
0001
0000
1000
0000
0001
0000
0010
0100
0010
0100
0010
0000
0000
0000
,  // measure 8
0001
0010
1000
0001
0100
1000
0010
1000
,  // measure 9
0100
0001
1000
0010
0001
1000
1001
0000
,  // measure 10
0110
0000
0000
0101
0000
0000
1010
0000
1100
0000
0000
1010
0000
0000
1001
0000
,  // measure 11
0011
0000
0000
1001
0000
0000
1000
0000
0001
0010
0001
0010
0100
1000
0100
0000
,  // measure 12
1000
0000
0000
1010
0000
0000
1001
0000
0011
0000
0000
1001
0000
0000
0101
0000
,  // measure 13
0110
0000
0000
1010
0000
0000
0101
0000
0220
0000
0000
0000
0330
0000
0000
0000
,  // measure 14
1000
0000
0010
1000
0000
0001
0010
0001
0100
0000
0010
0100
0000
0001
1000
0001
,  // measure 15
0010
0000
0100
1000
0000
0100
1000
0001
0100
0010
0100
0010
1000
0000
1000
0000
,  // measure 16
0001
0000
0000
0011
0000
0000
1100
0000
1010
0000
0000
1001
0000
0000
0101
0000
,  // measure 17
0010
0100
0010
0000
1000
0100
1000
0000
0001
1000
0001
0000
1000
0100
0010
0000
,  // measure 18
0000
0000
0001
0100
0001
0000
1000
0010
1000
0000
0001
0000
0010
0000
0100
0000
,  // measure 19
1000
0000
0000
1000
0010
0000
0000
0010
0001
0000
0010
0100
0010
0000
1000
0000
,  // measure 20
0000
0000
1000
0010
1000
0000
0001
0100
0001
0000
1000
0000
0100
0000
0010
0000
,  // measure 21
0001
0000
0000
0001
0100
0000
0000
0100
1000
0000
0100
0010
0100
0000
0001
0000
,  // measure 22
0010
0000
0000
0010
0100
0000
1000
0000
0001
0000
1000
0001
1000
0000
0010
0000
,  // measure 23
0100
0000
0000
0100
0010
0000
1000
0000
0001
0000
0010
0100
0010
0000
0100
0000
,  // measure 24
1000
0010
0020
0000
0130
0001
0100
0010
,  // measure 25
1000
0000
0001
0010
0100
0000
1000
0000
0010
0100
0010
0000
1000
0001
1000
0000
,  // measure 26
0000
0000
0001
0010
0100
0000
0010
0100
1000
0000
0001
0000
1000
0000
0010
0000
,  // measure 27
0100
0000
0000
0100
0001
0000
0000
0001
0010
0000
0100
1000
0100
0000
0010
0000
,  // measure 28
0001
0000
1000
0100
0010
0000
0100
0010
0001
0000
1000
0000
0001
0000
0100
0000
,  // measure 29
0010
0000
0000
0010
1000
0000
0000
1000
0100
0000
0010
0001
0010
0000
0100
0000
,  // measure 30
1000
0000
0001
1000
0010
0000
0100
0000
0010
0000
0010
0000
1000
0000
0001
0000
,  // measure 31
0010
0000
0100
1000
0001
0000
0100
0010
0100
0000
0001
0000
0010
0000
0100
0000
,  // measure 32
1000
0000
0000
1000
0010
0000
0000
0010
1000
0000
0100
0000
0001
0000
0100
0000
,  // measure 33
1000
0001
0101
0000
0010
0100
1100
0000
,  // measure 34
0101
0000
0000
0011
0000
0000
0101
0000
1100
0000
0000
1010
0000
0000
1100
0000
,  // measure 35
1001
0000
0000
0110
0000
0000
0001
0000
1000
0010
1000
0010
0100
0001
0100
0000
,  // measure 36
0001
0000
0000
0101
0000
0000
1100
0000
1001
0000
0000
0011
0000
0000
1100
0000
,  // measure 37
1010
0000
0000
0101
0000
0000
1000
0000
0001
0010
0001
0010
0100
1000
0100
0000
,  // measure 38
1000
0000
0010
0100
0000
0010
0100
0000
0001
0000
0010
0100
0000
0100
0010
0000
,  // measure 39
0001
0000
0100
0010
0000
0100
0010
0000
1000
0010
0100
0000
0010
0000
0100
0000
,  // measure 40
0101
0000
0000
0011
0000
0000
1010
0000
1001
0000
0000
1100
0000
0000
1000
0001
,  // measure 41
1000
0001
1000
0000
0001
0010
0001
0000
0100
0010
0100
0010
1000
0000
0100
0000
,  // measure 42
2100
0000
0000
0001
0000
0000
3100
0000
,  // measure 43
0001
0010
1000
0001
0100
1000
0001
0000
,  // measure 44
0102
0000
0000
1000
0000
0000
0103
0000
,  // measure 45
1000
0010
0001
1000
0100
0001
1000
0000
,  // measure 46
1002
0000
0010
0010
0010
0000
0100
0100
,  // measure 47
0203
0000
0010
0010
0010
0000
0301
0001
,  // measure 48
1000
0010
0001
0010
1000
0001
0010
1000
,  // measure 49
1010
0000
0000
0011
0000
0000
0101
0000
0100
0010
0100
0010
1000
0000
0001
0000
,  // measure 50
1000
0000
0000
1000
0010
0000
0000
0010
0100
0000
0001
0010
0001
0000
0010
0000
,  // measure 51
0100
0000
0000
0100
1000
0000
0000
1000
0010
0000
0100
0001
0100
0000
0001
0000
,  // measure 52
0010
0000
0100
1000
0100
0000
0010
0000
0001
0000
1000
0010
1000
0000
0001
0100
,  // measure 53
0001
0000
0100
0010
0100
0000
0001
0000
1000
0000
0000
1000
0100
0000
0010
0001
,  // measure 54
0010
0000
0001
1000
0001
0000
0010
0001
0010
0000
0001
1000
0001
0000
1000
0010
,  // measure 55
1000
0000
0010
0100
0010
0000
1000
0010
1000
0000
0010
0100
0010
0000
1000
0100
,  // measure 56
1000
0000
0001
0100
0010
0000
1000
0000
0001
0000
0010
0100
1000
0000
0001
0000
,  // measure 57
0100
0000
0100
0000
0010
0000
0100
0000
0110
0000
0000
0000
0001
0010
0100
0000
,  // measure 58
1000
0000
0000
1000
0001
0000
0000
0001
0010
0000
0001
0100
0001
0000
0010
0000
,  // measure 59
0100
0000
0000
0100
0010
0000
0000
0010
0100
0000
1000
0001
0200
0000
0000
0000
,  // measure 60
0310
1000
1001
0000
0001
0010
0011
0001
,  // measure 61
1000
0000
0001
0100
0010
0000
1000
0000
0001
0100
0010
0100
0001
0000
1000
0000
,  // measure 62
0010
0000
1000
0100
0010
0000
0010
0100
1000
0000
1000
0100
0010
0000
0100
1000
,  // measure 63
0010
0000
0100
0000
0001
0000
0010
0000
0001
1000
0001
1000
0001
0000
0010
0000
,  // measure 64
0100
0000
0010
0001
0100
0000
0100
0001
0010
0000
0010
0001
0100
0000
0001
0010
,  // measure 65
0200
2300
0002
3003
,  // measure 66
0120
0000
0000
1000
0000
0000
1000
0000
,  // measure 67
0230
0302
0023
1030
,  // measure 68
0210
0000
0000
0001
0000
0000
0001
0000
,  // measure 69
2300
3002
0203
0310
,  // measure 70
2002
0000
0000
0000
,  // measure 71
0000
0000
0000
0000
,  // measure 72
0000
0000
0000
0000
,  // measure 73
3003
0000
0000
0000
;
