#TITLE:鬼は内 外の福;
#SUBTITLE:;
#ARTIST:Super Momo Tarosans;
#TITLETRANSLIT:Oni wa uchi soto no fuku;
#SUBTITLETRANSLIT:;
#ARTISTTRANSLIT:;
#GENRE:;
#CREDIT:;
#BANNER:Oni_wa_uchi_soto_no_fuku_banner.png;
#BACKGROUND:Oni_wa_uchi_soto_no_fuku_bg.png;
#LYRICSPATH:;
#CDTITLE:;
#MUSIC:Oni_wa_uchi_soto_no_fuku.ogg;
#OFFSET:-0.700000;
#SAMPLESTART:10.450000;
#SAMPLELENGTH:15.000000;
#LASTBEATHINT:398.000000;
#SELECTABLE:YES;
#BPMS:0.000000=206.000000
,322.500000=156.000000
,356.000000=206.000000
;
#STOPS:
;
#BGCHANGES:;
#KEYSOUNDS:;
#ATTACKS:;

//---------------dance-single - ----------------
#NOTES:
     dance-single:
     :
     Easy:
     8:
     0.361664,0.407463,0.190287,0.256474,0.000000,306.000000,283.000000,23.000000,31.000000,0.000000,0.000000,0.361664,0.407463,0.190287,0.256474,0.000000,306.000000,283.000000,23.000000,31.000000,0.000000,0.000000:
// measure 0
0000
0000
0000
0000
,  // measure 1
0010
0000
0000
0010
0000
0000
0010
0000
,  // measure 2
0000
0220
0000
0000
0330
0000
0000
0000
,  // measure 3
1000
0000
0000
1000
0000
0000
1000
0000
,  // measure 4
0000
2002
0000
0000
3003
0000
0000
0000
,  // measure 5
0010
0000
0000
0100
0000
0000
0010
0000
,  // measure 6
0000
0220
0000
0000
0330
0000
0000
0000
,  // measure 7
1000
0001
0010
0100
,  // measure 8
0220
0000
0000
0330
0000
0000
0000
0000
,  // measure 9
0001
0010
0001
1000
,  // measure 10
0001
0010
0001
0000
,  // measure 11
1000
0100
1000
0010
,  // measure 12
1000
0100
1000
0000
,  // measure 13
0001
0100
0010
0100
,  // measure 14
0001
0000
0010
0000
0100
0000
0000
1000
,  // measure 15
0000
1000
1000
0000
,  // measure 16
0010
0100
0220
0330
,  // measure 17
1000
0100
1000
0001
,  // measure 18
1000
0000
0010
0000
,  // measure 19
0100
0010
0100
0001
,  // measure 20
0010
0000
0100
0000
,  // measure 21
2000
0000
3001
0010
,  // measure 22
0002
0000
1003
0010
,  // measure 23
0100
0000
0100
0100
,  // measure 24
0010
0100
0220
0330
,  // measure 25
0001
0000
0010
0001
,  // measure 26
0010
0001
1000
0000
,  // measure 27
0010
0000
1000
0100
,  // measure 28
1000
0100
0010
0000
,  // measure 29
0001
0000
1000
0001
,  // measure 30
0010
0100
1000
0000
,  // measure 31
0010
0000
1000
0010
,  // measure 32
0220
0000
0330
0000
,  // measure 33
0001
0000
0001
0100
,  // measure 34
0001
0010
0100
0000
,  // measure 35
1000
0000
0010
0100
,  // measure 36
0010
1000
0100
0000
,  // measure 37
1000
0000
0001
1000
,  // measure 38
0100
0010
0001
0000
,  // measure 39
0200
0000
0310
0100
,  // measure 40
0001
1000
1001
0000
,  // measure 41
0010
0100
0001
1000
,  // measure 42
0010
0100
0001
0000
,  // measure 43
0010
0100
1000
0100
,  // measure 44
0010
0100
1000
0000
,  // measure 45
0001
1000
0010
0100
,  // measure 46
0001
1000
0100
0000
,  // measure 47
0010
0001
0100
0001
,  // measure 48
0020
0000
0130
0000
,  // measure 49
1001
0000
0000
0010
0000
0000
0010
0000
,  // measure 50
0000
0010
0000
0000
0020
0000
0030
0000
,  // measure 51
1001
0000
0000
0100
0000
0000
0100
0000
,  // measure 52
0000
0100
0000
0000
0200
0000
0300
0000
,  // measure 53
0001
0000
0000
0010
0000
0000
0001
0000
,  // measure 54
0000
0010
0000
0000
0011
0000
0000
0000
,  // measure 55
0100
1000
0001
0100
,  // measure 56
0220
0000
0000
0330
0000
0000
0000
0000
,  // measure 57
1000
0100
0010
0001
,  // measure 58
1000
0010
0100
0000
,  // measure 59
0001
1000
0010
0100
,  // measure 60
0001
0010
0100
0000
,  // measure 61
1000
0010
0000
0010
,  // measure 62
1000
0001
0100
0000
,  // measure 63
0001
0010
0010
0010
,  // measure 64
0001
1000
1001
0000
,  // measure 65
0010
0100
0001
1000
,  // measure 66
0010
0000
0110
0000
,  // measure 67
1000
0001
0010
0100
,  // measure 68
1000
0000
1001
0000
,  // measure 69
0010
0100
0100
0000
,  // measure 70
0001
0010
0010
0000
,  // measure 71
0001
0010
0100
1000
,  // measure 72
2002
0000
3003
0000
,  // measure 73
0010
0100
0001
0100
,  // measure 74
0010
1000
0100
0000
,  // measure 75
1000
0010
0100
0010
,  // measure 76
1000
0001
0100
0000
,  // measure 77
0011
0000
1000
0000
,  // measure 78
0110
0000
0001
0000
,  // measure 79
1000
0001
0010
0100
,  // measure 80
1000
0010
0220
0330
,  // measure 81
0000
1000
0000
1000
,  // measure 82
0000
0000
0001
0000
0000
0001
0001
0000
,  // measure 83
2000
0010
0000
3010
,  // measure 84
0002
0000
0010
0000
0000
0010
0013
0000
,  // measure 85
0001
1000
0001
0100
,  // measure 86
0010
0100
1001
0000
,  // measure 87
1000
0010
0100
0001
,  // measure 88
0010
0100
1001
0000
,  // measure 89
0220
0000
0000
0000
,  // measure 90
0330
0000
0000
0000
,  // measure 91
0010
0000
0100
0000
,  // measure 92
0110
0000
1000
0000
,  // measure 93
0100
0000
1000
0010
,  // measure 94
1000
0000
0000
0001
0000
0000
1000
0000
,  // measure 95
0000
0001
0000
0000
0100
0000
0100
0000
,  // measure 96
0010
0000
0000
0100
0000
0000
0010
0000
,  // measure 97
0000
0100
0000
0000
0001
0000
0001
2000
,  // measure 98
0000
0000
3000
0000
;

//---------------dance-single - ----------------
#NOTES:
     dance-single:
     :
     Medium:
     13:
     0.683142,0.652767,0.405394,0.173740,0.012410,578.000000,529.000000,49.000000,21.000000,0.000000,0.000000,0.683142,0.652767,0.405394,0.173740,0.012410,578.000000,529.000000,49.000000,21.000000,0.000000,0.000000:
0000
0000
0000
0000
,
1000
0100
0100
0010
0100
1000
0010
0100
,
0000
0110
0000
0001
0100
0010
0200
0000
,
0301
0010
0010
0001
0100
0010
0100
0001
,
0000
1001
0000
1000
0010
0100
0002
0000
,
1003
0010
0010
1000
0001
0010
1000
0010
,
0000
0011
0000
0001
1000
0010
0200
0000
,
0301
1000
0100
1000
0010
0100
0001
0010
,
0001
0100
2000
0000
3000
0000
0000
0000
,
0110
0000
1000
0100
1000
0010
0000
0010
,
1000
0100
1000
0000
0010
0100
0010
1000
,
0000
0100
0010
0001
1000
0001
0000
0100
,
0000
0000
0110
0000
0010
1000
0100
0020
,
0000
0031
0100
0000
0010
0100
0001
0010
,
0000
0010
0001
0000
0100
0010
0100
0001
,
0000
0001
1000
0000
0001
1000
0000
1001
,
0000
0010
0100
0000
0010
1000
0100
0010
,
0001
0000
1001
0000
0100
0010
1000
0100
,
0000
0000
1010
0000
0100
0010
1000
0001
,
0000
0010
0001
0000
1000
0000
0100
1000
,
0000
0001
0010
0000
0001
1000
0100
1000
,
0001
0000
0110
0000
1000
0010
0100
0001
,
0000
0000
0011
0000
0100
0010
1000
0100
,
0000
1010
0100
0011
,
0001
0100
0010
1000
0001
0010
0100
1000
,
0010
0000
0100
0010
0000
0100
0010
0000
,
1000
0100
0000
1000
0001
0000
0011
0000
,
1000
0000
0001
1000
0000
0001
1000
0000
,
0010
1000
0000
0010
0100
0000
0101
0000
,
0001
0010
0100
2000
0000
3010
0100
0000
,
0010
0200
0000
0301
0010
0000
0110
0000
,
1000
0100
0010
0100
1000
0001
0200
0000
,
0000
0301
0010
0100
1000
0000
2002
0000
,
3003
0000
0110
0000
0010
1000
0100
0000
,
1000
0000
0001
0010
0001
0000
0100
0000
,
0001
0000
0010
0000
0001
1000
0010
0000
,
0100
0010
1000
0001
0000
0000
1001
0000
,
0000
0000
0110
0000
0001
0010
0000
0001
,
1000
0000
0100
1000
0010
0000
0100
0000
,
0001
0010
0100
0000
1000
0010
0100
0000
,
0010
1000
0100
0010
0001
0100
0010
0000
,
1000
0000
1001
0000
0001
0010
0100
0010
,
0000
0010
0001
1000
0010
0000
0110
0000
,
1000
0000
0010
0100
0000
0100
0001
0100
,
0000
0100
0010
1000
0100
0000
1001
0000
,
0010
1000
0100
0000
0010
0001
0100
0000
,
0001
1000
0010
0000
1000
0001
0100
0000
,
0010
1000
0001
0100
0001
0010
0100
0000
,
1000
0010
1000
0001
0010
0100
1000
0000
,
0011
0000
0000
1001
0000
0000
1010
0000
,
0000
1001
0000
0000
0010
0000
0110
0000
,
0101
0000
0000
1010
0000
0000
1100
0000
,
0000
1001
0000
0000
0001
0000
0011
0000
,
1000
0000
0100
1000
0000
0010
1000
0000
,
0100
1000
0000
0010
1000
0000
1010
0000
,
0001
0100
0010
0100
0001
0010
0100
1000
,
0010
0100
0220
0000
0330
0000
0000
0000
,
1001
0000
0010
0000
1000
0001
0010
0100
,
0000
0100
0010
0000
0001
1000
0100
1000
,
0000
0010
1000
0000
0001
1000
0010
0100
,
0000
0000
0110
0000
0001
0010
0100
1000
,
0000
0000
1001
0000
0010
1000
0100
0010
,
0000
0000
0011
0000
1000
0001
0010
0100
,
0000
0100
0100
0000
0010
0010
0000
0010
,
0000
0001
0010
0000
0001
1000
0100
0001
,
0100
0000
1100
0000
0010
1000
0010
0001
,
0010
0000
1010
0000
0001
0010
0100
0010
,
0000
0010
0001
0000
1000
0010
1000
0000
,
0001
0100
0010
1000
0100
0010
0001
0000
,
1000
0000
1001
0000
0010
0100
0001
0100
,
0010
0000
1001
0000
0100
0001
0100
0010
,
0200
0010
0001
0310
,
0020
0000
1030
0000
0001
0010
0100
1000
,
0010
0000
1000
0010
0000
0100
0010
0000
,
1000
0010
0000
0100
0010
0000
0110
0000
,
0100
0000
0001
0100
0000
0010
0100
0000
,
0001
0100
0000
0010
0100
0000
0110
0000
,
0001
0010
1000
0000
1000
0010
0001
0000
,
1000
0100
0001
0000
0001
0100
1000
0000
,
0002
0000
0000
1003
0000
0000
0010
0100
0010
0100
0000
0000
,
0001
0000
0000
0010
0000
0100
2000
0000
3000
0000
0000
0000
,
0010
0000
0100
0100
0000
0010
0100
0000
,
0001
0000
0010
0010
0000
0001
0010
0000
,
0001
0100
1000
0000
1000
0100
0010
0000
,
1000
0100
0001
0000
0001
0100
0010
0000
,
0001
0000
1001
0000
0010
0100
0001
0100
,
0000
0100
0010
1000
0100
0000
1100
0000
,
0010
1000
0100
0000
0010
0001
1000
0001
,
0000
0100
0010
0100
0001
0000
1001
0000
,
0022
0000
0033
0000
,
2020
0000
3030
0000
,
0100
0000
0010
0000
0100
0010
0100
0000
,
0001
0000
1000
0000
0001
0010
0001
0000
,
1000
0100
0010
0000
0010
0100
1000
0000
,
0001
0100
0010
0000
0010
0100
0001
0000
,
0010
0001
0100
0010
1000
0010
0100
0000
,
0001
0010
0100
1000
0010
0100
0001
0000
,
1000
0100
0010
0001
0100
0010
1000
0002
,
0000
0000
0000
0000
0000
0003
0000
0000
;

//---------------dance-single - ----------------
#NOTES:
     dance-single:
     :
     Hard:
     17:
     0.973892,1.060747,0.512948,0.289567,0.434351,824.000000,762.000000,62.000000,35.000000,0.000000,0.000000,0.973892,1.060747,0.512948,0.289567,0.434351,824.000000,762.000000,62.000000,35.000000,0.000000,0.000000:
0000
0000
0000
0000
,
0001
0100
0100
1000
0100
0100
0001
0100
,
0100
1000
0100
0010
0110
0000
1001
0000
,
1000
0100
0100
0001
0100
0100
1000
0100
,
0100
0001
0100
0010
0110
0000
1001
0000
,
0010
1000
1000
0010
0001
0001
0010
1000
,
1000
0010
0001
0010
0110
0000
1001
0000
,
1000
0000
0100
0000
1000
0000
0010
0100
0010
0100
0010
0000
1000
0000
0001
0000
,
0010
0110
2002
0000
3003
0000
0000
0000
,
0110
0000
1000
0010
0100
0010
1000
0100
,
0000
1000
0100
0001
1000
0010
0001
0100
,
0000
0100
0001
0100
1000
0100
0010
0110
,
0000
0001
0010
1000
0001
0100
1000
2200
,
3300
0010
0100
0010
1000
0100
0001
0200
,
0000
1300
0001
0010
1000
0001
0100
1000
,
0000
1000
1100
0000
0100
1100
0000
0101
,
0000
0000
1000
0000
1100
0000
0000
0000
0010
0100
0010
0100
0010
0100
0010
0100
,
0010
0000
2002
3003
0100
0001
0010
1000
,
0010
0000
2002
3003
0100
0001
0100
1000
,
0000
0001
0010
1000
0001
0100
1000
0010
,
0100
0010
1000
0001
0010
0100
1000
0100
,
0001
0000
1100
0000
0001
0010
1000
0010
,
0001
0000
0000
0000
0101
0000
0000
0000
0010
0000
0100
0010
0100
0000
0001
0000
,
1000
0000
0010
0100
0010
0000
1000
0000
0001
0100
0010
0000
1000
0000
0001
0000
,
0010
0000
0001
1000
0100
0000
1000
0000
0010
0100
0010
0100
0010
0100
0010
0100
,
0010
1000
0100
0100
1000
0010
0010
1000
,
0100
0001
1000
0010
0001
0100
0110
0000
,
0001
0100
0100
0001
0010
0010
0001
0100
,
0001
0000
0010
0000
1000
0000
0001
0000
0100
0000
1000
0000
0001
1000
0100
0000
,
0010
0001
0010
0000
0100
0000
1000
0010
1000
0000
0001
0000
0010
0000
0010
0000
,
0001
0000
1000
0100
1000
0000
0010
0000
0100
0000
0001
0010
0001
0000
0000
0000
,
1001
0100
0000
0100
0110
0001
0110
0010
,
0000
0000
0010
0000
1000
0000
0100
0000
1000
0001
1000
0001
1000
0000
0000
0000
,
0010
0000
0110
0000
0001
0010
0100
0010
,
0001
0100
1000
0100
0000
0010
0100
0001
,
1000
0100
0010
0000
0010
0100
1000
0010
,
0100
0001
0100
2000
0000
3100
0110
0000
,
0001
0000
1001
0000
0100
0010
1000
0001
,
0010
1000
0010
0002
0000
1000
1000
1003
,
0010
0000
0000
0000
0110
0000
0000
0000
1000
0000
0001
0000
0010
0100
1000
0000
,
0001
0000
1000
0000
0100
0010
0001
0000
1000
0000
0010
0100
0010
0100
0010
0100
,
0010
1000
0100
0001
0100
1000
0001
0100
,
0000
0000
0100
0000
0010
0000
0100
0000
0001
0000
0010
0100
1000
0000
0000
0000
,
0010
1000
0001
0010
1000
0010
0001
1000
,
0000
0000
1000
0000
0100
0000
0010
0000
0001
0000
0100
0010
1000
0000
0000
0000
,
0010
0100
0001
0010
1000
0001
0100
1100
,
0000
0000
0011
0000
0000
0000
1000
0000
0010
0000
0100
0001
1000
0000
0000
0000
,
0001
0000
0010
0000
0001
0000
0100
0000
0010
0000
1000
0100
0010
0000
0001
0000
,
0000
0000
0010
0000
0001
0000
1000
0000
0010
0100
0001
0000
0010
0100
1000
0000
,
0010
0100
0100
0001
0100
0100
0010
0100
,
0100
0000
0001
0000
0100
0000
0100
0000
0010
1000
0100
0000
0010
0001
0100
0000
,
0010
1000
1000
0010
0100
0100
0010
1000
,
1000
0000
0010
0000
0100
0000
0100
0000
0010
1000
0001
0000
0010
0001
1000
0000
,
0001
0100
0100
2100
0000
3100
0001
0010
,
0001
0000
0021
0000
0000
0000
0130
0000
1000
0010
0100
0000
0001
0010
0100
0000
,
1000
0000
0100
0000
1000
0000
0010
0100
1000
0100
0010
0000
1000
0000
0001
0000
,
0010
0110
2002
0000
3003
0000
0000
0000
,
0110
0000
0001
0100
0010
0100
0001
0010
,
0000
0001
0010
1000
0001
0100
1000
0010
,
0000
0010
1000
0010
0001
0010
0100
0110
,
0000
1000
0100
0001
1000
0010
0001
0022
,
0033
0100
0010
0100
0001
0010
1000
0020
,
0000
0031
1000
0100
0001
1000
0010
0001
,
0000
0001
0011
0000
0010
0011
0000
1010
,
0000
0000
0001
0000
0011
0000
0000
0000
0100
0010
0100
0010
0100
0010
0100
0010
,
0100
0000
2002
3003
0010
1000
0100
0001
,
0100
0000
2002
3003
0010
1000
0010
0001
,
0000
1000
0100
0001
1000
0010
0001
0100
,
0010
0100
0001
1000
0100
0010
0001
0010
,
1000
0000
0011
0000
1000
0100
0001
0100
,
1000
0000
0000
0000
1010
0000
0000
0000
0100
0000
0010
0100
0010
0000
1000
0000
,
0001
0000
0100
0010
0100
0000
0001
0000
1000
0010
0100
0000
0001
0000
1000
0000
,
0100
1000
0001
0000
0010
0001
1000
0000
0010
0100
0010
0100
0010
0100
0010
0100
,
0010
1000
0100
0020
0000
0130
0120
0000
,
0130
0000
0120
0000
0000
0000
0130
0000
0010
0001
0010
0100
1000
0000
0010
0000
,
0210
0000
0310
0210
0000
0310
0210
0000
,
0310
0000
1000
0000
0001
0010
0100
0000
1000
0000
0010
0000
0100
0001
1000
0000
,
0010
0000
0110
0000
0000
0000
0100
0010
1000
0000
0100
0000
0100
0000
0000
0000
,
1000
0100
0010
0100
0010
0001
0100
0010
1000
0010
0100
0001
,
0010
0001
0100
0010
1000
0100
1000
0010
0100
0001
0100
1000
,
0100
0001
1000
0100
0001
0200
0020
0000
0330
0000
0000
0000
,
1001
0000
0000
0000
0010
0000
0010
0000
0100
0010
1000
0000
0010
0000
0100
0000
,
0001
0000
0010
0000
0001
0000
0001
0000
1000
0100
0010
0000
0001
0010
0100
0000
,
1000
0000
0010
0000
0100
0000
0100
0000
0010
1000
0100
0000
1000
0000
0001
0000
,
0100
0000
0010
0000
0010
0000
0100
0000
0001
0010
0100
0000
0010
0100
1000
0000
,
0010
1000
1100
0000
0010
1000
0001
0011
,
0000
0000
1000
0000
0010
0000
1000
0000
0001
0100
0010
1000
0100
0000
1000
0000
,
0010
0100
1001
0000
0100
0010
0001
0011
,
0000
0000
0000
1000
0000
0000
0001
0000
0000
0010
0000
0000
0001
0000
0010
0000
0100
0000
1000
0000
0010
0000
0100
0000
,
0002
0203
2300
3200
,
0301
1000
0100
1000
0010
0100
0001
0010
,
0001
0100
1000
0001
1001
0000
0110
0000
,
1000
0000
0010
0000
1000
0100
0010
0000
0100
0000
1000
0010
0100
0000
0010
0000
,
1000
0000
0001
0010
0100
0000
0010
0001
0100
0000
0010
0000
0110
0000
0000
0000
,
0011
0010
0010
0110
0000
1000
1010
0010
,
0010
0000
0110
0000
0000
0000
0010
0000
0100
0010
1000
0100
0010
0000
0001
0000
,
0100
0010
1000
0010
0100
0000
0001
0000
0010
0001
1000
0001
0010
0000
0100
0000
,
1000
0010
0100
0000
0001
1000
0010
0000
0100
0010
1000
0100
0010
0001
2000
0000
,
0000
0000
0000
0000
0000
3000
0000
0000
;
