#TITLE:OVER THE LIMIT!;
#SUBTITLE:;
#ARTIST:伊藤賢治;
#TITLETRANSLIT:;
#SUBTITLETRANSLIT:;
#ARTISTTRANSLIT:Kenji Ito;
#GENRE:METALIC SAGA;
#CREDIT:;
#BANNER:OVER_THE_LIMIT!_banner.png;
#BACKGROUND:OVER_THE_LIMIT!.png;
#LYRICSPATH:;
#CDTITLE:;
#MUSIC:OVER THE LIMIT!.ogg;
#OFFSET:0.380000;
#SAMPLESTART:28.040001;
#SAMPLELENGTH:12.000000;
#SELECTABLE:YES;
#BPMS:0.000000=120.000000
,32.000000=118.000000
,32.500000=116.000000
,33.500000=115.000000
,34.000000=112.000000
,34.500000=111.000000
,34.750000=108.000000
,36.000000=104.000000
,40.000000=150.000000
;
#STOPS:
;
#BGCHANGES:;
#KEYSOUNDS:;
#ATTACKS:;

//---------------dance-single - ----------------
#NOTES:
     dance-single:
     :
     Easy:
     6:
     0.230901,0.281649,0.117744,0.192672,0.010704,151.000000,140.000000,11.000000,18.000000,0.000000,0.000000,0.230901,0.281649,0.117744,0.192672,0.010704,151.000000,140.000000,11.000000,18.000000,0.000000,0.000000:
0000
0000
0000
0000
,
0010
0000
0100
0000
,
0001
0000
1000
0000
,
0100
0000
0010
0000
,
0001
0000
1000
0000
,
0020
0000
0130
0000
,
0200
0000
0301
0000
,
1001
0000
0110
0000
,
1000
0001
0020
0000
,
0130
0000
0000
0000
,
0000
0000
0000
0000
,
1010
0000
0000
0000
,
0101
0000
0000
0000
,
0011
0000
0000
0000
,
1000
0000
0000
0001
0010
0000
0000
0000
,
1000
0010
0100
0010
,
1000
0000
0000
0100
0000
0000
1000
0000
,
0001
0000
0000
0010
0002
0000
0000
0000
,
0003
0000
0100
0010
,
0100
0001
0010
0001
,
0100
0000
0000
0001
0000
0000
1000
0000
,
0020
0000
0130
0000
,
0110
0000
0001
0100
,
2000
0000
3100
0001
,
0020
0000
0031
1000
,
0100
1000
0010
0100
,
0002
0000
1003
1000
,
0010
0100
0010
1000
,
0100
1000
0001
0010
,
0200
0000
0000
0310
0000
0000
0000
0000
,
1000
0001
0000
0000
0000
0000
0000
0000
,
0001
0000
0100
0000
0000
0010
0000
0000
,
0100
0000
0000
0001
0000
0000
1000
0000
,
0010
0000
1000
0200
0000
0000
1300
0000
,
0001
1000
1001
0000
,
0010
0100
0001
0100
,
1000
0100
0020
0000
,
1030
0000
0000
0100
1000
0000
0001
0000
,
0020
0000
0031
0001
,
1000
0000
0000
0010
0000
0000
1000
0000
,
0010
0000
0100
0010
0000
0000
0100
0000
,
0001
0000
1000
0001
,
0010
0000
0100
1000
0000
0000
0001
0000
,
1000
0100
0022
0033
,
0001
0100
2020
3030
,
0002
0000
1003
0000
,
0020
0000
0000
0130
,
0100
0001
1000
0100
,
0010
0001
1000
0010
,
0110
0000
0000
0000
,
1001
0000
0000
0000
,
1000
0000
0000
0001
0000
0000
0000
0000
0100
0000
0000
0010
0000
0000
0000
0000
,
0000
0000
0000
0000
0100
0010
0000
0000
;

//---------------dance-single - ----------------
#NOTES:
     dance-single:
     :
     Medium:
     10:
     0.399106,0.422474,0.256896,0.192672,0.090984,261.000000,237.000000,24.000000,18.000000,0.000000,0.000000,0.399106,0.422474,0.256896,0.192672,0.090984,261.000000,237.000000,24.000000,18.000000,0.000000,0.000000:
0000
0000
0000
0000
,
0002
0000
0000
0000
0013
0000
0000
0001
,
1000
0000
1010
0000
0100
0010
0100
0000
,
0020
0000
0000
1000
1030
0000
0110
0000
,
0001
0000
1000
0000
0001
0100
0010
0000
,
2000
0000
0000
0010
3010
0000
0100
0001
,
0010
0000
1010
0000
0100
0001
0100
0000
,
0002
0000
0013
0001
0020
0000
0130
0010
,
0100
0000
0000
0000
1000
0000
0000
0000
0001
0000
0000
1000
0000
0000
0010
0000
,
0200
0000
0000
0000
,
0300
0000
0000
0000
,
1001
0000
0000
0010
0000
0000
0010
0000
,
1001
0000
0000
0100
0000
0000
0100
0000
,
1001
0000
0000
0010
0000
0000
0010
0000
,
1000
0000
0000
0001
0000
0000
1000
0000
0020
0000
0000
0000
0130
0000
0000
0000
,
0001
0000
0000
0010
0000
0000
0001
0000
1000
0000
0000
0000
0100
0000
0000
0000
,
1000
0000
0000
0010
0000
0000
1000
0000
,
0001
0000
0000
0010
0000
0000
0100
0000
2000
0000
0000
0000
3100
0000
0000
0000
,
1000
0010
1000
0000
0001
0100
0001
0000
,
0010
0000
0000
0001
0000
0000
1000
0000
0100
0000
0000
0000
0110
0000
0000
0000
,
0020
0000
0000
0032
0000
0000
1003
0000
,
0010
0000
0000
0100
0000
0000
0010
0000
1000
0000
0000
0000
1001
0000
0000
0000
,
0100
0010
0100
0000
0001
1000
0100
0000
,
0110
0000
0010
0001
0010
0000
0100
0000
,
1100
0000
1000
0010
1000
0000
0001
0000
,
0100
0000
0000
0010
0000
0000
1000
0000
0001
0000
0000
0000
0011
0000
0000
0000
,
2000
0000
0010
0000
3010
0100
0001
0000
,
1000
0000
0000
0010
0000
0000
1000
0000
0100
0000
0000
0010
0000
0000
0001
0000
,
0100
0000
0000
0010
0000
0000
1000
0000
0001
0000
0000
0000
1001
0000
0000
0000
,
0100
0000
0000
0220
0000
0000
0330
0000
,
0001
1000
0000
0000
0000
0000
0000
0000
,
1001
0000
0100
0010
0000
0010
0100
0000
,
0001
0010
0100
1000
0000
0010
0100
0000
,
0010
0000
1000
0200
0000
0000
1300
0000
,
0010
1000
0100
0010
0001
0000
0000
0000
,
1000
0010
1000
0010
0100
0001
0100
0001
,
1000
0100
0010
0001
0010
0200
0000
0000
,
1300
0000
0000
0010
0000
0000
0010
0000
0100
0000
0001
0000
0100
0000
0000
0000
,
1001
0000
0000
0000
0100
0001
0010
0000
,
0002
0000
0000
1003
0000
0000
0110
0000
,
1000
0010
0100
0001
0000
0010
0001
0000
,
0101
0000
0010
1000
0010
0000
0100
0000
,
0001
1000
0100
0010
0000
0001
0100
0000
,
0001
0000
0000
1000
0000
0000
0100
0000
1000
0000
0000
0000
1010
0000
0000
0000
,
0100
0000
0000
0010
0000
0000
1000
0000
0001
0000
0000
0000
0011
0000
0000
0000
,
1001
0000
0100
0010
0100
0000
0110
0000
,
1000
0000
0000
0001
0000
0000
0010
0000
0100
0000
0000
1000
0000
0000
0001
0000
,
0200
0000
0000
0020
0000
0000
0330
0000
,
1000
0001
1000
0001
0010
0000
1001
0000
,
0110
0000
0000
0001
0000
0000
0001
0000
,
0110
0000
0000
1000
0000
0000
1000
0000
,
0010
0000
0000
1000
0000
0000
0100
0000
0010
0000
0000
0001
0000
0000
0100
0000
,
0001
1000
0001
0100
0010
0010
0000
0000
;

//---------------dance-single - ----------------
#NOTES:
     dance-single:
     :
     Hard:
     14:
     0.688114,0.760453,0.396048,0.139152,0.497736,450.000000,413.000000,37.000000,13.000000,0.000000,0.000000,0.688114,0.760453,0.396048,0.139152,0.497736,450.000000,413.000000,37.000000,13.000000,0.000000,0.000000:
// measure 0
0000
0000
0000
0000
,  // measure 1
2010
0000
0001
0000
3020
0000
0100
1000
,  // measure 2
1030
0000
1001
0000
0100
0010
1000
0001
,  // measure 3
0020
0000
0001
0001
0032
0000
0103
0010
,  // measure 4
0100
0000
1010
0000
0100
0010
1000
0010
,  // measure 5
0200
0000
0000
0000
0001
0000
0001
0000
0302
0000
0000
0010
0003
0000
0001
0000
,  // measure 6
1000
0000
1010
0000
0100
0001
1000
0100
,  // measure 7
0101
0000
0000
0000
0010
0000
0001
1000
0100
0000
0000
0000
1000
0000
0010
0100
,  // measure 8
0001
0000
0000
0000
1010
0000
0000
0000
0011
0000
0010
0100
0000
0000
1000
0001
,  // measure 9
0020
0000
0000
0000
,  // measure 10
0130
0100
0100
0100
,  // measure 11
1000
0010
1000
0010
1000
0000
0001
0100
0001
0100
0001
0000
0100
0000
0010
0000
,  // measure 12
1000
0100
1000
0100
1000
0000
0001
0010
0001
0010
0001
0000
1000
0000
0100
0000
,  // measure 13
0010
0001
0010
0001
0010
0000
0100
1000
0100
1000
0100
0000
1000
0000
0001
0000
,  // measure 14
0100
0000
0000
0110
0000
0000
1000
0000
0001
0000
0000
0000
0100
0010
0100
0000
,  // measure 15
0001
0000
0010
0001
0000
0000
1001
0000
1000
0000
0010
1000
0000
0000
1001
0000
,  // measure 16
0001
0000
0000
0000
0100
0000
0010
0000
0000
0000
0010
0000
0100
0001
0100
0000
,  // measure 17
0010
0000
1000
0100
0000
1000
0010
0000
0200
0000
0001
0000
0001
0000
0301
0000
,  // measure 18
1000
0000
0010
0000
1000
0000
0001
0000
1000
0000
0010
0100
0010
0000
1000
0000
,  // measure 19
0001
0000
0010
0001
0000
0000
1000
0000
0100
0000
1000
0010
0000
0000
0100
0000
,  // measure 20
0001
0000
1000
0100
0000
0100
0010
0001
,  // measure 21
1000
0000
0010
0100
0000
0100
0010
0000
1000
0000
0001
0010
0001
0010
0001
0000
,  // measure 22
0100
0000
0010
0000
1000
0000
0001
0000
0010
0000
0100
1000
0100
0000
1000
0000
,  // measure 23
0020
0000
0000
0000
0130
0000
0010
0100
0010
0000
1000
0100
0000
0000
1000
0000
,  // measure 24
0002
0000
0000
0000
0013
0000
0001
0010
0001
0000
1000
0100
0000
0000
1000
0000
,  // measure 25
0010
0000
0100
0001
0000
1000
0010
0000
0100
0000
0000
0000
1010
0000
0000
0000
,  // measure 26
0100
0000
0001
0000
0010
0000
0001
0000
1000
0000
0100
0010
0100
0000
1000
0000
,  // measure 27
0001
0000
0100
0010
0000
0000
0110
0000
1000
0000
0100
0010
0000
0000
0110
0000
,  // measure 28
0001
0000
1000
0010
0000
0000
1010
0000
0100
0000
0001
1000
0000
0000
0101
0000
,  // measure 29
0100
0000
0000
0000
0010
0000
1010
0000
0000
0000
0100
0000
0010
0100
0010
0000
,  // measure 30
1000
1001
0000
0000
0000
0000
0000
0000
,  // measure 31
0110
0000
0000
0010
1000
0000
0002
0000
0000
0000
0013
0100
0010
0000
0001
0000
,  // measure 32
1000
0000
0100
0000
1000
0010
0100
0000
0000
0000
0100
0001
0010
0000
0001
0000
,  // measure 33
0010
0000
0001
0000
1000
0000
1001
0000
0000
0000
1001
0000
0000
0000
0010
0100
,  // measure 34
0010
0000
1000
0100
1000
0000
0001
0010
0002
0000
0000
0000
0103
0000
0000
0000
,  // measure 35
0010
1000
0010
1000
0001
0000
0100
0000
0001
0010
0001
0010
0100
0000
1000
0000
,  // measure 36
0100
1000
0100
1000
0001
0000
0010
0000
0001
1000
0001
1000
0010
0000
0100
0000
,  // measure 37
0010
0000
1000
0010
0000
0000
0100
0000
0001
0000
1000
0100
0000
0000
1000
0000
,  // measure 38
0010
0000
0100
0000
0010
0000
1000
0100
0010
0000
0001
0000
1000
0000
0010
0000
,  // measure 39
0100
0000
0001
0011
0000
1000
1100
0000
,  // measure 40
0010
0100
1000
0100
0000
0010
0110
0000
,  // measure 41
1001
0000
0000
0000
0010
0000
0001
0010
0100
0000
0000
1000
0000
0000
0010
0000
,  // measure 42
0100
0000
0001
0000
1000
0000
0100
0000
0000
0000
1000
0010
0100
0000
0001
0000
,  // measure 43
0010
0000
0010
0001
0000
0001
0100
0000
0020
0000
1000
0000
1000
0000
1030
0000
,  // measure 44
0100
0000
0100
0010
0000
0010
0001
0000
0100
0000
0100
1000
0000
1000
0001
0000
,  // measure 45
0010
0000
0000
0000
0100
0000
0010
0100
0010
0000
1000
0000
0001
1000
0001
0000
,  // measure 46
1001
0000
0000
0011
0000
0000
1100
0000
1010
0000
0000
0101
0000
0000
0011
0000
,  // measure 47
0001
0000
1000
0000
0100
0000
1000
0000
0001
0000
0010
0100
1000
0100
0010
0000
,  // measure 48
0001
0000
1000
0000
0100
0000
0001
0000
0100
0000
1000
0010
0100
0010
1000
0000
,  // measure 49
0001
0010
0001
0010
0001
0000
1000
0100
1000
0100
1000
0000
0010
0000
0010
0000
,  // measure 50
0100
0001
0100
0001
0100
0000
0010
1000
0010
1000
0010
0000
0100
0000
0100
0000
,  // measure 51
1001
0000
0000
1100
0000
0000
0101
0000
0011
0000
0000
1010
0000
0000
1001
0000
,  // measure 52
0100
0010
0000
0010
0100
0010
0000
0010
1000
0000
1001
0000
0000
0000
0000
0000
;
