#TITLE:OOO;
#SUBTITLE:;
#ARTIST:Ryu☆ feat.moimoi;
#TITLETRANSLIT:;
#SUBTITLETRANSLIT:;
#ARTISTTRANSLIT:Ryu feat.moimoi;
#GENRE:BUBBLEGUM DANCE;
#CREDIT:;
#BANNER:OOO_banner.png;
#BACKGROUND:OOO.jpg;
#LYRICSPATH:;
#CDTITLE:;
#MUSIC:OOO.ogg;
#OFFSET:0.550000;
#SAMPLESTART:42.299999;
#SAMPLELENGTH:13.710000;
#SELECTABLE:YES;
#BPMS:0.000000=140.000000
;
#STOPS:
;
#BGCHANGES:;
#KEYSOUNDS:;
#ATTACKS:;

//---------------dance-single - ----------------
#NOTES:
     dance-single:
     :
     Easy:
     5:
     0.245812,0.281102,0.153329,0.102219,0.000000,202.000000,184.000000,18.000000,12.000000,0.000000,0.000000,0.245812,0.281102,0.153329,0.102219,0.000000,202.000000,184.000000,18.000000,12.000000,0.000000,0.000000:
0000
0000
0000
0000
,
0000
0000
0000
0000
,
0000
0000
0000
0000
,
0000
0000
0000
0000
,
0000
0000
0000
0000
,
0100
0010
0100
1000
,
0100
0000
0001
0000
,
0010
0001
0010
0100
,
0010
0000
1001
0000
,
0100
0001
0100
0010
,
0100
0000
0001
0000
,
1000
0100
1000
0010
,
1000
0000
0100
0000
,
0010
0100
1000
0100
,
0010
0000
0001
0000
,
0001
0100
0010
0100
,
2002
0000
3003
0000
,
0100
0010
1000
0000
,
0100
1000
0010
0000
,
0100
0001
0010
0000
,
1001
0000
1001
0000
,
0010
0100
0001
0000
,
0010
0001
0100
0000
,
0010
1000
0100
0000
,
0110
0000
0110
0000
,
0100
1000
0100
0000
,
0010
0001
0010
0000
,
0001
0100
0001
0000
,
1000
0010
1000
0000
,
0100
0100
1001
0000
,
0010
0010
1001
0000
,
0100
0001
1000
0001
,
0220
0000
0330
0000
,
1000
0100
1000
0000
,
0001
0100
0001
0000
,
1000
0001
0010
0100
,
1100
0000
0101
0000
,
0010
1000
0010
0000
,
0100
0001
0100
0000
,
0001
0100
0010
1000
,
1010
0000
0011
0000
,
0100
0100
0100
0100
,
0001
0010
0100
0000
,
1000
1000
1000
1000
,
0010
0100
0001
0000
,
1000
0001
1000
0001
,
0010
0100
0010
0000
,
0100
1000
0100
1000
,
0002
0000
0003
0000
,
1000
0010
0100
0010
,
1000
0000
0011
0000
,
0100
0010
1000
0010
,
0100
0000
1100
0000
,
0001
1000
0010
1000
,
0001
0000
0101
0000
,
0010
1000
0100
1000
,
0010
0100
2002
3003
,
0010
0100
1000
0100
,
0020
0001
0031
0000
,
0001
0100
0010
0100
,
0002
1000
1003
0000
,
1000
0100
0010
0100
,
2000
0010
3010
0000
,
0100
0001
0010
0100
,
0001
0100
1000
0000
,
2002
0000
0000
0000
,
3003
0000
0000
0000
;

//---------------dance-single - ----------------
#NOTES:
     dance-single:
     :
     Medium:
     8:
     0.386972,0.393543,0.289621,0.212956,0.000000,318.000000,284.000000,34.000000,25.000000,0.000000,0.000000,0.386972,0.393543,0.289621,0.212956,0.000000,318.000000,284.000000,34.000000,25.000000,0.000000,0.000000:
0000
0000
0000
0000
,
0000
0000
0000
0000
,
0000
0000
0000
0000
,
0000
0000
0000
0000
,
0000
0000
0000
0000
,
1000
0001
1001
0100
,
0010
0000
0100
0001
1000
0000
0000
0000
,
0001
0000
0010
0000
0001
0000
0100
0010
,
0000
0010
0200
0000
0300
0000
1001
0000
,
1000
0000
0010
0000
1000
0000
0001
0010
,
0000
0001
0010
0000
0001
0000
1100
0000
,
0010
0000
1000
0000
0001
0000
1000
0010
,
0000
1000
0010
0000
0100
0000
0001
0000
,
0010
0000
0100
0000
0010
0000
0100
1000
,
0000
0010
1000
0000
0010
0000
0110
0000
,
0001
0000
0010
0000
0001
0000
0010
0100
,
0000
0010
0200
0000
1000
0000
1300
0000
,
0010
0000
1000
0000
0001
0010
0001
0000
,
0100
0000
0010
0000
1000
0100
1000
0000
,
0010
0000
1000
0000
0001
1000
0100
0000
,
0220
0330
2002
3003
,
0100
0000
0001
0000
1000
0001
0100
0000
,
0010
0000
1000
0000
0100
1000
0001
0000
,
0100
0000
0010
0000
1000
0001
0010
0001
,
1000
0010
0220
0330
,
1000
0000
0101
0000
1000
0000
0010
1000
,
0000
0001
0010
0000
0001
0010
0100
0000
,
0010
0000
1100
0000
0010
0000
0100
0001
,
0000
1000
0001
0000
0100
0010
0100
0000
,
0001
0000
1100
0000
0001
0000
0010
0001
,
0000
1000
0001
0000
0100
0010
1000
0000
,
0001
0000
0110
0000
0001
0000
1000
0010
,
0000
1000
0001
0000
0010
0000
1100
0000
,
0010
0100
0010
1000
0020
0000
0130
0000
,
0001
0010
0100
0010
0002
0000
1003
0000
,
0010
0100
0001
0100
0020
0000
1030
0000
,
1100
0001
2200
3300
,
0010
0100
0001
0100
0020
0000
1030
0000
,
1000
0100
0010
0100
2000
0000
3001
0000
,
0001
0100
0010
0100
0002
0000
0013
0000
,
1001
0100
0220
0330
,
0001
0000
0011
0000
0001
0000
1000
0010
,
0000
0010
1000
0000
2002
0000
3003
0000
,
1000
0000
1100
0000
1000
0000
0001
0100
,
0000
0100
0001
0000
0220
0000
0330
0000
,
0010
0000
1010
0000
1000
0000
0100
1000
,
0000
0001
0010
0000
2002
0000
3003
0000
,
0100
0000
0110
0000
0010
0000
1000
0001
,
0000
1000
0001
0000
0010
0000
0110
0000
,
0001
0000
1100
0000
0001
0000
0010
0100
,
0000
0010
0100
0000
1000
0000
0010
0000
,
1000
0000
0101
0000
1000
0000
0010
0100
,
0000
0010
0100
0000
0001
0000
1001
0000
,
0010
0000
1100
0000
0001
0000
0100
0010
,
0000
1000
0010
0000
0100
0001
0010
0000
,
0001
0000
0110
0000
1000
0000
0010
0100
,
0000
0001
0010
0000
0100
0000
1001
0000
,
0100
0000
0110
0000
0001
0000
0010
0001
,
0000
1000
0001
0000
1000
0010
1000
0010
,
0100
0000
0101
0000
0010
0000
1000
0001
,
0000
0010
0001
0000
1000
0100
1000
0100
,
0010
0000
1001
0000
0010
0000
1000
0001
,
0000
0010
0001
0000
0100
0010
0100
0010
,
1000
0000
1100
0000
0001
0000
0010
0001
,
0000
0001
1000
0000
0010
0100
0001
0010
,
0200
0000
0000
0000
,
0300
0000
0000
0000
;

//---------------dance-single - ----------------
#NOTES:
     dance-single:
     :
     Hard:
     12:
     0.579241,0.562205,0.587759,0.085183,0.063887,476.000000,407.000000,69.000000,10.000000,0.000000,0.000000,0.579241,0.562205,0.587759,0.085183,0.063887,476.000000,407.000000,69.000000,10.000000,0.000000,0.000000:
0000
0000
0000
0000
,
0000
0000
0000
0000
,
0000
0000
0000
0000
,
0000
0000
0000
0000
,
0000
0000
0000
0000
,
0110
0000
1001
0000
0110
0000
0001
1000
,
0000
0010
1000
0100
0010
0001
0010
0100
,
0110
0000
1001
0000
0110
0000
0010
1000
,
0000
0100
1000
0010
0100
0001
0001
0000
,
1010
0000
0101
0000
1010
0000
0001
0010
,
0001
1000
0010
0001
0010
0100
0001
1000
,
1100
0000
0011
0000
1100
0000
0010
0100
,
0001
0010
0001
1000
0100
0001
0100
1000
,
1010
0000
0011
0000
1010
0000
0100
0001
,
1000
0010
0100
0001
1000
0100
0010
0001
,
0101
0000
1100
0000
0101
0000
0010
0100
,
0000
0000
0010
0100
0010
0000
1000
0000
0001
0000
1000
0000
1001
0000
0000
0000
,
0010
0100
1000
0100
0001
0100
2000
0000
,
3100
0001
0010
0001
1000
0100
0020
0000
,
0130
1000
0001
1000
0010
1000
0100
0010
,
0011
0000
1000
0010
0011
0000
0010
1000
,
0001
0100
1000
0100
0010
1000
0200
0000
,
1300
0001
0010
0001
1000
0010
0200
0000
,
0301
0000
0010
0000
0001
0000
0100
0000
0010
0000
1000
0001
1000
0000
0010
0000
,
0100
0000
0001
1000
0000
0001
1000
0000
0010
0000
0100
0000
0100
0000
0100
0000
,
0110
0000
1001
0000
0110
0000
0100
1000
,
0001
0010
0100
1000
0100
0010
0001
0100
,
0110
0000
1001
0000
0110
0000
0001
0010
,
0001
0000
1000
0000
0100
0000
1000
0000
0010
0000
1000
0001
1000
0000
0010
0000
,
0110
0000
1001
0000
0110
0000
0010
0001
,
1000
0100
0001
0100
1000
0001
0100
0010
,
0110
0000
1001
0000
0110
0000
0100
1000
,
0010
0001
0010
1000
0001
0000
1001
0000
,
0010
1000
0100
0010
0001
1000
0020
0000
,
1030
0001
0010
0100
0010
0001
0200
0000
,
0310
0000
1000
0000
0001
0000
0010
0000
0001
0000
1000
0100
1000
0000
0010
0000
,
0110
0000
1000
0010
0110
0000
0001
0100
,
0010
1000
0010
0001
0010
1000
0200
0000
,
0310
0001
1000
0001
0010
0100
2000
0000
,
3001
0000
0100
0000
0010
0000
1000
0000
0100
0000
0010
0001
0010
0000
0100
0000
,
1100
0000
0001
0100
1000
0100
0100
0100
,
0110
0000
1001
0000
0110
0000
0010
1000
,
0000
1000
0010
0001
0010
0001
0100
0000
,
0110
0000
1001
0000
0110
0000
0100
1000
,
0000
1000
0010
0001
0010
1000
0010
0000
,
0110
0000
1001
0000
0110
0000
0010
0001
,
1000
0000
0001
0000
0010
0000
0001
0000
0100
0000
0010
0000
0100
0000
0001
1000
,
0001
0000
0110
0000
1001
0000
0010
0200
,
0000
1300
0001
0100
0010
1000
1000
1000
,
1001
0000
0110
0000
1001
0000
0100
1000
,
0001
0000
1000
0000
0100
0000
0010
0000
0001
0000
0100
0010
0100
0000
0001
0000
,
1001
0000
0110
0000
1001
0000
0100
0010
,
1000
0000
0001
0000
1000
0000
0100
0000
0010
0000
0100
1000
0001
0000
0100
0000
,
0110
0000
1001
0000
0110
0000
0100
1000
,
0010
0000
1000
0000
0100
0000
1000
0000
0001
0000
0010
0100
1000
0000
0010
0000
,
0110
0000
1001
0000
0110
0000
0010
0001
,
1000
0001
0100
0010
1000
0001
0011
0000
,
1100
0000
1001
0000
1000
0010
0100
0001
,
0010
0000
0100
0000
0010
0000
0001
0000
1000
0000
0100
0010
0001
0000
0010
0000
,
0011
0000
1001
0000
0001
0100
0010
0100
,
1000
0000
0100
0000
0001
0000
0010
0000
0100
0000
1000
0001
0100
0000
0010
0000
,
1010
0000
1100
0000
0010
0001
1000
0001
,
0100
0000
0010
0000
0100
0000
1000
0000
0100
0000
0001
0010
0001
0000
1000
0000
,
1010
0000
0011
0000
0100
0010
0001
0010
,
1000
0000
0001
0000
0010
0000
0100
0000
0010
0000
0001
0010
0100
0000
1000
0000
,
0020
0000
0000
0000
,
0030
0000
0000
0000
;

//---------------dance-double - ----------------
#NOTES:
     dance-double:
     :
     Hard:
     12:
     0.552469,0.534094,0.630351,0.085183,0.034073,454.000000,380.000000,74.000000,10.000000,0.000000,0.000000,0.552469,0.534094,0.630351,0.085183,0.034073,454.000000,380.000000,74.000000,10.000000,0.000000,0.000000:
// measure 0
00000000
00000000
00000000
00000000
,  // measure 1
00000000
00000000
00000000
00000000
,  // measure 2
00000000
00000000
00000000
00000000
,  // measure 3
00000000
00000000
00000000
00000000
,  // measure 4
00000000
00000000
00000000
00000000
,  // measure 5
00000110
00000000
00001001
00000000
00000110
00000000
00000001
00000100
,  // measure 6
00000000
00000100
00000010
00010000
00000100
00001000
00000010
00000000
,  // measure 7
00011000
00000000
00010100
00000000
00011000
00000000
00100000
00010000
,  // measure 8
00000000
00010000
10000000
00100000
00000000
01000000
01000000
00000000
,  // measure 9
01100000
00000000
10010000
00000000
01100000
00000000
10000000
00100000
,  // measure 10
01000000
00010000
00100000
10000000
00100000
00001000
00010000
00000000
,  // measure 11
00001100
00000000
00010100
00000000
00001100
00000000
00010000
00000010
,  // measure 12
00001000
00000100
00001000
00000001
00000010
00000100
00001000
00000000
,  // measure 13
00000110
00000000
00001001
00000000
00000110
00000000
00000001
00001000
,  // measure 14
00000100
00010000
00001000
00100000
00010000
10000000
00100000
00000000
,  // measure 15
01100000
00000000
10010000
00000000
01100000
00000000
00010000
00100000
,  // measure 16
00000000
00100000
00001000
00010000
00000100
00010000
00011000
00000000
,  // measure 17
00100000
01000000
10000000
01000000
00100000
00001000
00010000
00000000
,  // measure 18
00001000
00000100
00000001
00000100
00001000
00010000
00000010
00000000
,  // measure 19
00010000
00001000
00010000
01000000
00010000
00001000
00000100
00000000
,  // measure 20
00011000
00000000
00100000
00001000
00011000
00000000
00000010
00010000
,  // measure 21
00001000
00100000
01000000
10000000
00010000
00100000
00002000
00000000
,  // measure 22
00013000
00000010
00000100
00000001
00000010
00000100
00002000
00000000
,  // measure 23
00003010
00000000
00010000
00000000
00001000
00010000
00001000
00000000
00100000
00000000
00010000
00000000
10000000
00000000
00000000
00000000
,  // measure 24
10010000
00011000
00002002
00003003
,  // measure 25
00000110
00000000
00001001
00000000
00000110
00000000
00000010
00010000
,  // measure 26
00001000
00010000
00000100
00010000
00001000
00100000
01000000
00000000
,  // measure 27
11000000
00000000
10010000
00000000
11000000
00000000
00100000
10000000
,  // measure 28
00010000
01000000
00001000
00010000
00000010
00000100
00000001
00000000
,  // measure 29
00000011
00000000
00001001
00000000
00000011
00000000
00001000
00000100
,  // measure 30
00010000
00001000
00100000
00010000
00100000
01000000
10000000
00000000
,  // measure 31
10100000
00000000
10010000
00000000
10100000
00000000
01000000
00001000
,  // measure 32
00000000
00001000
00010000
00000100
00010000
00000000
00011000
00000000
,  // measure 33
00001000
00000100
00000001
00000010
00000100
00001000
00000020
00000000
,  // measure 34
00010030
01000000
10000000
00100000
01000000
00001000
00020000
00000000
,  // measure 35
00031000
00100000
00010000
00100000
00001000
00010000
00000100
00000000
,  // measure 36
00010010
00000000
00001000
00010000
00010010
00000000
00001000
00010000
,  // measure 37
00001000
00100000
01000000
10000000
00100000
01000000
00002000
00000000
,  // measure 38
00013000
00000010
00000100
00000001
00000010
00000100
00020000
00000000
,  // measure 39
00031000
00000000
00100000
00000000
00001000
00010000
00001000
00000000
00100000
00000000
01000000
00000000
10000000
00000000
00000000
00000000
,  // measure 40
10010000
01100000
10010000
00100000
,  // measure 41
00011000
00000000
01001000
00000000
00011000
00000000
00010000
00000010
,  // measure 42
00001000
00000100
00010000
00000010
00000100
00000001
00000010
00000000
,  // measure 43
00001100
00000000
00010100
00000000
00001100
00000000
00010000
00001000
,  // measure 44
01000000
00000000
00100000
00000000
10000000
00000000
00010000
00000000
00100000
00000000
01000000
10000000
01000000
00000000
00000000
00000000
,  // measure 45
10010000
00000000
00110000
00000000
10010000
00000000
00100000
00001000
,  // measure 46
00010000
00001000
00000010
00001000
00010000
00100000
00010000
00000000
,  // measure 47
00011000
00000000
00010100
00000000
00011000
00000000
00010000
00000010
,  // measure 48
00000000
00000010
00000100
00000001
00001000
00000100
00000100
00000100
,  // measure 49
00010100
00000000
00101000
00000000
01010000
00000000
00100000
10000000
,  // measure 50
01000000
00010000
01000000
10000000
00010000
00100000
00001000
00010000
,  // measure 51
00010010
00000000
00001001
00000000
00000110
00000000
00000010
00010000
,  // measure 52
00001000
00000000
00100000
00000000
00010000
00000000
10000000
00000000
00100000
00000000
10000000
01000000
00100000
00000000
00010000
00000000
,  // measure 53
01010000
00000000
10100000
00000000
01001000
00000000
00010000
00000010
,  // measure 54
00001000
00000100
00010000
00001000
00100000
01000000
10000000
00010000
,  // measure 55
00110000
00000000
11000000
00000000
01001000
00000000
00010000
00000020
,  // measure 56
00000000
00000000
00000130
00000000
00000001
00000000
00001000
00000000
00000100
00000000
00010000
00001000
00010000
00000000
00000000
00000000
,  // measure 57
00110000
00000000
11000000
00000000
00100000
00001000
00010000
01000000
,  // measure 58
10000000
00100000
01000000
00001000
00010000
00000010
00000100
00000001
,  // measure 59
00000011
00000000
00001100
00000000
00000010
00010000
00001000
00100000
,  // measure 60
00010000
00000000
01000000
00000000
00100000
00000000
10000000
00000000
01000000
00000000
00100000
00001000
00010000
00000000
00001000
00000000
,  // measure 61
00011000
00000000
01010000
00000000
00100000
00010000
01000000
00001000
,  // measure 62
00010000
00000000
00000010
00000000
00000100
00000000
00001000
00000000
00000100
00000000
00000001
00000010
00000100
00000000
00010000
00000000
,  // measure 63
00011000
00000000
00101000
00000000
00010000
10000000
01000000
00100000
,  // measure 64
00001000
00000000
00010000
00000010
00010000
00000000
00001000
00000000
00000100
00000000
00000001
00000000
00000010
00000000
00001000
00000000
,  // measure 65
00020000
00000000
00000000
00000000
,  // measure 66
00030000
00000000
00000000
00000000
;
