#TITLE:にゃんだふる55;
#SUBTITLE:;
#ARTIST:Dormir;
#TITLETRANSLIT:Nyanderful 55;
#SUBTITLETRANSLIT:;
#ARTISTTRANSLIT:;
#GENRE:CAT JAZZ;
#CREDIT:;
#BANNER:Nyanderful_55_banner.png;
#BACKGROUND:Nyanderful_55.png;
#LYRICSPATH:;
#CDTITLE:;
#MUSIC:Nyanderful 55.ogg;
#OFFSET:-0.330000;
#SAMPLESTART:61.599998;
#SAMPLELENGTH:12.000000;
#LASTBEATHINT:411.000000;
#SELECTABLE:YES;
#BPMS:0.000000=235.000000
;
#STOPS:
;
#BGCHANGES:;
#KEYSOUNDS:;
#ATTACKS:;

//---------------dance-single - ----------------
#NOTES:
     dance-single:
     :
     Easy:
     6:
     0.240629,0.330133,0.129570,0.277649,0.004627,182.000000,168.000000,14.000000,30.000000,0.000000,0.000000,0.240629,0.330133,0.129570,0.277649,0.004627,182.000000,168.000000,14.000000,30.000000,0.000000,0.000000:
0000
0000
0000
0000
,
0000
0000
0000
0000
,
0000
0000
0000
0000
,
1000
0000
1001
0000
,
0100
0000
0000
0000
,
0010
0000
1001
0000
,
0010
0000
0000
0000
,
0001
0000
1000
0000
,
2002
0000
3003
0000
,
0100
0000
0000
0000
,
0010
0000
0010
0000
,
0100
0001
0100
0000
,
0010
0000
0010
0000
,
1000
0000
1000
0000
,
0200
0000
0300
0000
,
1000
0100
1000
0000
,
0001
0000
0010
0000
,
0200
0000
0300
0000
,
0010
0000
0000
0000
,
0001
0000
1000
0000
,
0010
0000
0000
0000
,
0100
0000
0001
0000
,
1000
0000
1000
0000
,
0001
0000
0001
0000
,
0100
0000
0010
0000
,
0220
0000
0330
0000
,
0001
0000
0000
0000
,
0001
0000
1000
0000
,
0100
0000
1000
0000
,
0010
0000
0100
0000
,
0001
0000
0000
0000
,
0001
0000
1000
0000
,
0010
0000
1000
0000
,
0200
0000
0300
0000
,
0010
0000
0100
0000
,
0010
0000
0000
0000
,
1000
0000
0001
0000
,
1000
0000
0000
0000
,
0001
0000
1000
0000
,
0100
0000
0010
0000
,
0001
0000
1000
0000
,
0001
0000
0000
0000
,
0100
0000
0100
0000
,
0100
0000
0100
0000
,
0010
0000
0010
0000
,
0020
0000
0030
0000
,
1000
0000
0001
0000
,
1000
0000
0001
0000
,
0020
0000
0000
0000
,
0030
0000
0000
0000
,
0100
0000
1000
0000
,
0001
0000
0100
0000
,
0010
0000
1000
0000
,
0001
0000
0010
0000
,
0001
0000
1000
0000
,
0100
0000
1000
0000
,
0202
0000
0000
0303
,
0000
0000
0000
0000
,
2020
0000
0000
3030
,
0000
0000
0000
0000
,
1001
0000
0010
0000
,
0100
0010
0100
0000
,
0001
0000
0010
0000
,
0200
0000
0300
0000
,
1000
0000
1000
0000
,
0001
0010
0001
0000
,
0220
0000
0000
0000
,
0330
0000
0000
0000
,
0010
0000
0100
0000
,
0001
1000
0001
0000
,
1000
0000
0010
0000
,
0200
0000
0300
0000
,
0001
0000
0010
0000
,
0001
0000
1000
0000
,
2002
0000
3003
0000
,
0220
0000
0330
0000
,
0001
0000
0001
0000
,
0100
0010
0100
0000
,
0010
0000
1000
0000
,
2200
0000
3300
0000
,
0010
0000
0010
0000
,
1000
0001
0010
0000
,
0202
0000
0000
0000
0000
0000
0000
0303
,
0000
0000
0000
0000
,
0010
0000
1000
0000
,
0100
1000
0001
0000
,
0100
0000
0010
0000
,
0202
0000
0303
0000
,
1000
0000
1000
0000
,
0001
0010
0100
0000
,
1000
0000
0010
0000
,
0100
0001
0010
0000
,
0001
0000
0010
0000
,
0100
1000
0100
0000
,
0020
0000
0030
0000
,
0220
0000
0000
0330
,
0000
0000
1000
0000
,
0010
0000
0010
0000
,
0000
0000
0001
0000
,
0010
0000
0010
0000
,
0000
0001
0000
0000
,
1000
0000
0000
0000
0000
0000
0100
0000
0000
0000
0000
0100
;

//---------------dance-single - ----------------
#NOTES:
     dance-single:
     :
     Medium:
     11:
     0.288226,0.330133,0.092550,0.370199,0.046275,218.000000,208.000000,10.000000,40.000000,0.000000,0.000000,0.288226,0.330133,0.092550,0.370199,0.046275,218.000000,208.000000,10.000000,40.000000,0.000000,0.000000:
0000
0000
0000
0000
,
0000
0000
0000
0000
,
0000
0000
0010
0000
0000
0000
0100
0000
0000
0000
0000
0000
,
0001
0000
0000
0010
0000
0000
0200
0000
0000
0000
0300
0000
,
0000
0000
1000
0000
0000
0000
0010
0000
0000
0000
0000
0000
,
1000
0000
0000
0100
0000
0000
0020
0000
0000
0000
0030
0000
,
0000
0000
0001
0000
0000
0000
1000
0000
0000
0000
0000
0000
,
0010
0000
0000
0000
0000
0000
0010
0000
0000
0000
0000
0200
,
0000
0000
0000
0000
0000
0300
0000
0000
0000
0000
0000
0000
,
0110
0000
0000
0000
,
0001
0000
0010
0001
,
0010
0000
0001
1000
,
0001
0000
1000
0000
,
0010
0000
0100
0000
,
0010
0000
1000
0100
,
1000
0000
0010
1000
,
0020
0000
0130
0000
,
2002
0000
3003
0000
,
0000
0010
0000
0001
,
0200
0000
0301
0000
,
0000
1000
0000
0010
,
2000
0000
3100
0000
,
0010
0000
0001
0000
,
1000
0001
1000
0000
,
0010
0000
0100
0000
,
0001
2000
0000
3000
,
0100
0000
0010
0001
,
0010
0000
0001
1000
,
0001
0000
1000
0000
,
0010
0100
0010
0000
,
1000
0000
0100
1000
,
0100
0000
0010
0001
,
0010
0000
0001
0000
,
2002
0000
3003
0000
,
1000
0010
0000
0010
,
0100
0010
0100
0000
,
0001
0010
0000
0010
,
0100
0010
0100
0000
,
1000
0000
0010
0000
,
0100
0010
0100
0000
,
0001
0000
0000
0010
0000
0000
0200
0000
,
0000
0000
0300
0000
,
1000
0000
1000
0000
,
0020
0000
0230
0000
,
0301
0000
0001
0000
,
0010
0000
0001
0000
,
1000
0000
0100
0000
,
1000
0000
0010
0100
,
0020
0000
0000
0000
,
0130
0000
0000
0000
,
0100
0000
0001
0000
,
0010
0001
0010
0000
,
0001
0000
1000
0000
,
0010
1000
0010
0000
,
0100
0000
0001
0000
,
0010
0100
1000
0000
,
0010
0000
0000
0000
0000
0100
0000
0000
0000
0002
0000
0000
,
0000
0000
0003
0000
,
2002
0000
3003
0000
,
0220
0000
0330
0000
,
1000
0000
1000
0100
,
1000
0000
0010
1000
,
0010
0000
0100
0000
,
0220
0000
0330
0000
,
0001
0000
0010
0001
,
0010
0000
0001
0000
,
2002
0000
0000
3003
,
0000
0000
0000
0000
,
0100
0000
0010
0000
,
0100
0001
0010
0000
,
0100
0000
1000
0000
,
0010
0100
0001
0000
,
2000
0000
0000
0000
,
3002
0000
0000
0000
,
0203
0000
0000
0000
,
0320
0000
0000
0000
,
1030
0000
0100
0000
,
1000
0010
1000
0000
,
0001
0000
0010
0001
,
0020
0000
0030
0000
,
0001
0000
0100
0010
,
0100
0000
0001
0000
,
2200
0000
3300
0000
,
0202
0000
0303
0000
,
0010
0000
0100
0000
,
0010
0100
0001
0000
,
0010
0000
0100
0000
,
1000
0010
0100
0000
,
0002
0000
0000
0000
,
2003
0000
0000
0000
,
3100
0000
0010
0000
,
0001
0000
0010
0000
,
0002
0000
0000
0000
,
2003
0000
0000
0000
0000
0000
0000
0000
0000
0000
0000
3010
,
0000
0000
0000
0000
,
0220
0000
0330
0000
,
0000
0000
1000
0000
0000
0000
0100
0000
0000
0000
0000
0000
,
1000
0010
1000
0000
,
0000
0000
0001
0000
0000
0000
0010
0000
0000
0000
0000
0000
,
0001
0100
0001
0000
,
0000
0000
0100
0000
0000
0000
0010
0000
0000
0000
0000
0000
,
1000
0000
0000
0001
0000
0000
2000
0000
0000
0000
0000
3100
;

//---------------dance-single - ----------------
#NOTES:
     dance-single:
     :
     Hard:
     14:
     0.568520,0.660265,0.388709,0.509024,0.421101,430.000000,388.000000,42.000000,55.000000,0.000000,0.000000,0.568520,0.660265,0.388709,0.509024,0.421101,430.000000,388.000000,42.000000,55.000000,0.000000,0.000000:
// measure 0
0000
0000
0000
0000
,  // measure 1
0000
0000
0000
0000
,  // measure 2
0000
0000
0011
0000
0000
0000
1010
0000
0000
0100
0000
0000
,  // measure 3
1010
0000
0000
0100
0000
0000
0001
0000
0020
0000
0000
0000
,  // measure 4
0030
0000
1001
0000
0000
0000
1100
0000
0000
0001
0000
0000
,  // measure 5
1100
0000
0000
0010
0000
0000
0100
0000
2000
0000
0000
0000
,  // measure 6
3000
0000
0110
0000
0000
0000
1001
0000
0000
0010
0000
0000
,  // measure 7
0100
0000
0000
0010
0000
0000
1000
0000
0100
0010
0000
0002
,  // measure 8
0000
0000
0000
0000
,  // measure 9
1003
2002
0000
3003
,  // measure 10
1000
0000
0000
0010
0000
0100
0000
0000
0100
0010
0000
1000
,  // measure 11
0100
0010
0001
0100
,  // measure 12
0010
1000
0010
0001
,  // measure 13
0010
0000
0000
0100
0000
0001
0000
0000
1000
0020
0000
0000
,  // measure 14
1030
0000
0000
0100
0000
0010
0000
0000
0010
0100
0000
1000
,  // measure 15
0001
0100
0010
0100
,  // measure 16
0001
0000
0000
0010
0000
0000
0100
0000
0000
1000
0000
0001
,  // measure 17
0010
0000
0000
0100
0000
2000
0000
0000
0000
3010
0000
0000
,  // measure 18
0100
0000
0000
0020
0000
0000
0130
0000
0010
0000
0000
0100
,  // measure 19
0001
0000
0000
0010
0000
0200
0000
0000
0000
1300
0000
0000
,  // measure 20
0100
0000
0000
0020
0000
0000
0130
0000
0010
0000
0000
0100
,  // measure 21
1000
0000
0000
0001
0000
0200
0000
0000
0000
0310
0000
0000
,  // measure 22
1000
0000
0000
0000
0000
0000
0100
0000
0000
0010
0000
0000
0001
0000
0000
0000
0000
0000
1000
0000
0000
0000
0010
0000
,  // measure 23
0100
0001
0010
0100
,  // measure 24
1000
0000
0000
0010
0000
0000
0100
0000
0010
0100
0000
0010
,  // measure 25
1000
0000
0000
0202
0000
0000
0000
0303
0000
0000
0000
0000
,  // measure 26
0001
0000
0000
0010
0000
0100
0000
0000
0100
0010
0000
0001
,  // measure 27
1000
0010
0100
0001
,  // measure 28
0010
0000
0000
0100
0000
0000
1000
0000
0010
0100
0000
0010
,  // measure 29
1000
0000
0000
0001
0000
0100
0000
0000
0100
0002
0000
0000
,  // measure 30
0013
0000
0000
0100
0000
1000
0000
0000
0100
1000
0000
0010
,  // measure 31
0100
0001
0010
0100
,  // measure 32
1000
0000
0000
0010
0000
0000
1000
0000
0100
0010
0000
0001
,  // measure 33
0100
0000
0000
0000
0000
0120
0000
0000
0000
1030
0000
0000
,  // measure 34
0100
0001
0100
1000
,  // measure 35
0001
0000
0000
0100
0000
2000
0000
0000
0000
3100
0000
0000
,  // measure 36
0001
0010
1000
0010
,  // measure 37
0001
0000
0000
0010
0000
2000
0000
0000
0000
3010
0000
0000
,  // measure 38
0001
0000
0000
0000
0000
0000
1000
0000
0000
0100
0000
0000
0010
0000
0000
0001
0000
0000
0000
0000
0000
0000
0100
0000
,  // measure 39
0010
0100
0001
1000
,  // measure 40
0100
0000
0000
0000
0000
1010
0000
0000
0000
0202
0000
0000
,  // measure 41
0000
0000
0303
0000
,  // measure 42
0010
0000
0000
0100
0000
0010
0100
0000
0000
0010
0000
0100
,  // measure 43
0020
0000
2030
0000
,  // measure 44
3001
0000
0000
0010
0000
0001
0010
0000
0000
0001
0000
0010
,  // measure 45
0001
1000
0100
0010
,  // measure 46
0001
0000
0000
0000
0000
0000
1000
0000
0000
0010
0000
0000
1000
0000
0000
0010
0000
0000
0000
0000
0000
0000
0100
0000
,  // measure 47
0001
0010
0100
1000
,  // measure 48
2002
0000
0000
0000
0000
3003
0000
0000
,  // measure 49
0220
0000
0000
0000
0000
0330
0000
0000
,  // measure 50
1000
0100
1000
0010
,  // measure 51
0100
0000
0000
0001
0000
0000
0010
0000
0200
0000
0000
0000
,  // measure 52
0310
0001
1000
0010
,  // measure 53
0100
0000
0000
0010
0000
0000
1000
0000
0001
0000
0000
0200
,  // measure 54
0000
0000
0000
0310
0000
0000
1000
0000
0200
0000
0000
0000
,  // measure 55
0310
0001
0100
0010
,  // measure 56
1010
0000
0000
0000
0000
0011
0000
0000
0000
0000
1010
0000
,  // measure 57
0000
0000
0202
0000
0000
0000
0000
0000
0000
0303
0000
0000
,  // measure 58
0000
0000
0000
0001
0000
0010
0100
0000
1000
0000
0000
0000
,  // measure 59
1000
0000
0010
0100
0000
0002
0000
0000
0000
0003
0000
0000
,  // measure 60
0100
0000
0000
0010
0000
0100
0010
0000
1000
0100
0000
0010
,  // measure 61
0001
1000
0010
0100
,  // measure 62
0001
0000
0000
0011
0000
0000
1000
0000
0100
0000
0000
2200
,  // measure 63
0000
0000
3300
0000
,  // measure 64
0010
0000
0001
0100
0000
0001
0010
0000
0001
0100
0000
0010
,  // measure 65
1000
0100
0010
0001
,  // measure 66
2002
0000
0000
0000
0000
3003
0000
0000
,  // measure 67
0220
0000
0330
1000
,  // measure 68
0002
0010
0023
0000
,  // measure 69
0130
1000
0010
0100
,  // measure 70
0010
0000
0000
1000
0000
0000
0100
0000
0010
0001
0000
0000
,  // measure 71
0200
0000
0000
0000
0000
0020
0000
0000
0000
0330
0000
0000
,  // measure 72
1000
0001
0010
0100
,  // measure 73
1000
0010
0100
0001
,  // measure 74
1000
0000
0000
0100
0000
0000
0010
0000
0001
0100
0000
0000
,  // measure 75
0010
0000
0200
0020
0000
0000
0000
0000
0000
0330
0000
0000
,  // measure 76
1010
0000
0000
0100
0000
0000
1010
0000
0000
0000
0000
0012
,  // measure 77
0000
0100
0103
0000
,  // measure 78
1001
0000
0000
1001
0000
0000
0010
0000
0100
0020
0000
0200
,  // measure 79
0000
0000
0000
0000
0000
0000
0000
0330
0000
0000
0000
0000
,  // measure 80
0011
0000
0000
0100
0000
0000
0011
0000
0000
0000
0000
2100
,  // measure 81
0000
0001
3001
0100
,  // measure 82
0010
0000
0000
0110
0000
0000
1000
0000
0001
0010
0000
0200
,  // measure 83
0000
0000
0000
1300
,  // measure 84
1000
0010
0100
0010
,  // measure 85
1000
0100
0001
0100
,  // measure 86
1000
0001
0010
0100
,  // measure 87
0010
1000
0010
0001
,  // measure 88
0100
0000
0000
0010
0000
0100
0010
0000
0200
0000
0000
0000
,  // measure 89
0301
0010
0100
1000
,  // measure 90
0010
1000
0100
0010
,  // measure 91
0001
0000
0000
1000
0000
0000
0010
0000
0100
0000
0000
0100
,  // measure 92
0010
1000
0100
0010
,  // measure 93
0100
0000
0000
1000
0000
0000
0001
0000
0100
0000
0000
0022
,  // measure 94
0000
0000
0000
0000
0000
0000
0000
0000
0033
0000
0000
0000
,  // measure 95
2200
0000
0000
3300
,  // measure 96
0000
0000
0011
0000
0000
0000
0110
0000
0000
0001
0000
0000
,  // measure 97
0110
0000
0000
1000
0000
0000
0001
0000
0200
0000
0000
0000
,  // measure 98
0300
0000
0011
0000
0000
0000
1001
0000
0000
0100
0000
0000
,  // measure 99
1001
0000
0000
0010
0000
0000
0100
0000
0002
0000
0000
0000
,  // measure 100
0003
0000
0110
0000
0000
0000
1001
0000
0000
0010
0000
0000
,  // measure 101
0100
0000
0000
0001
0000
0000
1000
0000
0010
0001
0000
0010
;
