#TITLE:No Rule Adventure;
#SUBTITLE:;
#ARTIST:nora2r;
#TITLETRANSLIT:;
#SUBTITLETRANSLIT:;
#ARTISTTRANSLIT:;
#GENRE:;
#CREDIT:;
#BANNER:No Rule Adventure_banner.png;
#BACKGROUND:No Rule Adventure.png;
#LYRICSPATH:;
#CDTITLE:;
#MUSIC:No Rule Adventure.ogg;
#OFFSET:-0.470000;
#SAMPLESTART:81.309998;
#SAMPLELENGTH:10.080000;
#LASTBEATHINT:338.000000;
#SELECTABLE:YES;
#DISPLAYBPM:95.000000:190.000000;
#BPMS:0.000000=190.000000
,128.000000=95.000000
,160.000000=190.000000
;
#STOPS:
;
#BGCHANGES:;
#KEYSOUNDS:;
#ATTACKS:;

//---------------dance-single - ----------------
#NOTES:
     dance-single:
     :
     Easy:
     7:
     0.280392,0.421486,0.167756,0.251634,0.000000,234.000000,214.000000,20.000000,30.000000,0.000000,0.000000,0.280392,0.421486,0.167756,0.251634,0.000000,234.000000,214.000000,20.000000,30.000000,0.000000,0.000000:
0000
0000
0000
0000
,
0000
0000
0000
0000
,
0000
0000
0000
0000
,
0000
0000
0000
0000
,
0100
0010
0100
0010
,
1000
0001
1000
0001
,
1000
0010
0100
0001
,
1001
0000
0000
0000
,
0100
0001
0000
0001
,
0010
0100
0000
0100
,
1000
0010
0000
0010
,
0100
0001
0010
0100
,
1000
0001
0000
0001
,
0100
0010
0000
0010
,
2000
0000
3002
0000
,
0013
0100
0110
0000
,
0001
0100
0001
0000
,
1000
0010
1000
0000
,
0001
0010
0100
0000
,
1000
0010
0100
0000
,
0002
0000
0013
0000
,
2000
0000
3010
0000
,
0220
0000
0000
0000
,
0330
0000
0000
0000
,
0001
0010
0001
0000
,
1000
0010
1000
0000
,
0001
0100
0001
0000
,
1000
0100
1000
0000
,
0001
0100
0001
0200
,
0310
1000
0010
2000
,
3002
0000
1003
0000
,
0110
0000
0000
0000
,
1001
0000
1000
0000
0100
1000
0010
0000
,
0100
0000
0001
0000
0010
0001
1000
0000
,
0020
0000
0130
0000
0001
0010
0100
0000
,
0010
0000
0001
0000
1000
0010
0100
0000
,
0110
2000
0000
3000
,
0001
0000
0010
0000
0001
0100
0010
0000
,
1000
0000
0100
0000
1000
0010
0100
0000
,
0001
0000
0010
0000
0001
1000
0001
0000
,
0200
0000
0300
0000
,
0020
0000
0030
0000
,
2000
0000
3000
0000
,
0002
0000
0003
0000
,
1001
0000
0010
0000
,
1000
0100
0010
0000
,
0001
0000
0100
0000
,
0001
0010
0100
0000
,
1000
0100
1000
0000
,
0001
0100
0001
0000
,
1000
0010
1000
0000
,
0001
0010
0001
0000
,
2002
0000
0000
0000
3003
0000
0000
0100
,
0000
0000
0000
0000
,
0220
0000
0330
0000
,
2002
0000
3003
0000
,
0100
0010
1000
0000
,
0100
0010
0001
0000
,
1000
0001
0100
0000
,
0010
1000
0001
0000
,
0020
0000
0031
1000
,
0200
0000
1300
0001
,
0200
0000
0310
1000
,
2002
0000
0000
0000
0000
3003
0000
0000
,
0010
0001
0100
0001
,
0010
0100
1000
0000
,
0010
1000
0100
1000
,
0010
0100
0001
0000
,
0011
0000
1000
0010
,
1010
0000
0100
0001
,
2000
0000
0000
3000
,
0020
0000
0000
0030
,
0110
0000
0000
0000
,
0000
0000
0000
0000
,
1001
0000
0010
0001
,
1000
0100
0010
0000
,
1001
0000
0010
0100
,
0001
0010
0100
0000
,
1100
0000
0010
1000
,
0100
0010
0001
0000
,
0101
0000
1010
0000
,
0100
1000
0010
0001
,
2002
0000
0000
0000
,
0000
0000
0000
3003
;

//---------------dance-single - ----------------
#NOTES:
     dance-single:
     :
     Medium:
     12:
     0.500871,0.810260,0.192919,0.377450,0.146786,418.000000,395.000000,23.000000,45.000000,0.000000,0.000000,0.500871,0.810260,0.192919,0.377450,0.146786,418.000000,395.000000,23.000000,45.000000,0.000000,0.000000:
// measure 0
0000
0000
0000
0000
,  // measure 1
0000
0000
0000
0000
,  // measure 2
0000
0000
0000
0000
,  // measure 3
0000
0000
0000
0000
,  // measure 4
0001
0010
0100
0000
1000
0100
0010
0000
,  // measure 5
0001
0100
0010
0000
1000
0010
0100
0000
,  // measure 6
0001
0010
0001
0000
0001
0010
0100
1000
,  // measure 7
0020
0000
0000
0030
,  // measure 8
1100
0000
1000
0010
0000
0010
0100
0000
,  // measure 9
0001
0000
0010
0001
0000
0001
0100
0000
,  // measure 10
0010
1000
0001
0000
0010
0001
1000
0000
,  // measure 11
0020
0230
0302
1003
,  // measure 12
1000
0100
0020
0000
0000
0031
1000
0010
,  // measure 13
0100
0000
0010
0100
0001
0000
0010
0000
,  // measure 14
0002
0000
0000
0000
0000
1003
0010
0000
,  // measure 15
0010
0100
0000
0100
0010
0000
0110
0000
,  // measure 16
1000
0100
0010
0000
0001
0100
0010
0000
,  // measure 17
1000
0001
0100
0000
0001
0010
0100
0000
,  // measure 18
1000
0100
1000
0000
0010
1000
0001
0000
,  // measure 19
0200
0320
2030
3001
,  // measure 20
0002
0000
0000
0013
0100
0000
0000
1000
,  // measure 21
0010
1000
0000
0001
0010
0000
0001
0000
,  // measure 22
2002
0000
0000
0000
0000
3003
0000
0000
,  // measure 23
0220
0000
0000
0000
0000
0330
0000
0000
,  // measure 24
0001
0001
0001
0001
,  // measure 25
0100
0100
0100
0100
,  // measure 26
0010
0010
0010
0010
,  // measure 27
1000
1000
1000
1000
,  // measure 28
0001
0000
0000
0010
0000
0000
0001
0010
0001
0010
0000
0000
,  // measure 29
0100
0000
0000
1000
0000
0000
0100
1000
0100
1000
0000
0000
,  // measure 30
1000
0010
1000
0010
0000
0000
0100
0001
0100
0001
0000
0000
,  // measure 31
0022
0000
0000
0033
,  // measure 32
1100
0000
0000
0000
1000
0000
0010
0000
0100
0000
0001
0010
0100
0000
1000
0000
,  // measure 33
0010
0000
0100
0000
0010
1000
0001
0000
0010
0001
1000
0001
0010
0000
0100
0000
,  // measure 34
2000
0000
0010
0000
3010
0100
0010
0000
1000
0000
0100
0010
0001
0000
1000
0000
,  // measure 35
0010
0000
0100
0010
1000
0000
0100
0000
0010
0001
1000
0000
0010
0000
0110
0000
,  // measure 36
0100
0000
0001
0000
0010
0001
1000
0100
0000
0000
0100
0000
0000
0110
0000
0000
,  // measure 37
0001
0000
0000
0010
0001
1000
0001
0000
0100
0000
0010
0100
0001
0000
1000
0000
,  // measure 38
0100
0000
0000
1000
0010
0000
0100
0000
0001
0010
0001
0000
0100
0000
0010
0000
,  // measure 39
1000
0000
0001
1000
0100
0000
1000
0000
0001
0010
0100
1000
0010
0000
0110
0000
,  // measure 40
2000
0000
0100
0000
,  // measure 41
3002
0000
0010
0000
,  // measure 42
0203
0000
0010
0000
,  // measure 43
0320
0000
1000
0000
,  // measure 44
1030
0000
0000
0100
1000
0000
0010
0000
,  // measure 45
0100
0001
0010
0000
0001
0000
1000
0000
,  // measure 46
0100
0010
0000
0010
0001
0000
1000
0000
,  // measure 47
0010
0100
0010
0000
1000
0100
0010
0000
,  // measure 48
0001
0000
0000
0000
0011
0000
0000
0000
1000
0000
0000
0100
0000
0000
1000
0000
,  // measure 49
0001
0000
0000
0000
1001
0000
0000
0000
0100
0000
0000
0010
0000
0000
0100
0000
,  // measure 50
0001
0000
0000
0000
0101
0000
0000
0000
0010
0000
0000
1000
0000
0000
0010
0000
,  // measure 51
1000
0000
0000
0100
0000
0000
1000
0000
0010
0000
0000
0100
0000
0000
0001
0000
,  // measure 52
0020
0000
0130
0000
0100
1000
0001
0200
,  // measure 53
0000
0000
0000
0300
,  // measure 54
0220
0000
0000
0330
,  // measure 55
2002
0000
0000
3003
,  // measure 56
0001
0100
0010
0000
1000
0100
0010
0000
,  // measure 57
0001
1000
0100
0000
1000
0001
0010
0000
,  // measure 58
0002
0000
0000
0000
0103
0000
0010
0000
1000
0000
0000
0100
0000
0000
0010
0000
,  // measure 59
0001
0000
1001
0000
0100
0010
1000
0000
,  // measure 60
0100
1000
0002
0000
0000
0103
0010
0000
,  // measure 61
0010
1000
0100
0000
0100
1000
0001
0000
,  // measure 62
0200
0000
0310
1000
0100
0010
0001
0000
,  // measure 63
0001
0100
1000
0100
0001
0000
1001
0000
,  // measure 64
1000
0010
0100
0010
0000
0010
1000
0000
,  // measure 65
0001
0010
0100
0010
0000
0010
0001
0000
,  // measure 66
0100
0000
0000
0001
0000
0000
0200
0000
0000
0000
0000
0000
0310
0000
0000
0000
,  // measure 67
1000
0000
0000
0100
0000
0000
0020
0000
0000
0000
0000
0000
0031
0000
0000
0000
,  // measure 68
2000
0000
3020
0000
0130
0001
1000
0100
,  // measure 69
0020
0000
0032
0000
0103
0010
1000
0001
,  // measure 70
2000
0000
0000
3000
,  // measure 71
1001
0000
0000
0010
0000
0000
0100
0000
,  // measure 72
2002
0000
0000
3003
,  // measure 73
0220
0000
0000
0330
,  // measure 74
1100
0000
0000
0000
0001
0100
0010
0000
,  // measure 75
0100
0010
1000
0000
0100
0010
0001
0010
,  // measure 76
0200
0000
1300
0000
1000
0010
1000
0000
,  // measure 77
0001
0100
0010
0100
0001
0000
0011
0000
,  // measure 78
0200
0000
0000
0000
0301
1000
0100
1000
,  // measure 79
0001
0000
0010
0001
1000
0001
0010
0000
,  // measure 80
0100
1000
0100
1000
0010
0100
0010
0100
,  // measure 81
0001
0010
0100
1000
0001
0000
1001
0000
,  // measure 82
0220
0000
0000
0000
,  // measure 83
0000
0000
0000
0000
,  // measure 84
0330
0000
0000
0000
;

//---------------dance-single - ----------------
#NOTES:
     dance-single:
     :
     Hard:
     16:
     0.810020,1.373919,0.402614,0.478104,0.750707,676.000000,628.000000,48.000000,57.000000,0.000000,0.000000,0.810020,1.373919,0.402614,0.478104,0.750707,676.000000,628.000000,48.000000,57.000000,0.000000,0.000000:
// measure 0
0000
0000
0000
0000
,  // measure 1
0000
0000
0000
0000
,  // measure 2
0000
0000
0000
0000
,  // measure 3
0000
0000
0000
0000
,  // measure 4
1000
0000
0001
0000
0010
0001
0010
0000
0100
0000
1000
0000
0010
0100
0010
0000
,  // measure 5
1000
0000
0001
0000
0010
0001
0010
0000
0100
0000
1000
0000
0010
0100
0010
0000
,  // measure 6
1000
0000
0100
1000
0010
0000
0100
0010
1000
0001
0010
0100
1000
0100
0010
0001
,  // measure 7
0200
0000
0000
0000
0000
0000
0000
0000
0300
0000
0010
0100
0010
0000
0000
0000
,  // measure 8
0010
0000
0100
0000
0001
0000
0010
0001
0000
1000
0100
0000
1000
0000
0010
0000
,  // measure 9
0100
0000
0010
0000
1000
0000
0010
0100
0000
0001
0010
0000
0100
0000
1000
0000
,  // measure 10
0020
0000
0000
0000
1030
0000
0100
0010
0001
0000
0100
0000
0010
0000
1000
0000
,  // measure 11
0100
0001
0100
1000
0001
1000
0200
0000
,  // measure 12
0310
0000
0001
0000
1000
0000
0010
0100
0000
0001
0010
0000
0001
0000
1000
0100
,  // measure 13
1000
0010
1010
0000
0100
0001
0011
0000
,  // measure 14
1100
0000
0000
0000
0001
0000
0100
0010
1000
0000
0100
0000
0010
0000
0001
0000
,  // measure 15
1000
0010
0100
0010
1000
0000
0001
0010
0100
0010
0001
0000
1001
0000
0000
0000
,  // measure 16
0100
0000
0001
0000
1000
0000
0100
0010
0000
0010
0100
0000
1000
0000
0010
0000
,  // measure 17
0100
0000
0001
0000
0010
0000
0100
0010
0000
0010
0100
0000
1000
0000
0001
0000
,  // measure 18
0100
1000
0100
0001
0010
1000
0001
0100
,  // measure 19
2000
0000
0010
0000
3010
0000
0100
0000
0001
0000
0010
0100
1000
0000
0000
0000
,  // measure 20
1001
0000
0000
0000
0000
0000
0010
0100
0001
0000
0000
0000
0000
0000
0110
0000
,  // measure 21
0000
0000
1010
0000
0000
0000
0100
0001
0010
0000
0100
0000
1000
0000
0000
0000
,  // measure 22
2002
0000
0000
3003
,  // measure 23
0100
0001
0010
0001
0100
0000
0010
1000
0100
1000
0010
0000
0200
0000
0000
0000
,  // measure 24
0302
0010
0100
1000
,  // measure 25
0203
1000
0010
0001
,  // measure 26
0320
0001
1000
0100
,  // measure 27
2030
0100
0001
0010
,  // measure 28
3010
0100
0001
0010
0100
1000
0010
1000
0100
0020
0000
0000
,  // measure 29
0031
0100
0010
1000
0100
0010
0001
0010
0100
2000
0000
0000
,  // measure 30
3001
0100
1000
0100
0001
1000
0100
0001
0100
2000
0000
0000
,  // measure 31
3020
0030
0200
0300
0020
0030
0200
0300
0020
0030
0100
0000
0110
0000
0000
0000
,  // measure 32
1001
0000
0000
0000
0010
0000
0001
0000
1000
0000
0010
0100
0010
0000
1000
0000
0001
0000
0010
0000
1000
0000
0010
0000
0001
0000
0100
0010
1000
0000
0001
0000
,  // measure 33
1001
0000
0000
0000
0100
0010
0100
0010
0100
0000
0001
0010
0100
0000
1000
0000
0010
0000
0100
0000
0020
0000
1030
0000
0002
0000
0013
0000
1001
0000
0000
0000
,  // measure 34
1100
0000
0000
0000
0010
0000
0100
0000
0001
0000
0010
0100
1000
0000
0010
0000
0100
0000
0001
0000
1000
0000
1000
0000
0010
0000
0100
0001
0010
0000
0000
0000
,  // measure 35
0002
0000
0000
0003
0010
0100
1000
0100
0010
0000
0001
1000
0100
0000
1000
0000
0010
0000
0100
0000
0101
0000
0000
0000
0010
0000
0100
0000
1100
0000
0000
0000
,  // measure 36
0110
0000
0000
0000
1000
0000
0100
0000
1000
0000
0010
0100
0001
0000
0020
0000
0030
0000
0000
0000
0202
0000
0303
0000
0000
0000
2020
0000
3030
0000
0000
0000
,  // measure 37
2200
0000
3300
0000
0000
0000
0010
0000
1001
0000
0001
0000
0010
0000
0100
0000
1000
0000
0100
0000
0001
0000
0100
0000
1000
0000
0010
0100
0001
0000
0000
0000
,  // measure 38
0011
0000
0000
0000
1000
0000
0010
0100
0010
0000
1000
0000
0100
0010
0100
0010
0001
0000
0100
0000
0010
0000
0010
0000
1000
0100
0010
0100
1000
0000
0000
0000
,  // measure 39
0101
0000
0000
0000
0010
0000
0100
0000
0001
0000
0010
0100
1000
0000
0010
0000
0200
0000
0000
0000
0000
0000
0000
0000
0000
0000
0000
0000
0310
0000
0000
0000
,  // measure 40
0110
0000
0000
1000
0000
0000
0100
0000
0010
0001
0010
0000
0001
0000
0100
0000
,  // measure 41
0010
0000
0000
0001
0000
0000
0010
0000
1000
0000
0100
0000
1000
0010
1000
0000
,  // measure 42
0001
0000
0000
0100
0000
0000
1000
0000
0100
0000
0010
1000
0100
0000
0010
0000
,  // measure 43
0001
0000
0000
0010
0000
0000
1000
0000
0010
0000
0000
0001
0000
0000
0100
0000
,  // measure 44
0001
0000
0010
0000
0100
0000
1000
0000
0000
0000
0010
0100
0001
0000
0010
0000
,  // measure 45
0100
1000
0002
0000
0000
0000
0000
0000
1003
0000
0000
0000
0100
0010
0100
0000
,  // measure 46
1000
0000
0000
0010
0000
0000
0001
0000
0010
0000
0000
1000
0000
0000
0001
0000
,  // measure 47
0010
0000
0000
0100
0000
0000
1000
0000
0001
0000
0100
0000
1000
0000
0100
0000
,  // measure 48
0001
0000
0010
0000
0110
0000
0000
0000
1100
0000
0000
0101
0000
0000
0010
0000
,  // measure 49
1000
0000
0001
0000
1100
0000
0000
0000
0110
0000
0000
0011
0000
0000
0100
0000
,  // measure 50
0010
0000
1000
0000
1100
0000
0000
0000
0101
0000
0000
0110
0000
0000
0001
0000
,  // measure 51
1100
0000
0000
1010
0000
0000
0101
0000
0011
0000
0000
0110
0000
0000
1100
0000
,  // measure 52
0001
1000
0010
0100
0000
0100
0010
2002
,  // measure 53
0000
0000
0000
3003
,  // measure 54
0100
0020
2000
0000
0000
0000
0000
0000
0000
0000
0000
0000
3030
0000
0000
0000
,  // measure 55
0001
0020
0200
0000
0000
0000
0000
0000
0000
0000
0000
0000
0330
0000
0000
0000
,  // measure 56
1000
0000
0001
0000
0010
0000
0001
0100
0000
0010
1000
0000
0100
0010
0001
0000
,  // measure 57
1000
0000
0010
0000
0100
0000
0010
1000
0000
0100
0010
0000
0001
1000
0100
0000
,  // measure 58
2000
0000
0000
0000
3010
0000
0100
0001
0010
0000
0100
0000
1000
0000
0100
0000
,  // measure 59
0010
0001
1000
0010
0001
0010
2000
0000
,  // measure 60
3001
0000
0010
0000
0100
1000
0000
0001
0100
0000
0010
0000
1000
0000
0100
0010
,  // measure 61
0002
0100
2003
0100
,  // measure 62
3001
0100
1000
0100
0001
1000
0010
0001
,  // measure 63
0010
1000
0100
0010
0001
0000
1000
0001
0010
0100
1000
0000
0020
0000
0000
0000
,  // measure 64
0130
0000
0001
0000
0010
0000
0100
0010
0000
0010
0100
0000
1000
0010
0100
0000
,  // measure 65
0001
0000
1000
0000
0100
0000
0010
0100
0000
0100
0010
0000
0001
1000
0010
0000
,  // measure 66
0100
0001
0010
0100
0000
0100
0010
0001
,  // measure 67
1000
0000
0010
0100
0000
0001
0020
0000
0000
0000
0130
1000
0001
0000
0100
0000
,  // measure 68
0220
0000
0000
0330
0000
1000
0001
0010
,  // measure 69
0001
0000
0100
0000
0010
0000
1000
0001
0010
0000
0100
0000
1000
0000
0000
0000
,  // measure 70
2002
0003
0010
3000
,  // measure 71
0021
0000
0000
1000
0000
0000
0031
0000
,  // measure 72
2200
0000
0000
3000
,  // measure 73
0002
0000
0000
0000
0000
0000
0003
0000
0300
0000
0001
1000
0100
0000
0000
0000
,  // measure 74
2020
0000
0000
0000
3030
0000
0000
0000
0100
0010
1000
0000
0100
1000
0010
0000
,  // measure 75
0100
0000
0010
0000
1000
0000
0010
0100
0010
0000
1000
0000
0001
0000
0000
0000
,  // measure 76
0011
0000
0000
0000
0001
0100
0010
0100
0001
0000
0000
0000
0010
0000
0001
0100
,  // measure 77
0010
0000
0100
0000
0001
0010
0001
0010
0001
0000
0100
0000
0110
0000
0000
0000
,  // measure 78
0202
0000
0000
0000
0303
0000
0000
0000
1000
0100
0010
0000
0100
0010
0001
0000
,  // measure 79
0010
0000
0100
0000
0010
0100
1000
0001
0100
0000
0010
0000
0001
0000
0010
0000
,  // measure 80
0100
0000
0010
0100
0010
0000
0100
0000
0010
0100
0010
0100
0010
0000
0000
0000
,  // measure 81
1000
0010
0100
0001
0010
0000
0100
1000
0010
0100
0001
0000
0010
0000
0000
0000
,  // measure 82
2002
0000
0000
0000
,  // measure 83
0000
0000
0000
0000
,  // measure 84
3003
0000
0000
0000
;
