#TITLE:No One Can Reach The Truth;
#SUBTITLE:;
#ARTIST:BEMANI Sound Team "TAG";
#TITLETRANSLIT:;
#SUBTITLETRANSLIT:;
#ARTISTTRANSLIT:;
#GENRE:;
#CREDIT:;
#BANNER:No_One_Can_Reach_The_Truth_banner.png;
#BACKGROUND:No_One_Can_Reach_The_Truth.png;
#LYRICSPATH:;
#CDTITLE:;
#MUSIC:No One Can Reach The Truth.ogg;
#OFFSET:-1.250000;
#SAMPLESTART:50.790001;
#SAMPLELENGTH:12.400000;
#SELECTABLE:YES;
#BPMS:0.000000=155.000000
;
#STOPS:
;
#BGCHANGES:;
#KEYSOUNDS:;
#ATTACKS:;

//---------------dance-single - ----------------
#NOTES:
     dance-single:
     :
     Easy:
     6:
     0.232761,0.278474,0.133166,0.117500,0.000000,208.000000,191.000000,17.000000,15.000000,0.000000,0.000000,0.232761,0.278474,0.133166,0.117500,0.000000,208.000000,191.000000,17.000000,15.000000,0.000000,0.000000:
0000
0000
0000
0000
,
0000
0000
0000
0000
,
0000
0000
0000
0000
,
0000
0000
0000
0000
,
0100
0000
0010
0000
,
1000
0000
0001
0000
,
2002
0000
0000
0000
0000
3003
0000
0000
,
0110
0000
0100
0000
,
0001
0000
0010
0001
,
1000
0000
0100
1000
,
0010
0000
0010
0000
,
0020
0000
0130
0001
,
1000
0100
1000
0000
,
0001
0100
0001
0000
,
0100
0000
0010
0000
,
0110
0000
1001
0000
,
1000
0010
0100
0000
,
0010
1000
0001
0000
,
0010
0001
1000
0000
,
1000
0010
0100
0000
,
0010
0000
0100
0000
,
0001
0000
1000
0000
,
0100
0010
0001
0000
,
1010
0000
0001
0000
,
0100
0001
1000
0000
,
0010
1000
0100
0000
,
0010
0001
0010
0000
,
0100
1000
0100
0000
,
1000
0000
0010
0100
,
0001
0000
0010
0100
,
1000
0001
0100
0000
,
1001
0000
0010
0000
,
0200
0000
0301
0010
,
0002
0000
1003
0100
,
0010
0000
0100
1000
,
0001
0000
0110
0000
,
0100
0000
1000
0001
,
0010
0000
0001
1000
,
1100
0000
0101
0000
,
0220
0000
0000
0330
0000
0000
0000
0000
,
1000
0001
0010
0000
,
0001
0010
0100
0000
,
1000
0100
1000
0000
,
0001
0000
0011
0000
,
1000
0010
0100
0000
,
0001
0010
0100
0000
,
0010
0000
1000
0000
0100
0000
1000
0001
,
0000
0000
0000
0000
,
0020
0000
0000
0000
0000
0030
0000
0000
,
0200
0000
0000
0000
0000
0300
0000
0000
,
2000
0000
0000
0000
0000
3000
0000
0000
,
0002
0000
0000
0000
0000
0003
0000
0000
,
0010
0000
0001
0000
,
1000
0000
0100
0000
,
1000
0000
0010
0000
,
0100
0000
0001
0000
,
1001
0000
0010
0001
,
0100
0000
0010
1000
,
0100
0000
1000
0001
,
0010
0000
0001
1000
,
0100
0000
1000
0000
,
0010
0000
0100
0000
,
0001
0000
1001
0000
,
0220
0000
0000
0330
0000
0000
0000
0000
,
0010
1000
0100
0000
,
0010
0001
0100
0000
,
0001
1000
0010
0000
,
0100
0000
0101
0000
,
1000
0010
1000
0000
,
0001
0010
0001
0000
,
0100
0010
0100
0010
,
0220
0000
0000
0000
0000
0330
0000
0000
,
0001
1000
0100
0000
,
1000
0010
0100
0000
,
0001
0000
0010
0100
,
1000
0100
1000
0100
,
0010
0001
0010
0001
,
1000
0001
1000
0001
,
0100
0000
0010
0000
,
0110
0000
0000
0000
;

//---------------dance-single - ----------------
#NOTES:
     dance-single:
     :
     Medium:
     10:
     0.397261,0.463389,0.180166,0.266332,0.094000,355.000000,332.000000,23.000000,34.000000,0.000000,0.000000,0.397261,0.463389,0.180166,0.266332,0.094000,355.000000,332.000000,23.000000,34.000000,0.000000,0.000000:
0000
0000
0000
0000
,
0000
0000
0000
0000
,
0000
0000
0000
0000
,
0000
0000
0000
0000
,
0002
0103
2000
3100
,
0002
0013
2000
3010
,
0100
0000
0010
0000
1000
0001
1000
0000
,
0001
0010
0100
0000
1000
0000
1001
0000
,
0002
0010
1003
0010
,
2000
0000
0010
0000
3001
0000
0100
0010
,
0000
1000
0100
0000
1000
0000
0001
0000
,
0010
0000
0001
0000
1000
0010
0100
0010
,
0000
1000
0001
0000
0010
0001
1000
0000
,
0010
0000
1000
0000
0001
0100
0010
0000
,
0100
0000
0001
1000
0001
0000
0010
0000
,
0001
1000
0100
1000
0001
0000
0010
0000
,
0000
0000
0001
0000
0100
0000
0010
0000
1000
0000
0000
0010
0000
0000
0200
0000
,
0000
0000
0300
0000
0001
1000
0001
0000
,
0100
0000
0000
0010
0000
0000
0100
0000
0002
0000
0000
0000
0000
0000
0000
0000
,
0000
0000
0003
0000
1000
0000
0010
0100
,
0010
0000
1000
0100
1000
0000
0001
0000
,
0100
0000
0001
0010
0001
0000
0100
0000
,
0010
0000
0000
1000
0000
0000
0010
0000
0100
0000
0000
0000
0001
0000
0000
0000
,
1000
0000
0000
0100
0000
0000
0010
0000
0100
0000
0000
0000
1000
0000
0000
0000
,
0000
0000
0010
0000
1000
0000
0001
0000
1000
0000
0000
0010
0000
0000
0200
0000
,
0000
0000
0300
0000
0001
0010
0001
0000
,
1000
0000
0000
0010
0000
0000
0100
0000
0020
0000
0000
0000
0000
0000
0000
0000
,
1000
0000
0000
0000
0130
0000
1000
0001
,
0010
0000
0001
1000
0100
0000
1000
0000
,
0010
0000
1000
0001
0100
0000
0010
0000
,
0100
0000
0000
0001
0000
0000
0100
0000
0010
0000
0000
0000
1000
0000
0000
0000
,
0100
0000
0000
1000
0000
0000
0001
0000
0010
0000
0000
0000
0000
0000
0000
0000
,
0011
0000
0000
0001
0000
1000
0100
0000
,
1000
0000
0010
0100
0000
0101
0000
0000
,
1000
0000
0000
0010
0000
0100
0010
0100
,
0001
0000
0010
0001
0000
1000
0010
0000
,
0200
0000
0000
0301
0000
1000
0001
0100
,
0010
1000
0001
1001
,
2020
3030
0202
0303
,
2002
0000
0000
0000
3003
0000
0000
0000
1000
0000
0000
0100
0000
0000
0010
0000
,
0001
0000
0000
1000
0000
0000
0001
0000
0100
0000
0000
0000
0010
0000
0000
0000
,
1000
0000
0000
0001
0000
0000
0100
0000
0010
0000
0000
0000
1000
0000
0000
0000
,
0100
0000
0000
1000
0000
0000
0001
0000
0010
0000
0000
0000
0001
0000
0000
0000
,
1001
0000
1010
0000
,
0010
0000
0000
0100
0000
0000
0001
0000
2000
0000
0000
0000
3000
0000
0000
0000
,
0001
0000
0000
0010
0000
0000
0100
0000
2000
0000
0000
0000
3000
0000
0000
0000
,
0010
0000
0000
1000
0000
0000
0010
0000
0100
0000
0000
0000
0001
0000
2000
0000
,
0000
0000
0000
3001
,
0002
0000
0000
0000
,
0023
0000
0000
0000
,
0230
0000
0000
0000
,
2300
0000
0000
3000
,
0010
1000
0010
0100
0000
0001
0100
0000
,
0001
0010
0001
1000
0000
0010
0100
0000
,
0010
1000
0010
0100
0000
0001
1000
0000
,
0100
1000
0001
0010
0001
0000
1000
0000
,
0010
0000
0000
0110
0000
0100
0001
0000
,
1000
0000
0010
1000
0000
1001
0000
0000
,
0001
0000
0000
0101
0000
0100
0010
0000
,
1000
0000
0001
0100
0000
0010
1000
0000
,
0100
0000
0000
1100
0000
1000
0001
0000
,
0010
1001
0100
1001
,
2020
3030
0202
0303
,
0011
0000
0000
0000
0001
0000
0000
0000
1000
0000
0000
0100
0000
0000
1000
0000
,
0010
0000
0000
0100
0000
0000
0001
0000
1000
0000
0000
0000
0001
0000
0000
0000
,
0010
0000
0000
0001
0000
0000
1000
0000
0100
0000
0000
0000
1000
0000
0000
0000
,
0010
0000
0000
0100
0000
0000
0001
0000
0100
0000
0000
0000
0010
0000
0000
0000
,
2020
3030
0022
0033
,
1000
0000
0000
0100
0000
0000
1000
0000
0010
0000
0000
0000
0110
0000
0000
0000
,
0100
0000
0000
0001
0000
0000
0010
0000
0100
0000
0000
0000
0110
0000
0000
0000
,
0010
0000
0000
0001
0000
0000
1000
0000
0100
0000
0000
0000
1000
0000
0000
0000
,
1001
0000
0000
0020
0000
0000
0000
0130
,
0001
1000
0001
0100
0000
0010
0100
0000
,
0010
0000
1000
0000
0100
1000
0001
0000
,
1000
0100
0010
0002
0000
0000
0003
0000
,
1000
0010
1000
0010
0100
0001
0100
0000
,
0001
0010
0001
0010
0100
1000
0100
0000
,
1000
0100
0001
0100
1000
0100
0001
0000
,
0100
0000
0000
0010
0000
0000
0100
0000
0000
0010
0000
0000
0100
0000
1000
0000
;

//---------------dance-single - ----------------
#NOTES:
     dance-single:
     :
     Hard:
     15:
     0.710593,0.864993,0.289832,0.219333,0.383832,635.000000,598.000000,37.000000,28.000000,0.000000,0.000000,0.710593,0.864993,0.289832,0.219333,0.383832,635.000000,598.000000,37.000000,28.000000,0.000000,0.000000:
// measure 0
0000
0000
0000
0000
,  // measure 1
0000
0000
0000
0000
,  // measure 2
0000
0000
0000
0000
,  // measure 3
0000
0000
0000
0000
,  // measure 4
0001
0000
1000
0000
0100
0010
0100
0000
1000
0000
0001
0000
0100
0010
0100
0000
,  // measure 5
0001
0000
1000
0000
0010
0100
0010
0000
1000
0000
0001
0000
0010
0100
0010
0000
,  // measure 6
0001
0100
0001
0100
0001
0000
0010
0000
0100
1000
0100
1000
0100
0000
0010
0000
,  // measure 7
0001
0100
0001
0000
1000
0010
1000
0000
0001
0010
0000
0100
1000
0000
0010
0000
,  // measure 8
0200
0001
0001
0000
0310
1000
0010
0100
,  // measure 9
0002
0010
0010
0003
1000
0010
0200
1000
,  // measure 10
0000
0001
0001
0000
1000
0000
0301
0010
,  // measure 11
0001
1000
0100
0010
0100
1000
0001
0020
,  // measure 12
0000
0100
0130
1000
0001
0100
0000
0110
,  // measure 13
0000
0001
1000
0100
0010
0001
0100
0010
,  // measure 14
1000
0001
0010
0001
0001
1000
0010
0100
,  // measure 15
0001
0000
1000
0100
0000
0000
1000
0100
0010
0000
0000
0000
0011
0000
0000
0000
,  // measure 16
1000
0000
0100
0000
0001
0000
1000
0000
0010
0000
0001
0100
0000
0000
0010
0000
,  // measure 17
1000
0010
0001
0010
1000
0001
0010
0100
,  // measure 18
1000
0000
0010
1000
0000
0000
0001
0000
0001
0000
0100
0000
0010
0000
1000
0000
,  // measure 19
0001
0100
1000
0100
0010
1000
0100
0001
,  // measure 20
0200
0000
0000
0000
1300
0000
0010
0100
0010
0000
1000
0000
0100
0000
0010
0001
,  // measure 21
0020
0000
0000
0000
0031
0000
1000
0100
1000
0000
0010
0000
0100
0000
0001
0000
,  // measure 22
0010
0000
0100
1000
0000
0000
1001
0000
0001
0000
0100
0010
0000
0000
1010
0000
,  // measure 23
1000
0000
0001
0100
0000
0000
0010
0000
1000
0000
0001
0010
0100
0000
1000
0000
,  // measure 24
0001
0000
0010
0000
1000
0000
0001
0000
0100
0000
1000
0010
0000
0000
0100
0000
,  // measure 25
0001
0100
1000
0100
0001
1000
0100
0010
,  // measure 26
0001
0000
0100
0001
0000
0000
1000
0000
1000
0000
0010
0000
0100
0000
0001
0000
,  // measure 27
1000
0010
0001
0010
0100
0001
0010
1000
,  // measure 28
0020
0000
0000
0000
0031
0000
0100
0010
0100
0000
0001
0000
0010
0000
0100
1000
,  // measure 29
0200
0000
0000
0000
1300
0000
0001
0010
0001
0000
0100
0000
0010
0000
1000
0000
,  // measure 30
0100
0000
0010
0001
0000
0000
1001
0000
1000
0000
0010
0100
0000
0000
0101
0000
,  // measure 31
0001
0000
1000
0010
0000
0000
1000
0001
0010
0000
0100
0000
1000
0000
0001
0000
,  // measure 32
2001
0000
3010
0100
0000
0100
0001
0010
,  // measure 33
0001
0100
1000
0010
0000
0110
0000
1000
,  // measure 34
0100
1000
0100
0002
0000
0103
1000
0010
,  // measure 35
0100
0000
0001
0000
0010
0000
0110
0000
0000
0000
1000
0001
1000
0000
0010
0000
,  // measure 36
0100
0001
0010
0200
0000
1300
0010
0100
,  // measure 37
0001
0010
0101
0000
0100
0010
1100
0000
,  // measure 38
1001
0000
0000
0000
0010
0000
0100
0001
1000
0000
0000
0000
0100
0000
0010
0100
,  // measure 39
1000
0000
0000
0000
0101
0000
0000
0000
0010
1000
0000
0001
0100
0000
0010
0000
,  // measure 40
1000
0000
0100
0010
0000
0010
0100
0000
2000
0000
0001
0000
3001
0000
0100
0000
,  // measure 41
0010
0000
1000
0100
0000
0100
1000
0000
0020
0000
0100
0000
0130
0000
0001
0000
,  // measure 42
0010
0000
0100
1000
0000
1000
0001
0000
0100
0000
0010
0000
0110
0000
0000
0000
,  // measure 43
1001
0000
0000
0000
0010
0000
0100
1000
0001
0000
0100
0000
0010
0000
1000
0000
,  // measure 44
0001
0000
0010
0100
0000
0100
0010
0000
0001
0000
1000
0010
0100
0000
0010
0000
,  // measure 45
1000
0000
0100
0010
0000
0010
0100
0000
1000
0000
0001
0100
0010
0000
0100
0000
,  // measure 46
0010
0000
1000
0001
0000
1000
0001
0000
0010
0000
0100
0000
1000
0000
1001
0000
,  // measure 47
0000
0000
0010
0000
0000
0010
0000
0100
0010
0000
0100
0000
0110
0000
0000
0000
,  // measure 48
1000
0100
0001
0200
0000
0010
0310
0001
,  // measure 49
0001
0100
1000
0200
0000
0010
0310
1000
,  // measure 50
1000
0010
0001
0020
0000
0100
0130
0001
,  // measure 51
0001
0010
1000
0010
0100
0001
0100
1000
,  // measure 52
0010
0100
1000
0200
0000
0001
0301
0010
,  // measure 53
0100
0010
1000
0020
0000
0001
0031
0100
,  // measure 54
1000
0100
0010
0200
0000
1000
1300
0100
,  // measure 55
0001
0010
0000
0100
1000
0000
0010
0000
1000
0001
1000
0000
0010
0000
0100
0000
,  // measure 56
0101
0000
1000
0010
0000
0010
1000
0100
,  // measure 57
0010
0100
1000
0010
0000
0101
0000
0011
,  // measure 58
0001
1000
0010
0002
0000
0013
0100
0001
,  // measure 59
1000
0000
0100
0000
0010
0000
0200
0000
0000
0000
1300
0001
1000
0000
0010
0000
,  // measure 60
0110
0000
1000
0001
0000
0010
0100
1000
,  // measure 61
1100
0101
0110
0011
,  // measure 62
1001
0000
0000
0000
0000
0000
0001
0010
1000
0000
0000
0000
0000
0000
1000
0010
,  // measure 63
0001
0000
0000
0000
1001
0000
0000
0000
0100
0001
0000
1000
0010
0000
0100
0000
,  // measure 64
0001
0000
0100
0010
0000
0010
1000
0000
0200
0000
0010
0000
0310
0000
1000
0000
,  // measure 65
0010
0000
0001
0100
0000
0100
1000
0000
0200
0000
0001
0000
0301
0000
0010
0000
,  // measure 66
0100
0000
1000
0001
0000
0001
1000
0000
0010
0000
1000
0000
1100
0000
0000
0000
,  // measure 67
0011
0000
0000
0000
0100
0000
0001
1000
0010
0000
0100
0000
1000
0000
0001
0000
,  // measure 68
0010
0000
1000
0010
0000
0010
0100
0000
0002
0000
1000
0000
1003
0000
0100
0000
,  // measure 69
0010
0000
1000
0010
0000
0001
0010
0000
0200
0000
1000
0000
1300
0000
0010
0000
,  // measure 70
0100
0000
0001
1000
0000
0010
0100
0000
0001
0000
0010
0000
1100
0000
0000
0000
,  // measure 71
0101
0000
0000
0000
0100
0000
0020
0000
0000
0000
0100
0000
0130
0000
0001
1000
,  // measure 72
0100
1000
0010
0200
0000
0301
0010
0100
,  // measure 73
1000
0000
0010
0100
0010
0000
1000
0000
0001
0010
0001
0000
0100
0000
0010
0000
,  // measure 74
1000
0100
0001
0200
0000
1000
1300
0001
,  // measure 75
1000
0010
0000
0100
0001
0000
0010
0001
0010
0100
0000
1000
0001
0000
0100
0010
,  // measure 76
0100
0001
0000
0010
0001
0000
1000
0100
1000
0010
0000
0100
0010
1000
0001
0000
,  // measure 77
0010
0100
1000
0100
0010
0100
1000
0100
0010
0100
0010
0001
0010
0000
0000
0000
,  // measure 78
0011
0000
0000
1100
0000
0000
1010
0000
0000
0101
0000
0000
0110
0000
1001
0000
;

//---------------dance-double - ----------------
#NOTES:
     dance-double:
     :
     Hard:
     15:
     0.685974,0.803208,0.219333,0.258499,0.360332,613.000000,585.000000,28.000000,33.000000,0.000000,0.000000,0.685974,0.803208,0.219333,0.258499,0.360332,613.000000,585.000000,28.000000,33.000000,0.000000,0.000000:
00000000
00000000
00000000
00000000
,
00000000
00000000
00000000
00000000
,
00000000
00000000
00000000
00000000
,
00000000
00000000
00000000
00000000
,
01000000
00000000
10000000
00000000
00010000
00100000
00010000
00000000
01000000
00000000
00001000
00000000
00010000
00000100
00010000
00000000
,
00000010
00000000
00001000
00000000
00000001
00000010
00000001
00000000
00000100
00000000
00000010
00000000
00010000
00001000
00010000
00000000
,
00000010
00000100
00000010
00000100
00000010
00000000
00001000
00000000
00000100
00010000
00000100
00010000
00000100
00000000
00001000
00000000
,
00100000
00000000
00010000
00000000
10000000
00000000
00100000
00000000
01000000
00001000
00000000
00010000
00000100
00000000
00001000
00000000
,
00000200
00010000
00010000
00000000
00100300
00001000
01000000
00010000
,
10000000
00100000
10000000
00010000
00100000
00001000
00010000
00000020
,
00000000
00000100
00000100
00000030
00001000
00000100
00001000
00000001
,
00000000
00000010
00000001
00010000
00000010
00001000
00000100
00010000
,
00000000
00011000
00001000
00100000
00010000
01000000
10000000
01000000
,
00000000
00100000
10000000
00010000
01000000
00001000
00010000
00000000
,
00010010
00000000
00001000
00000100
00010000
00000010
00000100
00000001
,
00000010
00000000
00000001
00001000
00000000
00000000
00000010
00000100
00000010
00000000
00000000
00000000
00010100
00000000
00000000
00000000
,
00001000
00000000
01000000
00000000
10000000
00000000
00100000
00000000
01000000
00000000
00010000
00100000
00000000
00000000
00001000
00000000
,
01000000
00010000
00100000
00001000
00010000
00000010
00000100
00001000
,
00000100
00000000
00000001
00000010
00000000
00000000
00000001
00000000
00000002
00000000
00000000
00000000
00000013
00000000
00000100
00000000
,
00002000
00000000
00003010
00010000
00000100
00010000
01000000
00010000
,
00002000
00000000
00000000
00000000
00103000
00000000
00010000
01000000
00010000
00000000
00100000
00000000
01000000
00000000
10000000
00010000
,
20000000
00000000
00000000
00000000
30100000
00000000
01000000
00010000
01000000
00000000
00001000
00000000
00100000
00000000
00010000
00000000
,
01000000
00000000
00001000
01000000
00000000
00000000
00001000
00000000
00010000
00000000
00000010
00010000
00000000
00000000
00001000
00000000
,
00000010
00000000
00001000
00000010
00000000
00000000
00000010
00000001
00001000
00000000
00000000
00000000
00001010
00000000
00000000
00000000
,
00000100
00000000
00010000
00000000
00001000
00000000
00000010
00000000
00000001
00000000
00000010
00000100
00000000
00000000
00010000
00000000
,
00001000
00100000
00001000
01000000
00100000
10000000
00010000
01000000
,
00001000
00000000
00100000
00000100
00000000
00000000
00010000
00000000
00020000
00000000
00000000
00000000
00030010
00000000
00000010
00000000
,
00000020
00000000
00001030
00000100
00010000
00000010
00000100
00000001
,
00000020
00000000
00000000
00000000
00000130
00000000
00010000
00001000
00020000
00000000
00000000
00000000
00031000
00000000
00100000
00010000
,
00200000
00000000
00000000
00000000
00310000
00000000
10000000
01000000
10000000
00000000
00100000
00000000
01000000
00000000
00001000
00000000
,
00010000
00000000
00000100
00010000
00000000
00000000
00001000
00000000
00100000
00000000
01000000
00010000
00000000
00000000
00001000
00000000
,
00010000
00000000
00000010
00000100
00000000
00000000
00000001
00001000
00000001
00000000
00000000
00000000
00000110
00000000
00000000
00000000
,
00001010
00000000
00000100
00020000
00000000
00031000
00100000
00010000
,
10000000
01000000
00100000
00001000
00000000
00011000
00000000
00000010
,
00000100
00000001
00010000
00000200
00000000
00001300
00000010
00010000
,
00000100
00000000
00001000
00000000
00000001
00000000
00000010
00000000
00000000
00000000
00000001
00000010
00000100
00000000
00001000
00000000
,
00000010
00010000
00001000
00020000
00000000
00031000
01000000
00010000
,
00100000
00010000
01010000
00000000
10000000
00100000
01100000
00000000
,
10010000
00000000
00000000
00000000
00100000
00000000
00001000
00010000
00001000
00000000
00000000
00000000
00010000
00000000
00000010
00000100
,
00000010
00000000
00000000
00000000
00001100
00000000
00000000
00000000
00010000
00000100
00000000
00000100
00001000
00000000
00000010
00000000
,
00000100
00000000
00000001
00000010
00000000
00000010
00000100
00000000
00020000
00000000
00001000
00000000
00031000
00000000
00100000
00000000
,
00010000
00000000
00100000
01000000
00000000
01000000
10000000
00000000
00200000
00000000
01000000
00000000
01300000
00000000
00010000
00000000
,
00100000
00000000
00001000
00010000
00000000
00000100
00010000
00000000
00001000
00000000
00010000
00000000
00010010
00000000
00000000
00000000
,
00010100
00000000
00000000
00000000
00001000
00000000
00000001
00000100
00000010
00000000
00010000
00000000
00001000
00000000
00010000
00000000
,
00000010
00000000
00001000
00000100
00000000
00000100
00010000
00000000
00002000
00000000
00100000
00000000
00103000
00000000
00010000
00000000
,
01000000
00000000
00100000
10000000
00000000
10000000
00010000
00000000
00200000
00000000
01000000
00000000
01300000
00000000
10000000
00000000
,
00010000
00000000
00100000
00001000
00000000
00001000
00010000
00000000
00000010
00000000
00000100
00000000
00000001
00000000
00000101
00000000
,
00000000
00000000
00000010
00000000
00000000
00010000
00000000
00001000
00010000
00000000
00001000
00000000
00011000
00000000
00000000
00000000
,
00100000
01000000
10000000
00020000
00000000
01000000
01030000
00001000
,
00010000
00000100
00000010
00000002
00000000
00001000
00001003
00000100
,
00010000
00001000
00100000
02000000
00000000
00100000
03100000
00010000
,
10000000
01000000
00010000
10000000
00100000
00001000
00010000
00000100
,
00001000
00000010
00000001
00000020
00000000
00000100
00000130
00000001
,
00001000
01000000
00010000
00002000
00000000
00100000
00103000
00010000
,
10000000
01000000
00010000
02000000
00000000
00100000
03100000
00010000
,
01000000
00001000
00000000
00010000
00001000
00000000
00010000
00000000
00000010
00000000
00000100
00000001
00000100
00000000
00000000
00000000
,
00001010
00000000
00000100
00020000
00000000
00031000
00100000
00001000
,
00010000
01000000
10000000
00100000
00000000
01010000
00000000
00100000
,
00001000
00000100
00000001
00000200
00000000
00000310
00010000
00001000
,
00100000
00000000
00000100
00000000
00001000
00000000
00020000
00000000
00000000
00000000
10030000
01000000
00100000
00000000
00010000
00000000
,
01000000
00001000
00010000
00000010
00000000
00000100
00000001
00000010
,
00000001
00001000
00000100
00000000
00011000
00000000
00000010
00000000
,
00010100
00000000
00000000
00000000
00000000
00000000
00100000
10000000
01000000
00000000
00000000
00000000
00000000
00000000
00001000
00010000
,
00000010
00000000
00000000
00000000
00001100
00000000
00000000
00000000
00000001
00000010
00000000
00000010
00000100
00000000
00010000
00000000
,
00001000
00000000
01000000
00100000
00000000
00100000
10000000
00000000
00020000
00000000
01000000
00000000
01030000
00000000
00001000
00000000
,
00100000
00000000
00001000
01000000
00000000
01000000
00010000
00000000
00100000
00000000
00001000
00000000
00010000
00000000
00000010
00000000
,
00001000
00000000
00000001
00000010
00000000
00000010
00000100
00000000
00010000
00000000
00001000
00000000
01000000
00000000
00001000
00000000
,
00011000
00000000
00000000
00000000
00000010
00000000
00000100
00000001
00001000
00000000
00000010
00000000
00010000
00000000
00001000
00000000
,
01000000
00000000
00010000
00100000
00000000
00100000
01000000
00000000
20000000
00000000
00010000
00000000
30010000
00000000
00100000
00000000
,
00001000
00000000
00010000
00000100
00000000
00000100
00001000
00000000
00000002
00000000
00000010
00000000
00000013
00000000
00000100
00000000
,
00010000
00000000
00000010
00001000
00000000
00001000
00000100
00000000
00010000
00000000
00001000
00000000
01001000
00000000
00000000
00000000
,
00110000
00000000
00000000
00000000
10000000
00000000
00020000
00000000
00000000
00000000
00130000
00000000
00001000
00000000
00010000
01000000
,
00100000
00001000
00100000
00000020
00000000
00010030
00000100
00001000
,
00000001
00000000
00000010
00000100
00001000
00000000
00000010
00000000
00010000
00000100
00001000
00000000
00000010
00000000
00000100
00000000
,
00000001
00000010
00001000
00020000
00000000
00001000
00031000
00000000
,
00100000
00001000
00000000
01000000
00010000
00000000
10000000
00100000
10000000
00010000
00000000
00100000
00001000
00000000
00010000
00000100
,
00010000
00000010
00000000
00001000
00000001
00000000
00000010
00000001
00000010
00000100
00000000
00010000
00001000
00100000
00001000
00000000
,
00010000
01000000
00010000
01000000
00010000
00000000
00001000
00000000
00010000
00000010
00010000
00000010
00010000
00000000
00000100
00000000
,
00001001
00000000
00000000
00010010
00000000
00000000
00010100
00000000
00000000
00101000
00000000
00000000
00010000
00000000
11000000
00000000
;
