#TITLE:No More Grief;
#SUBTITLE:;
#ARTIST:NAOKI MAEDA feat. MAX;
#TITLETRANSLIT:;
#SUBTITLETRANSLIT:;
#ARTISTTRANSLIT:;
#GENRE:;
#CREDIT:;
#BANNER:No More Grief_banner.png;
#BACKGROUND:No More Grief.png;
#LYRICSPATH:;
#CDTITLE:;
#MUSIC:No more Grief.ogg;
#OFFSET:-0.340000;
#SAMPLESTART:67.470001;
#SAMPLELENGTH:15.000000;
#LASTBEATHINT:273.500000;
#SELECTABLE:YES;
#BPMS:0.000000=143.000000
;
#STOPS:
;
#BGCHANGES:;
#KEYSOUNDS:;
#ATTACKS:;

//---------------dance-single - ----------------
#NOTES:
     dance-single:
     :
     Easy:
     5:
     0.212445,0.285699,0.092945,0.219687,0.000000,176.000000,165.000000,11.000000,26.000000,0.000000,0.000000,0.212445,0.285699,0.092945,0.219687,0.000000,176.000000,165.000000,11.000000,26.000000,0.000000,0.000000:
0000
0000
0000
0000
,
0000
0000
0000
0000
,
0000
0000
0000
0000
,
0000
0000
0000
0000
,
0010
0010
0010
0000
,
1000
1000
1000
0000
,
0001
0001
0001
0000
,
0100
0100
0100
0000
,
0001
0010
0001
0000
,
1000
0010
1000
0000
,
0100
0010
0100
0000
,
0001
0010
0001
0000
,
1000
0100
1100
0000
,
0001
0010
0011
0000
,
1000
0001
1001
0000
,
0220
0000
0330
0000
,
0001
0100
0010
0000
,
0010
1000
0100
0000
,
1000
0001
0010
0000
,
0001
1000
0200
0300
,
1000
0010
0100
0000
,
0010
1000
0001
0000
,
0010
0100
0001
0000
,
0022
0000
0033
0000
,
2000
0000
3100
0000
,
0020
0000
0130
0000
,
0002
0000
0013
0000
,
0020
0000
0130
0000
,
2000
0000
3100
1000
,
0002
0000
0013
0000
,
0002
0000
0103
0001
,
0010
0000
0110
0000
,
1000
0001
1000
0000
,
0010
0100
0010
0000
,
2000
0000
3010
0000
,
0002
0000
0103
0000
,
0010
0000
0100
0000
,
0002
0000
0003
0000
,
1000
0000
0010
0100
,
0020
0000
0030
0000
,
1000
0100
0010
0000
,
0001
1000
0010
0000
,
0100
0001
0010
0000
,
0001
0010
0100
0000
,
1000
0010
1010
0000
,
0001
0100
0101
0000
,
0010
0100
0001
1000
,
2002
0000
0000
0000
0000
3003
0000
0000
,
0100
0100
0010
0100
,
0002
0000
0013
0000
,
0100
0100
1000
0010
,
0200
0000
0310
0000
,
1000
0001
1000
0010
,
0200
0000
0301
0000
,
0010
0001
0100
0010
,
2000
0000
3010
0000
,
0010
0100
0001
0000
,
0010
0100
1000
0000
,
0010
0100
0001
0000
,
0010
0100
1000
0000
,
0100
0010
1000
0000
,
0100
0010
0001
0000
,
0100
0010
1000
0000
,
0110
0000
1001
0000
,
0200
0000
0000
0000
0000
0300
0000
0000
,
0002
0000
0000
0000
0000
0003
0000
0000
,
0020
0000
0000
0000
0000
0030
0000
0000
,
2000
0000
0000
0000
0000
3000
0000
0000
;

//---------------dance-single - ----------------
#NOTES:
     dance-single:
     :
     Medium:
     9:
     0.344016,0.402197,0.101394,0.321082,0.000000,285.000000,273.000000,12.000000,38.000000,0.000000,0.000000,0.344016,0.402197,0.101394,0.321082,0.000000,285.000000,273.000000,12.000000,38.000000,0.000000,0.000000:
0000
0000
0000
0000
,
0000
0000
0000
0000
,
0000
0000
0000
0000
,
0000
0000
0000
0000
,
0001
0010
0001
1000
,
0010
1000
0100
0010
,
0001
0100
0010
0000
1000
0010
0100
0000
,
0001
0010
0100
1000
0001
0000
1001
0000
,
0100
0000
0010
0000
0100
0001
0000
0010
,
0001
0000
1000
0000
0010
1000
0000
0100
,
1000
0000
0010
0000
1000
0001
0000
0010
,
0001
0000
1000
0010
0100
0000
0110
0000
,
0001
0100
0010
0000
1000
0000
0010
0000
,
0100
0001
0010
0000
0001
0000
1000
0000
,
0100
0010
0001
0000
1000
0000
0001
0000
,
2002
0000
3003
0010
,
0100
0001
1000
0000
0100
0000
0010
0000
,
0001
1000
0100
0000
1000
0000
0010
0000
,
0100
0001
1000
0000
0001
0000
0010
0000
,
0100
1000
0100
0000
0010
0000
0011
0000
,
0001
1000
0010
0000
0100
0000
0001
0000
,
0010
0100
1000
0000
0001
0000
0100
0000
,
0001
1000
0100
0000
0010
0001
1000
0000
,
2002
0000
0000
0000
0000
3003
0000
0000
,
0200
0310
0002
0013
,
0200
2000
0000
3300
,
2000
3010
0200
0301
,
0002
0020
0000
0033
,
0001
1000
0100
0000
1000
0000
0010
0000
,
0100
0000
0002
2000
0000
0000
3003
0000
,
0100
0010
1000
0000
0001
0000
0010
0000
,
0001
0000
2000
0020
0000
0000
3030
0000
,
0110
0001
0000
0001
,
1000
0100
0000
0100
,
0010
0100
0000
0100
,
1000
0001
1000
0001
,
1001
0000
0000
0100
0000
0010
0000
0220
,
0000
0330
0000
1000
0000
0001
0010
0000
,
0001
1000
0100
0000
1000
0001
0100
0000
,
0220
0000
0000
0000
0000
0330
0000
0000
,
0001
0000
0010
0001
0000
1000
0000
0001
,
1000
0000
0010
0000
1000
0000
0100
1000
,
0010
0000
0100
0001
0000
1000
0000
0100
,
1000
0010
0202
0303
,
1000
0000
0001
0010
0000
0100
0000
1000
,
0010
0000
1000
0001
0100
0000
0010
0000
,
1000
0000
0100
0010
0000
0001
0000
0010
,
0200
0000
1000
1300
,
0010
0000
0100
0001
0000
1000
0100
0010
,
0002
1000
0200
0303
,
0010
0000
0100
0001
0000
0010
0100
1000
,
0020
1000
0200
0330
,
1000
0000
0001
1000
0000
0100
0010
0001
,
2000
0010
0200
3300
,
0010
0000
0001
1000
0000
0001
0010
0100
,
2000
0001
0020
3030
,
0100
0000
0001
0000
0010
0001
1000
0000
,
0010
0000
0100
0000
0001
0010
0100
0000
,
1000
0000
0010
0000
0100
0010
1000
0000
,
0100
0000
1000
0000
0010
0100
1000
0000
,
0100
0000
0001
0000
0010
0001
1000
0000
,
0001
0000
1000
0000
0010
0100
0001
0000
,
0010
0100
1000
0000
0001
0100
0010
0000
,
2002
0000
3003
0000
0110
0000
0010
1000
,
0002
0000
0000
0010
0000
0013
0000
0000
,
2000
0000
0000
0100
0000
3100
0000
0000
,
0200
0000
0000
0010
0000
0310
0000
0000
,
0002
0000
0000
0100
0000
0200
0000
0000
,
0303
0000
0000
0000
;

//---------------dance-single - ----------------
#NOTES:
     dance-single:
     :
     Hard:
     13:
     0.625264,0.632024,0.135192,0.152091,0.367554,518.000000,502.000000,16.000000,18.000000,0.000000,0.000000,0.625264,0.632024,0.135192,0.152091,0.367554,518.000000,502.000000,16.000000,18.000000,0.000000,0.000000:
// measure 0
0000
0000
0000
0000
,  // measure 1
0000
0000
0000
0000
,  // measure 2
0000
0000
0000
0000
,  // measure 3
0000
0000
0000
0000
,  // measure 4
1000
0001
1000
0001
0010
0100
0010
0100
,  // measure 5
1000
0100
1000
0100
0010
0001
0010
0001
,  // measure 6
0010
0100
0010
0100
1000
0001
0100
0010
,  // measure 7
1000
0000
0001
0000
0010
0000
0001
0000
0100
0000
0010
1000
0001
0000
1000
0000
,  // measure 8
0001
0100
1000
0001
0010
1000
0001
1000
,  // measure 9
0100
0001
1000
0010
0001
1000
0001
0100
,  // measure 10
0010
0100
1000
0001
0010
1000
0001
0010
,  // measure 11
0100
0000
0001
0000
1000
0000
0010
0000
0001
0000
1000
0010
1000
0000
0001
0000
,  // measure 12
0100
0001
0010
1000
0010
0001
1000
0010
,  // measure 13
0001
0010
1000
0001
0100
0001
0100
1000
,  // measure 14
0100
0000
0010
0000
1000
0000
0100
0000
0010
0000
0001
1000
0001
0000
0010
0000
,  // measure 15
0220
0000
0000
0000
0330
0000
0000
0000
1000
0000
0001
0010
0100
0000
1000
0000
,  // measure 16
0010
1000
1100
0000
0010
0001
0100
0001
,  // measure 17
0010
0100
1000
0010
0100
0001
1001
0000
,  // measure 18
0010
0001
0101
0000
1000
0001
0010
0100
,  // measure 19
0010
0000
1000
0000
0001
0000
0100
0000
1000
0000
0010
0100
0001
0000
1000
0000
,  // measure 20
0010
1000
0001
0010
0001
0100
0010
1000
,  // measure 21
0001
0000
1000
0000
0100
0000
0010
0000
0001
0000
1000
0000
0010
0000
1000
0001
,  // measure 22
0100
0000
0010
0000
0100
0000
1000
0000
0100
0000
0001
0000
0010
0001
1000
0001
,  // measure 23
0200
0000
0000
0010
0000
0000
0310
0000
1000
0001
0000
0001
1000
0000
0010
0100
,  // measure 24
0010
0000
1000
0010
0001
0000
0010
1000
,  // measure 25
0001
0000
0010
0200
0000
0000
1300
0000
,  // measure 26
1000
0100
0001
0000
1000
0010
0001
0000
,  // measure 27
0010
1000
0010
0002
0000
0100
0103
0000
,  // measure 28
0010
1000
0001
0010
0100
1000
0010
0001
,  // measure 29
1000
0001
0010
0200
0000
0001
0301
0000
,  // measure 30
1000
0100
0010
0001
0100
0001
1000
0001
,  // measure 31
0100
0010
0100
0002
0000
0010
0013
0000
,  // measure 32
0001
0100
1000
0100
0000
0110
0000
0002
,  // measure 33
1000
0000
0000
1000
0000
0000
1000
0000
0000
0100
0000
0000
0103
0000
0010
0100
,  // measure 34
0010
1000
0100
0001
0000
0110
0000
0200
,  // measure 35
1000
0000
0000
1000
0000
0000
1000
0000
0000
0310
0000
0000
0001
0010
0001
0010
,  // measure 36
0100
0010
0100
1100
0000
0011
0000
1100
,  // measure 37
0000
0000
0000
0000
1000
0000
1001
0000
0000
0010
0000
0000
0100
0010
0100
0010
,  // measure 38
1000
0000
0010
0000
0100
0000
0001
0000
0010
0000
0001
0000
1000
0100
1000
0100
,  // measure 39
0020
0000
0000
0001
0000
0000
0001
0000
0000
0100
0000
0000
0130
0000
0000
0000
,  // measure 40
1000
0000
0100
0000
0010
0000
0001
0000
0100
0000
0010
1000
0000
0001
0100
0000
,  // measure 41
0010
0000
1000
0100
0000
1000
0100
0000
1000
0010
0000
1000
0001
0000
0001
0010
,  // measure 42
0100
0000
1000
0000
0010
0000
0100
0000
0001
0000
0010
0100
0000
1000
0001
0000
,  // measure 43
0100
0000
0010
0100
0000
0001
0100
0000
0010
1000
0000
0010
0100
0000
0001
0000
,  // measure 44
0010
0000
0001
0100
0000
0010
0100
0000
0001
0000
0010
0100
0000
0010
0001
0000
,  // measure 45
1000
0000
0010
1000
0000
0100
1000
0000
0010
1000
0000
1000
0010
0000
0100
0000
,  // measure 46
0001
0000
1000
0100
0000
0010
0001
0000
1000
0000
0001
0010
0000
0100
1000
0000
,  // measure 47
0020
0000
0000
0030
,  // measure 48
0100
0000
0001
0100
0000
1000
0100
0000
0010
0000
1000
0001
0000
0010
0100
0000
,  // measure 49
1000
0000
0001
0010
0000
0001
1000
0000
0010
0100
0000
0100
0010
0000
1000
0000
,  // measure 50
0010
0000
0001
0010
0000
1000
0010
0000
0100
0000
0001
0010
0000
0001
1000
0000
,  // measure 51
0100
0000
1000
0100
0000
0010
0100
0000
1000
0001
0000
0001
0010
0000
0100
0000
,  // measure 52
1000
0000
0010
1000
0000
0001
0100
0000
0001
0000
0010
0100
0000
1000
0001
0000
,  // measure 53
0100
0000
0001
0100
0000
0010
0100
0000
0001
0100
0000
0010
0100
0000
0010
0000
,  // measure 54
1000
0000
0100
0010
0000
0001
0010
0000
0001
0000
1000
0000
0010
0100
0010
0100
,  // measure 55
0020
0000
0000
1000
0000
0000
1030
0000
1000
0000
0001
0000
1000
0001
1000
0001
,  // measure 56
0010
0100
1000
0001
1000
0100
0010
0001
,  // measure 57
1000
0100
0001
0100
1000
0010
0100
0000
,  // measure 58
0001
0010
1000
0010
0001
1000
0010
0100
,  // measure 59
0001
0010
0100
1000
0001
1000
1010
0000
,  // measure 60
0001
0100
1000
0001
0010
1000
0001
1000
,  // measure 61
0100
0001
1000
0010
0001
1000
1001
0000
,  // measure 62
0100
0000
1000
0000
0010
0000
0100
0000
0001
0000
0010
0000
0001
1000
0001
1000
,  // measure 63
0002
0000
0000
0100
0000
0000
0103
0000
0010
1000
0000
0010
0100
0000
0001
0000
,  // measure 64
0010
0100
1000
0001
0000
2100
0000
0000
,  // measure 65
3010
0100
0001
1000
0000
0012
0000
0000
,  // measure 66
0103
1000
0100
0001
0000
1020
0000
0100
,  // measure 67
0130
0010
0001
0010
0000
2200
0000
0000
,  // measure 68
3300
0000
0000
0000
;
