#TITLE:Night! Night! Night!;
#SUBTITLE:;
#ARTIST:MM;
#TITLETRANSLIT:;
#SUBTITLETRANSLIT:;
#ARTISTTRANSLIT:;
#GENRE:EURO DYNAMITE;
#CREDIT:;
#BANNER:Night! Night! Night!_banner.png;
#BACKGROUND:Night! Night! Night!.png;
#LYRICSPATH:;
#CDTITLE:;
#MUSIC:Night! Night! Night!.ogg;
#OFFSET:-0.230000;
#SAMPLESTART:73.320000;
#SAMPLELENGTH:13.090000;
#LASTBEATHINT:325.000000;
#SELECTABLE:YES;
#BPMS:0.000000=165.000000
;
#STOPS:
;
#BGCHANGES:;
#KEYSOUNDS:;
#ATTACKS:;

//---------------dance-single - ----------------
#NOTES:
     dance-single:
     :
     Easy:
     6:
     0.274698,0.298140,0.082175,0.205437,0.000000,234.000000,224.000000,10.000000,25.000000,0.000000,0.000000,0.274698,0.298140,0.082175,0.205437,0.000000,234.000000,224.000000,10.000000,25.000000,0.000000,0.000000:
0000
0000
0000
0000
,
0000
0000
0000
0000
,
0000
0000
0000
0000
,
0000
0000
0000
0000
,
0000
0000
0000
0000
,
0010
0010
0010
0000
,
2000
0000
3001
0000
,
0100
0000
0100
0000
,
0010
1000
0001
0100
,
1001
0000
0000
0000
,
1000
0010
0100
0010
,
1000
0100
1000
0000
,
0001
0100
0010
0100
,
0001
0010
0001
0000
,
1000
0001
0010
0001
,
0100
0010
0100
0000
,
0001
1000
0100
1000
,
0010
0100
0010
0000
,
1001
0000
0000
0000
,
1000
1000
1000
1000
,
0001
0001
0001
0000
,
0100
0100
0100
0100
,
0010
0010
0110
0000
,
1000
0010
1000
0010
,
1000
0100
1000
0000
,
0001
0010
1000
0010
,
0001
0100
0001
1000
,
0010
0010
0020
0030
,
1000
0100
1000
0000
,
0002
0000
0203
0000
,
0310
1000
0001
0100
,
0001
1000
0002
0003
,
1000
0010
0100
0000
,
0002
0000
0023
0000
,
0130
1000
0001
0000
,
0010
0100
0010
0000
,
1000
0100
1000
0000
,
0001
0010
0001
0000
,
1000
0010
0100
0000
,
0001
0010
0100
0000
,
1000
0010
0100
0000
,
0002
0000
2003
0000
,
3010
0100
0010
0100
,
0001
0001
0001
0001
,
1000
1000
2000
3000
,
0010
0010
0010
0010
,
0100
0100
0200
0300
,
0000
1001
0000
0001
,
0100
0010
0100
0000
,
0010
1000
0001
0100
,
0001
1000
1000
1000
,
0010
0010
0020
0030
,
0100
0001
0100
0000
,
0002
0000
2003
0000
,
3010
0100
0001
0000
,
1000
0001
0100
0000
,
0010
1000
0001
0000
,
0200
0000
0320
0000
,
1030
0001
1001
0000
,
0200
0000
0000
0300
,
0020
0000
0000
0030
,
1000
0000
0001
0000
,
2002
0000
0000
3003
0000
0000
0000
0000
,
0010
0010
0010
0000
,
0100
0100
0100
0000
,
0002
0000
2003
0000
,
3010
0100
0001
1000
,
0001
0010
0001
0000
,
1000
0100
1000
0000
,
0010
1000
0100
0000
,
0010
0001
0100
0000
,
0010
0010
0010
0010
,
0010
0000
0010
0000
,
1000
0001
0100
0001
,
1000
0100
1000
0000
,
1001
0000
0011
0000
,
1100
0000
0110
0000
,
0010
0001
1000
0100
,
1000
0001
0010
0001
,
0200
0000
0320
0000
,
0230
0000
0000
0000
0000
0310
0000
0000
;

//---------------dance-single - ----------------
#NOTES:
     dance-single:
     :
     Medium:
     12:
     0.511831,0.496900,0.254741,0.090392,0.045196,436.000000,405.000000,31.000000,11.000000,0.000000,0.000000,0.511831,0.496900,0.254741,0.090392,0.045196,436.000000,405.000000,31.000000,11.000000,0.000000,0.000000:
0000
0000
0000
0000
,
0000
0000
0000
0000
,
0000
0000
0000
0000
,
0000
0000
0000
0000
,
0000
0100
0010
0010
,
1000
0001
2002
3003
,
0010
0000
0100
0000
0001
0000
0000
0000
0010
0000
0000
0100
0000
0000
1000
0000
,
0010
0000
1000
0000
0001
0100
0010
0000
,
1000
0000
0001
0000
0010
0100
1000
0100
,
0020
0000
0030
0000
,
0001
0000
0000
0100
0000
0000
0001
0000
1000
0000
0100
0000
1000
0000
0000
0000
,
0010
0000
0000
1000
0000
0000
0001
0000
0010
0000
0100
0000
1000
0000
0000
0000
,
0001
0100
0001
0000
1000
0100
1000
0000
,
0010
0100
0001
1000
0100
0000
0110
0000
,
0001
0000
0000
0010
0000
0000
0001
0000
1000
0000
0010
0000
1000
0000
0000
0000
,
0100
0000
0000
1000
0000
0000
0001
0000
0100
0000
0010
0000
0100
0000
0000
0000
,
0001
1000
0100
0000
1000
0001
0100
0000
,
0010
1000
0100
0010
0001
0000
1001
0000
,
0110
0000
0000
0000
,
1000
0010
1000
0010
1000
0100
0010
0000
,
0001
0100
0001
0100
0001
0010
0100
0000
,
1000
0001
0000
1000
0001
0010
0100
0000
,
1000
0010
0100
0001
0010
0000
0110
0000
,
1000
0100
1000
0000
0001
0100
0010
0100
,
0001
0000
0010
0000
0001
1000
0100
0000
,
1000
0010
0100
0000
0001
0010
0100
0010
,
0002
1000
1000
1003
,
0110
0000
0001
0000
0110
0000
1000
0100
,
0000
1000
0010
0100
0000
0001
0010
0000
,
0001
0000
1000
0000
1001
0000
0000
0010
,
0000
0010
0100
0001
0000
0010
0001
0000
,
1000
0000
0010
0000
1010
0000
0000
0100
,
0000
0001
0010
0100
0000
1000
0010
0000
,
1000
0000
0100
0010
0000
0001
0001
0000
,
0100
0000
0001
1000
0100
0010
0001
0000
,
0000
1000
0000
1010
0000
0001
0000
0011
,
0000
0100
0000
0110
0000
0001
0000
1000
,
0001
0000
0010
0001
0000
1000
0010
0000
,
1000
0100
0010
0001
0100
0000
0110
0000
,
0001
0000
0000
0010
0000
0000
0001
0000
1000
0000
0100
0000
0010
0000
0000
0000
,
0100
0000
0000
1000
0000
0000
0100
0000
1000
0000
0001
0000
0100
0000
0000
0000
,
0010
0100
0001
0000
0010
0100
1000
0000
,
0001
1000
0100
0010
0001
0000
1001
0000
,
0100
0000
0100
0000
0001
0010
0100
1000
,
0010
0000
1000
0000
0001
1000
0100
0000
,
1000
0000
1000
0000
0010
0100
0001
0100
,
0010
0000
1000
0000
0100
1000
0001
0100
,
0000
0000
0110
0000
1000
0010
0100
0010
,
1000
0000
0100
0000
1000
0001
0100
0000
,
0001
0000
0010
0000
0001
0010
0100
0010
,
0001
1000
1010
0001
,
0101
0000
0010
0000
0101
0000
1000
0100
,
0000
1000
0010
1000
0000
0001
0010
0000
,
0001
0000
0100
0000
0110
0000
0000
1000
,
0000
0010
1000
0100
0010
0001
0100
0000
,
0001
0000
0011
0000
1000
0000
0001
0010
,
0000
0100
1000
0001
0000
1000
0010
0000
,
0100
0001
0010
0001
0000
0100
0100
0000
,
0001
0010
0100
0010
0100
1000
0001
0000
,
2000
0000
3010
0100
,
0002
0000
0013
0100
,
1000
0000
0010
0000
0100
0000
0000
0000
0001
0000
0000
0010
0000
0000
0100
0000
,
2000
0001
0001
3001
,
0110
0000
1000
0000
0110
0000
0001
0001
,
0000
0010
0001
1000
0001
0010
0100
0000
,
1000
0000
0010
0000
1001
0000
0100
0001
,
0000
1000
0010
0100
0001
0010
0100
0000
,
1000
0000
0001
0000
0011
0000
1000
0100
,
0000
1000
0010
1000
0000
0001
0010
0000
,
0001
0100
1000
0200
0000
0001
0301
0000
,
1000
0100
0001
0200
0000
1000
1300
0000
,
0010
1010
1000
0011
,
0001
1001
0220
0330
,
1000
0010
0100
0010
1000
0001
0010
0001
,
0000
0101
0000
1001
0000
1000
0010
0000
,
0100
0010
0100
0000
0001
0010
0001
0000
,
1000
0100
1000
0000
0010
0100
0010
0000
,
1001
0000
0010
0001
0000
1000
0010
0100
,
0000
0100
0001
0100
1000
0100
0010
0000
,
1000
0100
0000
1000
0010
0100
0010
0000
,
1000
0000
0001
0000
0000
0010
0000
0100
0000
0010
0001
0000
0000
0000
0000
0000
;

//---------------dance-single - ----------------
#NOTES:
     dance-single:
     :
     Hard:
     15:
     0.784181,0.795040,0.336916,0.123262,0.525918,668.000000,627.000000,41.000000,15.000000,0.000000,0.000000,0.784181,0.795040,0.336916,0.123262,0.525918,668.000000,627.000000,41.000000,15.000000,0.000000,0.000000:
// measure 0
0000
0000
0000
0000
,  // measure 1
0000
0000
0000
0000
,  // measure 2
0000
0000
0000
0000
,  // measure 3
0000
0000
0000
0000
,  // measure 4
0000
0010
1001
0100
,  // measure 5
0011
0000
1100
0000
0011
0000
1000
0010
,  // measure 6
0100
0000
0010
0000
1000
0100
0000
1000
0001
0000
0010
0001
0000
1000
0010
0000
,  // measure 7
0100
0000
0010
0000
0100
0001
0000
1000
0010
0000
1000
0100
0000
0010
0001
0000
,  // measure 8
0100
0000
0110
0000
0001
0001
1000
1001
,  // measure 9
0020
0000
0000
0030
,  // measure 10
0100
0000
0001
0010
0000
0100
1000
0000
0010
1000
0100
0000
0010
0001
1000
0000
,  // measure 11
0010
0000
0100
0001
0000
1000
0100
0000
1000
0010
0100
0000
0001
0010
0100
0000
,  // measure 12
1000
0100
0001
0100
1000
0001
0100
1000
,  // measure 13
0100
0010
1000
0000
0001
0010
0100
0000
0010
0001
1000
0001
0010
0000
0100
0000
,  // measure 14
1000
0000
0010
0100
0000
0010
0100
0000
0001
0010
0100
0000
0010
0100
1000
0000
,  // measure 15
0010
0000
1000
0100
0000
1000
0100
0000
1000
0010
0100
0000
0010
0100
0001
0000
,  // measure 16
0010
1000
0010
0001
1000
0010
0001
0010
,  // measure 17
1000
0100
1000
0000
0001
0100
0001
0000
0010
0100
0010
0100
0010
0000
0000
0000
,  // measure 18
2002
0000
0000
0000
0000
3003
0000
0000
,  // measure 19
0100
0001
0100
0001
1000
0010
1000
0010
,  // measure 20
1000
0100
1000
0100
0010
0001
0010
0001
,  // measure 21
1000
0000
0001
0000
0010
0000
0001
0000
1000
0010
0100
0000
0001
0000
0010
0000
,  // measure 22
0100
0000
1000
0000
0001
0000
1000
0000
0010
0100
0001
0000
0010
0000
0010
0000
,  // measure 23
0001
0000
0100
0000
0001
0000
0010
0000
0001
1000
0100
0000
1000
0001
0100
0000
,  // measure 24
0010
0000
0100
0000
0001
0000
1000
0000
0100
1000
0001
0000
0100
0001
1000
0000
,  // measure 25
0010
0000
1000
0000
0001
0000
0010
0000
0001
1000
0010
0000
1000
0001
0010
0000
,  // measure 26
0001
1100
1001
1100
,  // measure 27
0101
0000
0011
0000
1100
0000
0010
1000
,  // measure 28
0001
0000
0010
0000
0001
0000
1000
0000
0010
0100
0001
0000
1000
0000
0100
0000
,  // measure 29
1000
0001
0101
0000
1100
0000
0010
0100
,  // measure 30
0000
0000
0100
0000
0001
0000
0100
0000
0010
1000
0001
0000
0010
0001
1000
0000
,  // measure 31
0001
0000
0100
0000
0100
0000
0010
0000
1000
0100
0010
0000
0001
0000
1000
0000
,  // measure 32
0010
0000
0010
0000
0100
0000
0001
0000
1000
0001
0010
0000
0200
0000
0000
0000
,  // measure 33
0310
0001
1000
0020
0000
0001
0031
0010
,  // measure 34
1000
0100
0010
0001
0000
0010
1001
0000
,  // measure 35
0100
0000
0001
0010
0000
0001
1000
0000
0010
0100
0001
0000
1000
0100
0010
0000
,  // measure 36
0100
0000
1000
0001
0000
1000
0010
0000
0100
0001
0010
0000
0001
0010
0100
0000
,  // measure 37
1000
0100
0001
0100
1000
0010
0001
0010
,  // measure 38
0100
0001
0100
0000
0010
1000
0010
0000
1000
0100
1000
0100
1000
0000
0001
0000
,  // measure 39
0010
0000
0001
1000
0000
0001
0010
0000
0100
1000
0001
0000
0010
0001
1000
0000
,  // measure 40
0001
0000
1000
0010
0000
1000
0001
0000
0100
0001
0010
0000
0100
1000
0010
0000
,  // measure 41
1000
0010
0001
0010
1000
0100
0001
0100
,  // measure 42
1000
0010
1000
0000
0001
0010
0001
0000
0100
0010
0100
0010
0200
0000
0000
0000
,  // measure 43
0301
0000
0000
0000
0001
0000
0000
0000
1000
0010
0100
0001
1000
0010
0100
0001
,  // measure 44
1000
0000
1000
0000
1000
0100
1000
0000
,  // measure 45
0010
0000
0000
0000
0010
0000
0000
0000
0010
0100
0001
1000
0010
0100
0001
1000
,  // measure 46
0010
1000
0000
1010
0000
0001
0001
0001
,  // measure 47
0010
0000
0000
0000
1100
0000
0000
0000
0001
0010
0100
1000
0001
0010
0100
1000
,  // measure 48
0010
0100
0010
0000
1000
0100
0001
0000
,  // measure 49
0001
0000
0100
0000
1000
0000
0000
0000
0010
1000
0001
0100
0010
1000
0001
0100
,  // measure 50
0001
0101
1010
0101
,  // measure 51
1010
0000
1001
0000
1010
0000
0100
0001
,  // measure 52
0010
0000
0001
0000
1000
0000
0001
0000
0010
0100
1000
0000
0010
0000
0100
0000
,  // measure 53
0001
1000
1100
0000
0011
0000
1000
0010
,  // measure 54
0100
0000
0010
0000
1000
0000
0001
0000
0010
0001
1000
0000
0010
1000
0001
0000
,  // measure 55
0100
0000
0010
0000
0100
0000
0001
0000
1000
0001
0010
0000
0001
0000
1000
0000
,  // measure 56
0010
0000
1000
0000
0001
0000
0010
0000
0001
1000
0100
0000
1000
0000
0010
0000
,  // measure 57
0100
1000
0100
0002
0000
1000
1003
0100
,  // measure 58
0010
0000
0001
1000
0001
0000
0010
0000
0000
0000
0100
0000
1001
0000
0000
0000
,  // measure 59
0100
0000
0001
0010
0000
0001
0100
0000
0001
0000
0010
0001
0000
0100
0001
0000
,  // measure 60
1000
0000
0010
0100
0000
0010
1000
0000
0100
0000
1000
0010
0000
1000
0100
0000
,  // measure 61
1000
0000
0001
0010
0000
0100
1000
0000
0010
0000
0100
0001
0000
1000
0010
0000
,  // measure 62
0200
0001
1000
0301
,  // measure 63
1010
0000
0011
0000
1010
0000
0100
0100
,  // measure 64
0000
0000
0001
0000
0010
0000
0001
0000
1000
0100
0010
0001
0200
0000
0000
0000
,  // measure 65
0310
0000
1000
0000
0001
0010
0100
0000
1000
0000
0010
0100
0000
0000
0010
0000
,  // measure 66
1000
0000
0100
0000
1000
0000
0001
0000
0010
0001
1000
0000
0010
1000
0001
0000
,  // measure 67
0100
0000
0001
0010
0100
0000
1000
0000
0010
1000
0100
0000
1000
0000
0001
0000
,  // measure 68
0000
0000
0001
0000
0010
0000
0100
0000
0010
0001
1000
0000
0010
0000
0100
0000
,  // measure 69
0001
0100
1000
0200
0000
0001
0301
1000
,  // measure 70
0100
0000
0001
0000
0100
0000
1000
0000
0010
0100
0001
0000
0010
0100
1000
0000
,  // measure 71
1100
1010
0011
0101
,  // measure 72
0110
1001
0220
0330
,  // measure 73
1000
0000
0001
0010
0100
0000
1000
0000
0010
0100
0001
0000
0010
0000
0100
0000
,  // measure 74
0000
0000
0100
0000
1000
0000
0010
0000
1000
0010
0100
0000
0001
0010
0100
0000
,  // measure 75
1000
0100
0010
0001
2000
0000
0000
0000
3001
0010
0100
1000
0002
0000
0000
0000
,  // measure 76
0103
0000
0010
0000
0100
0000
0001
0000
1000
0010
0100
0000
0001
0000
1000
0000
,  // measure 77
0001
0010
1000
0020
0000
0001
0031
1000
,  // measure 78
0010
0000
0001
0000
0010
0000
1000
0000
0001
1000
0010
0000
0110
0000
0000
0000
,  // measure 79
1000
1001
0000
0001
0011
1000
0011
0000
,  // measure 80
1000
0000
0010
0100
0000
0001
0000
0010
0000
0100
0001
0000
0000
0000
0000
0000
;
