#TITLE:Night sky;
#SUBTITLE:;
#ARTIST:USAO;
#TITLETRANSLIT:;
#SUBTITLETRANSLIT:;
#ARTISTTRANSLIT:;
#GENRE:PUMPCORE;
#CREDIT:;
#BANNER:Night sky_banner.png;
#BACKGROUND:Night sky.png;
#LYRICSPATH:;
#CDTITLE:;
#MUSIC:Night sky.ogg;
#OFFSET:-0.593000;
#SAMPLESTART:71.830002;
#SAMPLELENGTH:10.000000;
#SELECTABLE:YES;
#BPMS:0.000000=192.000000
,164.000000=96.000000
,180.000000=192.000000
;
#STOPS:
;
#BGCHANGES:;
#KEYSOUNDS:;
#ATTACKS:;

//---------------dance-single - ----------------
#NOTES:
     dance-single:
     :
     Easy:
     8:
     0.335680,0.477616,0.015823,0.268996,0.000000,297.000000,295.000000,2.000000,34.000000,0.000000,0.000000,0.335680,0.477616,0.015823,0.268996,0.000000,297.000000,295.000000,2.000000,34.000000,0.000000,0.000000:
0000
0000
0000
0000
,
0000
0000
0000
0000
,
0000
0000
0000
0000
,
0000
0000
0000
0000
,
0000
0000
0000
0000
,
1000
0100
1000
0010
,
0100
0001
0010
0001
,
1000
0001
0010
0100
,
0220
0000
0330
0000
,
0001
0100
1000
0010
,
0100
0001
0010
1000
,
0010
0001
0100
0010
,
1000
0100
0002
0000
,
0103
0001
0100
0001
,
1000
0010
1000
0010
,
0100
0001
0010
0100
,
1000
0000
0010
1000
0010
0000
0100
0000
,
0001
0100
0010
0100
,
0001
0000
1000
0000
0010
0100
0010
0000
,
1000
0100
1000
0010
,
0100
0000
0001
0000
1000
0001
1000
0000
,
0010
0100
0010
1000
,
0010
0100
0001
0010
,
0001
1000
0010
0100
,
0001
1000
0100
0010
,
0002
0000
0000
0000
,
0203
0000
0000
0000
,
0320
0000
0000
0000
,
2030
0000
0000
0000
,
3200
0000
0000
0000
,
0320
0000
0000
0000
,
0032
0000
0000
0000
,
2000
0000
3003
0000
,
0010
0000
0100
0010
0000
0000
0100
0000
,
0001
0000
1000
0001
0000
0000
1000
0000
,
0010
0000
0100
0001
0000
0000
0100
0000
,
0010
0000
1000
0001
0000
0000
1000
0000
,
0001
0001
0010
0010
,
0100
0100
1000
1000
,
0010
0100
0010
0000
1000
0001
1000
0000
,
0001
1000
0001
1000
0020
0000
0130
0000
,
0001
0000
0010
0001
0010
0000
0001
0000
,
0100
0000
0010
0100
0010
0000
0100
0100
,
0100
0000
0001
1000
0100
0000
1000
0000
,
0010
0000
0100
0010
1000
0000
0010
0000
,
1000
0000
0010
0000
0000
1000
0010
0000
,
0100
0000
0001
0000
0000
0100
0001
0000
,
1000
0000
0100
0000
0000
1000
0100
0000
,
0010
0000
0001
0000
0000
0010
0001
0000
,
1000
0001
0010
0001
,
0100
0010
1000
0100
,
1000
0000
0010
0000
0100
0010
0100
0000
,
0001
0010
0001
0100
,
0010
1000
0010
0100
,
0001
0010
0001
1000
,
0100
0010
0100
1000
,
0001
0100
0010
0100
,
0001
0000
1000
0000
0100
1000
0100
0000
,
1000
0000
0001
0000
0100
0001
0100
0000
,
0010
1000
0001
0100
,
0010
0001
0100
1000
,
0001
0010
0001
0100
,
0001
0000
1000
0000
0010
0100
0010
0000
,
1000
0100
1000
0001
,
1000
0000
0010
0000
0100
0010
0100
0000
,
0010
1000
0100
1000
,
0010
0000
0100
0000
0001
0010
0001
0000
,
1000
0000
0001
0000
0100
0010
0100
0000
,
0020
0100
0130
0000
,
0002
0000
0023
0000
,
2030
0000
0000
3000
,
0020
0000
0032
0000
,
2003
0000
3002
0000
,
0203
0000
0000
0010
,
0320
0000
2030
0000
,
3200
0000
0000
0000
,
0002
0000
0000
0303
,
0001
0100
1000
0100
,
0001
0100
1000
0000
,
0010
1000
0010
0001
,
0010
1000
0010
0000
,
1000
0100
0010
0001
,
0100
0010
1000
0000
,
0001
0100
0010
1000
,
0001
0010
0100
0000
,
2000
0000
0000
0000
,
3020
0000
0000
0000
,
0230
0000
0000
0000
,
0302
0000
0000
0000
0000
0003
0000
0000
,
2002
0000
3000
0000
,
0020
0000
0003
0000
,
0200
0000
0030
0000
,
2000
0000
0000
0000
0000
0000
0000
3300
;

//---------------dance-single - ----------------
#NOTES:
     dance-single:
     :
     Medium:
     13:
     0.614848,0.881753,0.229438,0.253173,0.063293,544.000000,515.000000,29.000000,32.000000,0.000000,0.000000,0.614848,0.881753,0.229438,0.253173,0.063293,544.000000,515.000000,29.000000,32.000000,0.000000,0.000000:
0000
0000
0000
0000
,
0000
0000
0000
0000
,
0000
0000
0000
0000
,
0000
0000
0000
0000
,
0000
0000
0000
0000
,
0100
0100
0001
0001
,
1000
1000
0010
0010
,
1000
0001
0100
0010
1000
0001
0010
0000
,
2002
0000
0000
3003
,
0100
0010
0100
0010
1000
0001
1000
0001
,
0010
0001
0010
0001
1000
0100
0010
0000
,
0001
0100
0001
0100
0010
1000
0010
1000
,
0001
0000
0011
0000
1000
0100
0010
0100
,
1000
0010
1000
0010
0100
0001
0100
0001
,
1000
0100
1000
0100
0010
0100
1000
0000
,
0001
0100
0010
0100
0001
1000
0100
0010
,
0001
0010
1000
0001
0100
2000
0000
0000
,
3001
0010
0100
0010
0001
0010
0100
0010
,
0001
1000
0100
1000
0001
1000
0100
0000
,
1000
0010
1000
0001
1000
0010
1000
0001
,
0100
0000
0110
0000
0001
1000
0001
0000
,
1000
0010
0100
0001
1000
0010
0100
0001
,
0010
0001
1000
0100
0010
0001
1000
0100
,
1000
0000
0010
1000
0000
0000
0001
0000
0100
0001
0000
0000
,
1000
0100
0010
0001
,
1000
0000
0010
1000
0000
0010
1000
0001
,
0000
0010
0000
0100
0000
1000
0000
1001
,
0000
0010
0000
0100
,
2002
0000
0000
3003
,
0010
0000
0100
0001
0000
1000
0010
0100
,
0000
0010
0000
1000
0000
0100
0000
0110
,
0000
0001
0000
1000
,
0010
0000
0100
0010
0000
0100
0010
0000
,
1000
0000
0000
1001
0000
0000
0001
0000
,
0011
0000
0000
0001
0000
0001
1000
0100
,
1000
0000
0000
1010
0000
0000
0101
0000
,
1000
1010
0001
0101
,
1000
0001
1000
0000
0010
0100
0010
0000
,
1000
0010
1000
0000
0001
0100
0001
0000
,
1000
0001
1000
0001
0100
0010
0100
0010
,
1000
0001
0010
0100
1000
0001
0200
0000
,
0310
0000
0100
0010
0100
0000
0001
0000
0010
0000
0001
0010
0001
0000
1000
0000
,
0010
0000
1000
0100
1000
0000
0001
0000
0010
0001
0000
1000
0100
0000
1001
0000
,
0010
0000
0100
0010
0100
0000
0001
0000
1000
0010
0000
1000
0010
0000
0100
0000
,
0002
0000
0013
0100
0010
0000
0001
0000
1000
0010
0100
0010
1000
0001
0010
0000
,
0001
0000
0101
0000
0000
1000
0010
0000
,
0100
0000
1001
0000
0000
0010
1000
0000
,
0001
0000
0110
0000
0000
1000
0001
0000
,
0010
0001
0010
0000
0100
1000
0100
0000
,
1000
0000
1100
0000
0000
0001
0010
0000
,
0001
0000
0101
0000
0000
1000
0010
0000
,
0100
0010
0100
0000
0001
1000
0001
0000
,
0010
0001
0100
0001
0010
0100
2000
0000
,
3010
0100
0010
0100
0000
0001
0010
0001
,
0000
1001
0000
1000
0000
0110
0000
0001
,
1000
0010
0100
0010
1000
0001
0010
0000
,
0001
1000
0100
1000
0010
0100
0010
0000
,
1000
0001
0010
0100
0001
0100
1000
0010
,
0000
0110
0000
1000
0000
1001
0000
0010
,
0100
0010
1000
0010
0100
0001
0100
0010
,
1000
0001
1000
0001
0010
0010
0110
0000
,
1000
0001
1000
0001
0100
0010
0100
0010
,
1000
0100
1000
0100
0010
0001
0010
0000
,
0001
0100
0001
0100
0010
1000
0010
1000
,
0001
0100
1000
0100
0010
0100
0020
0000
,
1030
0100
1000
0001
0100
0010
0100
0001
,
0010
0100
1000
0010
0100
0001
1000
0000
,
0001
0010
0100
1000
0010
0100
0001
1000
,
0001
0010
1000
0010
0100
0010
0001
0010
,
0002
0013
0021
0130
,
2100
0000
3010
0000
0100
0010
0100
0001
,
2000
3100
1200
0310
,
0012
0000
1003
0000
1000
0001
1000
0001
,
0200
0000
0010
0000
0310
1000
0010
0000
,
0200
0000
0001
0000
0301
1000
0001
0000
,
0010
0000
0001
0010
0000
0000
0100
0000
1000
0100
0000
0000
,
2000
3200
0320
0032
,
1003
0010
0100
0010
1000
0001
0010
0001
,
0100
0010
1000
0100
0010
0001
0010
1000
,
0010
0001
0100
0010
0100
1000
0100
0001
,
1000
0010
0001
1000
0100
0001
2000
0000
,
3001
0100
0010
1000
0010
0100
0001
0010
,
0100
1000
0010
0100
0001
0100
1000
0100
,
0010
1000
0010
0100
0001
1000
0100
1000
,
0010
0100
0010
0100
0001
1000
0001
0000
,
2020
0000
0030
3020
,
0200
0000
0030
0001
,
0002
0000
0000
0300
,
2000
0000
0000
3003
,
2200
0000
0300
0001
,
0002
3000
0000
0010
,
0020
0000
0000
0033
,
1000
0010
0001
0010
0100
0001
1000
0100
;

//---------------dance-single - ----------------
#NOTES:
     dance-single:
     :
     Hard:
     16:
     0.787774,1.323519,0.276908,0.268996,0.356024,697.000000,662.000000,35.000000,34.000000,0.000000,0.000000,0.787774,1.323519,0.276908,0.268996,0.356024,697.000000,662.000000,35.000000,34.000000,0.000000,0.000000:
// measure 0
0000
0000
0000
0000
,  // measure 1
0000
0000
0000
0000
,  // measure 2
0000
0000
0000
0000
,  // measure 3
0000
0000
0000
0000
,  // measure 4
0000
0000
0000
0000
,  // measure 5
1000
1000
1000
1000
0001
0001
0001
0001
,  // measure 6
0100
0100
0100
0100
0010
0010
0010
0010
,  // measure 7
1000
0000
0001
0000
1000
0000
0001
0000
0100
0010
0100
0010
0100
0010
0100
0010
,  // measure 8
2000
0000
0002
3003
,  // measure 9
0100
0010
1000
0000
0001
0000
0010
0000
0100
0000
1000
0000
0010
0000
0100
0000
,  // measure 10
0001
0010
0100
0000
1000
0000
0010
0000
0100
0000
0010
0000
1000
0000
0100
0000
,  // measure 11
0010
0001
1000
0000
0010
0000
0100
0000
0001
0000
0010
0000
0100
0000
0010
0000
,  // measure 12
0001
0000
0000
0000
1001
0000
0000
0000
0100
0000
0010
0000
0100
0001
0100
0001
,  // measure 13
1000
0010
1000
0010
1000
0100
1000
0100
,  // measure 14
1000
0001
1000
0001
1000
0100
1000
0010
,  // measure 15
0100
0000
0100
0000
0100
0000
0100
0000
0001
1000
0001
1000
0001
1000
0001
1000
,  // measure 16
0200
0010
0010
0310
0001
1000
1001
0000
,  // measure 17
0010
0100
0010
0100
0001
0010
0001
0010
,  // measure 18
0100
1000
0100
1000
0001
0001
1001
0000
,  // measure 19
1000
0010
1000
0010
0100
0001
0100
0001
,  // measure 20
0010
0000
0000
0000
1001
0000
0000
0000
0100
0000
0010
0000
0100
0010
0100
0010
,  // measure 21
1000
0100
0001
0100
1000
0100
0001
0100
,  // measure 22
0010
0001
0010
1000
0010
0001
0010
1000
,  // measure 23
0010
0000
0001
0010
0000
0000
0001
0000
1000
0100
0010
0001
,  // measure 24
0200
0010
0001
0310
,  // measure 25
2001
0000
0010
0010
0000
0100
0000
3002
,  // measure 26
0000
0010
0000
0100
0000
0013
0000
2001
,  // measure 27
0000
0010
0000
3010
,  // measure 28
0001
0010
0100
1000
,  // measure 29
0020
0000
0100
0100
0000
1000
0000
2030
,  // measure 30
0000
0001
0000
0100
0000
3001
0000
0012
,  // measure 31
0000
1000
0000
0013
,  // measure 32
0100
0000
1000
0000
0001
0000
0100
0000
0010
0100
0010
0000
0001
0000
0000
0000
,  // measure 33
0110
0000
1000
0010
0000
0100
0010
0000
,  // measure 34
0110
0000
0001
0010
0000
0001
1000
0100
,  // measure 35
1100
0000
0011
0000
1001
1000
0100
0000
,  // measure 36
0010
0100
1000
0001
0010
0001
0100
1000
,  // measure 37
0001
1010
0011
1010
,  // measure 38
1100
0101
1100
0101
,  // measure 39
0001
0001
1000
1000
0010
0010
0100
0100
,  // measure 40
0001
1000
0010
0100
0001
1000
0010
0100
0010
0000
0000
0000
1001
0000
0000
0000
,  // measure 41
0100
0000
0000
0000
0010
0000
1000
0000
0001
0000
0010
0001
0010
0000
0100
0000
1000
0000
0010
0000
0100
0000
0010
0000
1000
0000
0000
0000
1001
0000
0000
0000
,  // measure 42
0010
0000
0100
0000
0001
0000
0010
0000
0001
0000
1000
0100
1000
0000
0010
0000
0100
0000
0001
0000
0100
0000
0010
0000
1000
0000
0000
0000
0011
0000
0000
0000
,  // measure 43
1000
0000
0000
0000
0100
0000
0010
0000
0001
0000
1000
0010
1000
0000
0001
0000
0100
0000
0010
0000
1000
0000
0100
0000
1000
0000
0001
0000
0010
0000
0100
0000
,  // measure 44
0020
0000
0001
0000
0001
0000
0001
0000
0031
0000
1000
0010
0100
0000
0001
0000
0010
0000
0100
0000
1000
0000
0001
0000
0100
0001
1000
0001
0100
0000
0010
0000
,  // measure 45
0100
0000
0011
0000
1000
0100
1000
0000
,  // measure 46
0010
0000
1100
0000
0010
0001
0201
0000
,  // measure 47
0310
0000
1100
0000
0001
0100
0010
0100
,  // measure 48
0010
0000
1000
0000
0100
0000
1000
0000
0010
1000
0001
1000
0200
0000
0000
0000
,  // measure 49
0310
0000
0011
0000
0100
1000
0100
0010
,  // measure 50
0100
1000
0001
0100
0010
1000
0001
0010
,  // measure 51
0001
0001
1001
0000
0100
0010
1000
0010
,  // measure 52
0100
0000
0001
0000
0010
0000
0100
0000
1000
0001
1000
0001
1000
0000
0000
0000
,  // measure 53
0010
0100
0010
1000
0010
0001
0010
1000
,  // measure 54
0001
0000
0010
0000
0100
0000
1000
0000
0010
0100
0001
0000
1000
0000
0100
0000
,  // measure 55
1000
0010
0100
1000
0100
0010
0001
0010
,  // measure 56
1000
0000
0010
0000
0001
0000
0010
0000
0100
0010
0100
0000
0001
0000
0010
0000
,  // measure 57
0100
1000
0100
0010
0100
0001
0100
1000
,  // measure 58
0001
0000
0010
0000
0100
0000
1000
0000
0010
0100
0001
0000
1000
0000
0010
0000
,  // measure 59
0200
0010
0010
0310
1000
0001
1000
0100
,  // measure 60
0010
0100
1000
0001
0100
0001
1001
0000
,  // measure 61
0010
0100
1000
0010
0100
0001
0010
0100
,  // measure 62
1000
0010
0100
0010
1000
1000
1001
0000
,  // measure 63
0100
0010
0001
1000
0100
0010
0100
0001
,  // measure 64
1000
0000
0001
0000
0100
0000
0010
0000
1000
0001
1000
0001
2000
0000
0000
0000
,  // measure 65
3010
0001
0010
1000
0100
0001
0100
1000
,  // measure 66
0001
0010
0100
1000
0001
0001
0011
0000
,  // measure 67
1000
0000
0001
0000
1000
0000
0001
0000
0100
0010
0100
0010
1000
0000
0001
0000
,  // measure 68
2000
0000
0100
0000
0100
0000
3100
0000
0010
0000
0001
0000
0100
0010
0100
0000
,  // measure 69
0001
0010
1000
0001
0100
1000
0001
0010
,  // measure 70
0002
0000
0000
0000
0100
0000
0000
0000
1000
0000
1000
0000
1003
0010
0100
0000
,  // measure 71
0020
1000
1000
1030
0002
0100
0100
0103
,  // measure 72
0010
0100
1000
0010
0100
0001
0020
0000
,  // measure 73
0130
0000
1000
0000
0001
0000
0010
0000
1000
0000
0001
0000
0100
1000
0001
0000
,  // measure 74
0200
0010
0010
0310
1000
0001
0020
0000
,  // measure 75
0031
0000
1000
0100
0000
0000
0100
0000
1000
0001
0010
0100
,  // measure 76
0020
0000
0000
0000
0031
0000
0000
0000
1000
0000
0001
0000
0100
0010
0100
0000
,  // measure 77
0001
0100
1000
0100
0010
1000
0100
0010
,  // measure 78
0100
0000
1000
0000
0001
0000
0100
0000
0010
0100
0010
0000
1000
0000
0100
0000
,  // measure 79
0020
0001
0001
0031
1000
0200
1000
1300
,  // measure 80
0010
0000
0100
0000
0001
0000
1000
0000
0010
1000
0001
1000
0010
0000
0100
0000
,  // measure 81
0010
0100
0001
1000
0001
0010
0100
1000
,  // measure 82
0000
1100
0000
0001
1000
0100
0001
0100
,  // measure 83
1000
0000
0010
0000
1000
0000
0010
0000
0100
0010
0100
0010
0100
0001
0100
0001
,  // measure 84
2000
0000
0020
3030
,  // measure 85
0022
0000
0030
1000
,  // measure 86
2003
0000
0000
0010
0000
0000
3020
0000
,  // measure 87
0100
0000
0000
1000
0000
0000
1030
0001
,  // measure 88
0020
0001
0000
1000
0000
0001
0031
0000
,  // measure 89
2100
0000
0000
0001
0000
0000
3001
0000
,  // measure 90
0120
0000
0000
1000
0000
0000
0130
0000
,  // measure 91
1000
0100
0010
0001
0100
0010
0001
0010
,  // measure 92
1000
0010
1000
0010
0100
0001
0100
0001
1000
0001
0010
0100
1000
0010
0100
0001
;

//---------------dance-double - ----------------
#NOTES:
     dance-double:
     :
     Easy:
     7:
     0.327768,0.478259,0.047470,0.221526,0.000000,290.000000,284.000000,6.000000,28.000000,0.000000,0.000000,0.327768,0.478259,0.047470,0.221526,0.000000,290.000000,284.000000,6.000000,28.000000,0.000000,0.000000:
00000000
00000000
00000000
00000000
,
00000000
00000000
00000000
00000000
,
00000000
00000000
00000000
00000000
,
00000000
00000000
00000000
00000000
,
00000000
00000000
00000000
00000000
,
00001000
00001000
00010000
00010000
,
00000010
00000100
00000001
00000010
,
00001000
00010000
01000000
10000000
,
20020000
00000000
00000000
00000000
00000000
30030000
00000000
00000000
,
00100000
01000000
00010000
01000000
,
00100000
10000000
00010000
01000000
,
00001000
00010000
00000100
00001000
,
00000010
00000010
00000010
00000010
,
00000100
00000001
00000100
00001000
,
00000100
00000010
00010000
00001000
,
00100000
00010000
00100000
10000000
,
00100000
00100000
20020000
30030000
,
01000000
00001000
00100000
00010000
,
00100000
00001000
00010000
00000010
,
00000100
00000001
00001000
00000100
,
00010000
00000000
00001000
00000000
00010000
00001000
00010000
00000000
,
00001000
00100000
01000000
10000000
,
00010000
01000000
00001000
00100000
,
00000100
00010000
00001000
00010000
,
00000010
00001000
00000001
00000100
,
00000002
00000000
00000000
00000000
,
00000203
00000000
00000000
00000000
,
00002300
00000000
00000000
00000000
,
00023000
00000000
00000000
00000000
,
01030000
00000000
01000000
00000000
,
10000000
00000000
10000000
00000000
,
00010000
00000000
00100000
00000000
,
00001000
00000000
00010000
00000000
,
00001000
00000000
00000000
00001000
00000000
00000000
00001000
00000000
,
01000000
00000000
00000000
01000000
00000000
00000000
01000000
00000000
,
00100000
00000000
00000000
00100000
00000000
00000000
00100000
00000000
,
10000000
00000000
00000000
10000000
00000000
00000000
10000000
00000000
,
00010000
00100000
00010000
00100000
,
00001000
00010000
00001000
00010000
,
00000010
00001000
00000010
00001000
,
00000001
00000010
00000100
00002000
,
00003001
00000000
00000001
00000100
00000010
00000000
00010000
00000000
,
00001000
00000000
00001000
00100000
00010000
00000000
10000000
10000000
,
10000000
00000000
00100000
01000000
00010000
00000000
01000000
00000000
,
00001000
00010000
00001000
00000000
00010000
00000000
00001010
00000000
,
00000001
00000000
00000100
00000000
00000000
00000001
00000100
00000000
,
00000010
00000000
00001000
00000000
00000000
00000010
00001000
00000000
,
00000100
00000000
00010000
00000000
00000000
00001000
00010000
00000000
,
00001000
00100000
00010000
10000000
,
00100000
00000000
01000000
00000000
00000000
00100000
01000000
00000000
,
00010000
00000000
10000000
00000000
00000000
00010000
10000000
00000000
,
00001000
00100000
00000100
00010000
,
00000010
00000100
00000010
00001000
,
00000001
00000010
00000100
00000010
,
00000001
00001000
00000100
00000010
,
00000100
00010000
00001000
00100000
,
00010000
10000000
01000000
00010000
,
01000000
10000000
00100000
01000000
,
00010000
00100000
00001000
00010000
,
00000010
00000010
00000010
00000010
,
00001000
00000001
00000200
00000300
,
00000001
00001000
00000100
00001000
,
00000001
00010000
00000010
00000000
,
00010000
00001000
01000000
00001000
,
00100000
00010000
10000000
00000000
,
00100000
01000000
00010000
10000000
,
00001000
00100000
00010000
00000000
,
01000000
00001000
00010000
00000100
,
00001000
00000001
00000010
00000000
,
00000002
00000000
00002003
00000000
,
00003200
00000000
00010300
00000000
,
00002000
00000000
02003000
00000000
,
03200000
00000000
20300000
00000000
,
30020000
00000000
00100000
00000000
,
00230000
00000000
00301000
00000000
,
00010000
00001000
00010000
00000010
,
00001001
00000000
00000110
00000000
,
00000001
00001000
00000100
00010000
,
00001000
00100000
00010000
00000000
,
10000000
00100000
01000000
00001000
,
00010000
00000100
00001000
00000000
,
00000001
00000100
00000010
00001000
,
00000100
00010000
00001000
00100000
,
00010000
10000000
01000000
00100000
,
00010000
00001000
00000100
00000000
,
00000202
00000000
00000300
00000000
,
00002003
00000000
00000000
00000000
,
00003020
00000000
00000000
00000000
,
00020000
00000000
00030030
00000000
,
00002000
00000000
00000000
00000000
,
02003000
00000000
00000000
00000000
,
03200000
00000000
00000000
00000000
,
20300000
00000000
00000000
00000000
,
30000000
00000000
00000000
00000000
;

//---------------dance-double - ----------------
#NOTES:
     dance-double:
     :
     Medium:
     12:
     0.626150,0.881753,0.324377,0.245261,0.067249,554.000000,513.000000,41.000000,31.000000,0.000000,0.000000,0.626150,0.881753,0.324377,0.245261,0.067249,554.000000,513.000000,41.000000,31.000000,0.000000,0.000000:
00000000
00000000
00000000
00000000
,
00000000
00000000
00000000
00000000
,
00000000
00000000
00000000
00000000
,
00000000
00000000
00000000
00000000
,
00000000
00000000
00000000
00000000
,
00000010
00001000
00000010
00000000
00001000
00000001
00001000
00000000
,
00000100
00010000
00000100
00000000
00010000
00001000
00010000
00000000
,
00001000
00100000
00010000
10000000
00100000
01000000
00100000
00000000
,
20020000
00000000
00000000
00000000
00000000
30030000
00000000
00000000
,
01000000
00001000
00100000
00010000
10000000
00100000
01000000
00000000
,
00001000
00010000
00000010
00001000
00000001
00000010
00000100
00000000
,
00010000
00000100
00001000
00000100
00100000
00001000
00010000
00000000
,
00001000
00000000
00011000
00000000
00100000
00010000
10000000
00000000
,
01000000
00100000
01000000
00100000
00010000
01000000
00010000
01000000
,
00001000
00010000
00001000
00010000
00000010
00001000
00000010
00000000
,
00000100
00000001
00000100
00000001
00001000
00000010
00001000
00000010
,
00010000
00001000
00100000
00001000
00010000
00000100
00000000
00000000
,
00000101
00000000
00000010
00001000
00000100
00001000
00000010
00000000
,
00000100
00000001
00000010
00000100
00010000
00001000
00010000
00000000
,
00001000
00100000
00010000
10000000
00100000
10000000
01000000
00000000
,
10010000
00000000
01100000
00000000
00001000
00100000
00010000
00100000
,
00001000
00010000
00000100
00000000
00001000
00000001
00000010
00000000
,
00000001
00001000
00000100
00000000
00010000
00001000
00100000
00010000
,
01000000
00000000
00100000
10000000
00000000
00000000
00010000
00000000
00100000
01000000
00000000
00100000
,
00001000
00000000
00011000
00000000
00010000
00000010
00000100
00000000
,
00000002
00000000
00000010
00000010
00000000
00000013
00000000
00000100
,
00000000
00010000
00000000
00001000
00000000
01000000
00000000
02010000
,
00000000
00100000
00000000
03100000
,
22000000
00000000
00000000
33000000
,
10010000
00000000
00100000
01000000
00010000
00100000
00000000
00001000
,
00000000
00010100
00000000
00001000
00000000
00001010
00000000
00000012
,
00000000
00000100
00000000
00000103
,
00000010
00000000
00010000
00001000
00000000
00001000
00010000
00000000
,
00001100
00000000
00000001
00000010
00000000
00000001
00000010
00000000
,
00001010
00000000
00010000
00000100
00000000
00010000
00000100
00010000
,
00001000
00101000
01000000
01010000
,
00100000
10000000
00100000
01000000
00000000
00010000
00100000
01000000
,
10000000
10100000
01000000
01010000
,
00100000
00000000
00001000
00100000
00000000
00000100
00010000
00001000
,
00000100
00000001
00000010
00000100
00001000
00010000
00001000
00000000
,
00000010
00000001
00001000
00000100
00010000
00000000
00011000
00000000
,
00110000
00000000
10000000
00100000
10000000
00000000
00010000
00000000
01000000
00001000
00000000
00100000
00001000
00000000
00011000
00000000
,
00010000
00000000
00000010
00000100
00000010
00000000
00001000
00000000
00000001
00000010
00000000
00000100
00001000
00000000
00010100
00000000
,
00010000
00000000
00000010
00001000
00000100
00000000
00010000
00000000
00001000
00100000
00000000
00010000
01000000
00000000
00100000
00000000
,
10000000
00000000
01000000
00100000
01000000
00000000
10000000
00000000
00010000
01000000
00100000
01000000
00001000
00000000
00011000
00000000
,
00010000
00000000
00000010
00000100
00000000
00000100
00000001
00000000
,
00000011
00000000
00001000
00000100
00000000
00000100
00000010
00000001
,
00001000
00000100
00020000
00000000
00031000
00100000
00020000
00000000
,
10030000
00100000
01000000
00010000
10000000
01000000
00100000
00000000
,
00001000
00000000
00011000
00000000
01000000
00010000
01000000
00000000
,
00100000
00000000
10010000
00000000
01000000
00001000
00100000
00000000
,
00000100
00010000
00000100
00000000
00001000
00000001
00001000
00000000
,
00000010
00000100
00000001
00000010
00000100
00010000
00001000
00000000
,
00100000
00010000
10000000
00100000
00000000
01000000
00010000
10000000
,
00000000
10010000
00000000
00100000
00000000
00101000
00000000
00010000
,
00000100
00001000
00000001
00001000
00000100
00000010
00000001
00000000
,
00000100
00000010
00010000
00000100
00010000
00001000
00100000
00000000
,
00010000
10000000
00100000
10000000
01000000
00100000
00000000
00001000
,
00000000
00011000
00000000
01000000
00000000
01100000
00000000
00010000
,
10000000
01000000
10000000
00100000
01000000
00001000
00010000
00000100
,
00001000
00000001
00000100
00000010
00001000
00000001
00000020
00000000
,
00000031
00000100
00000010
00001000
00000001
00001000
00000100
00000000
,
00010000
00000100
00001000
00000010
00010000
00001000
01000000
00000000
,
00100000
10000000
01000000
10000000
00010000
00100000
00001000
00000000
,
00010000
00000100
00001000
00000001
00000010
00000001
00001000
00000000
,
00000001
00000010
00000100
00001000
00000010
00010000
00001000
00000000
,
00100000
00010000
10000000
00010000
01000000
00100000
10000000
00000000
,
00001000
00010000
00100000
01000000
00010000
10000000
01000000
00000000
,
00100000
00001000
00010000
00000100
00001000
00000001
00000010
00000000
,
00002001
00000010
00003002
00000103
,
00020010
00000000
00001000
00000000
00030010
00001000
00000100
00000000
,
00012000
00103000
00012000
01003000
,
00010000
10000000
00100000
00000000
10000000
01000000
00100000
00000000
,
00010000
10000000
01000000
10000000
00010000
00100000
00001000
00000000
,
00010000
00000010
00001000
00000100
00010000
00000001
00000010
00000000
,
00000001
00000000
00001000
00000100
00000000
00000000
00010000
00000000
00000010
00010000
00000000
00000000
,
00022000
00000000
00000000
00033000
,
00100000
00010000
10000000
00100000
01000000
00010000
10000000
00000000
,
00001000
00100000
00010000
00100000
00000010
00001000
00000100
00000000
,
00001000
00000010
00020000
00000000
00030100
00001000
00000002
00000000
,
00000103
00001000
00000100
00000010
00010000
00001000
00100000
00000000
,
00010000
10000000
00100000
10000000
01000000
00010000
01000000
00000000
,
10000000
00010000
00100000
00001000
00010000
00000010
00001000
00000000
,
00000001
00001000
00000100
00010000
00001000
00100000
00010000
10000000
,
00200000
00000000
01300000
00001000
,
00022000
00000000
00003000
00030010
,
00002020
00000000
00000030
00003001
,
00000012
00000000
00000000
00000103
,
00002020
00000000
00000000
00003030
,
00002200
00000000
00003000
00010300
,
00022000
00000000
00003000
00130000
,
00100000
01000000
00010000
10000000
01000000
00100000
00010000
00000000
,
01000000
00001000
00010000
00000010
00000100
00000001
00000010
00000100
;

//---------------dance-double - ----------------
#NOTES:
     dance-double:
     :
     Hard:
     16:
     0.803597,1.286754,0.292731,0.308554,0.387670,711.000000,674.000000,37.000000,39.000000,0.000000,0.000000,0.803597,1.286754,0.292731,0.308554,0.387670,711.000000,674.000000,37.000000,39.000000,0.000000,0.000000:
00000000
00000000
00000000
00000000
,
00000000
00000000
00000000
00000000
,
00000000
00000000
00000000
00000000
,
00000000
00000000
00000000
00000000
,
00000000
00000000
00000000
00000000
,
10000000
10000000
10000000
10000000
00010000
00010000
00010000
00010000
,
00100000
00100000
00100000
00100000
00001000
00001000
00001000
00001000
,
00010000
00000000
00000010
00000000
00000100
00000000
00000001
00000000
00001000
00000010
00010000
00000100
00010000
00001000
00100000
00001000
,
00020000
00000000
00000020
00030030
,
00001000
00000001
00000010
00000000
00000001
00000000
00001000
00000000
00000010
00000000
00010000
00000000
00001000
00000000
00100000
00000000
,
00010000
10000000
01000000
00000000
10000000
00000000
00100000
00000000
01000000
00000000
00001000
00000000
00100000
00000000
00010000
00000000
,
01000000
00001000
00010000
00000000
00000010
00000000
00001000
00000000
00000001
00000000
00001000
00000000
00000100
00000000
00000010
00000000
,
00000001
00000000
00000000
00000000
00001001
00000000
00000000
00000000
00000010
00000000
00010000
00000000
00001000
00010000
00001000
00010000
,
00000100
00000000
00100000
00010000
00100000
00000000
00010000
00000000
10000000
00000000
01000000
00100000
01000000
00000000
10000000
00000000
,
00010000
00000000
00100000
00001000
00100000
00000000
00000100
00000000
00010000
00000000
00000010
00000100
00000010
00000000
00001000
00000000
,
00000001
00000000
00000010
00000000
00000001
00000000
00000100
00000000
00000010
00001000
00000010
00001000
00000100
00010000
00000100
00010000
,
00001000
00010000
01000000
10000000
01000000
00100000
00110000
00000000
,
00001000
00010000
00000010
00001000
00000001
00001000
00000100
00000010
,
00000100
00010000
00001000
01000000
00100000
00100000
10100000
00000000
,
10000000
00010000
00100000
00001000
01000000
00010000
00001000
00000010
,
00001000
00000000
00000000
00000000
00000101
00000000
00000000
00000000
00000010
00000000
00000100
00000000
00000010
00001000
00000010
00001000
,
00000001
00000010
00000001
00001000
00000100
00010000
00001000
01000000
,
00100000
10000000
01000000
00010000
01000000
10000000
00100000
01000000
,
00001000
00000000
00010000
00000100
00000000
00000000
00001000
00000000
00000010
00000100
00000001
00000010
,
00000200
00010000
00001000
00010300
,
00001002
00000000
00000010
00000010
00000000
00000103
00000000
00002010
,
00000000
00003200
00000000
00010300
00000000
00001000
00000000
00012000
,
00000000
00100000
00000000
01003000
,
20020000
00000000
00000000
30030000
,
02100000
00000000
00001000
00001000
00000000
03010000
00000000
20100000
,
00000000
30020000
00000000
00100000
00000000
01030000
00000000
00201000
,
00000000
00000100
00000000
00301000
,
00010000
00000000
00001000
00000000
00010000
00000000
00000010
00000000
00000100
00000010
00000100
00000000
00000001
00000000
00000000
00000000
,
00000011
00000000
00001000
00000100
00000000
00001000
00000001
00000100
,
00000110
00000000
00000010
00010000
00000000
00001000
00100000
00001000
,
00010000
00000000
01001000
01000000
00010000
00100000
00010000
10000000
,
11000000
01010000
00110000
00101000
,
00010000
00000010
00001000
00000200
00000000
00001300
00000001
00001000
,
00000010
00000101
00000010
00001100
,
00010000
00001000
00100000
00010000
10000000
00100000
00010000
00100000
,
10000000
00010000
00100000
00010000
00100000
00001000
00010000
00001000
00010000
00000000
00000000
00000000
00001100
00000000
00000000
00000000
,
00000011
00000000
00000000
00000000
00000001
00000000
00001000
00000000
00000100
00000000
00010000
00001000
00010000
00000000
00001000
00000000
00100000
00000000
00010000
00000000
10000000
00000000
01000000
00000000
00200000
00000000
00000000
00000000
01300000
00000000
10000000
00000000
,
00010000
00000000
00100000
00000000
00001000
00000000
00010000
00000000
00000010
00000000
00000100
00000001
00000100
00000000
00000010
00000000
00001000
00000000
00000100
00000000
00001000
00000000
00000010
00000000
00010000
00000000
00000000
00000000
00101000
00000000
00000000
00000000
,
00001000
00000000
00000000
00000000
01000000
00000000
00100000
00000000
10000000
00000000
00010000
00100000
00001000
00000000
00010000
00000000
00001000
00000000
00100000
00000000
00010000
00000000
10000000
00000000
00100000
00000000
01000000
00000000
00001000
00000000
00010000
00000000
,
00000200
00000000
00000010
00000000
00000010
00000000
00000310
00000000
00000001
00000000
00000010
00000001
00001000
00000000
00000010
00000000
00010000
00000000
00000100
00000000
00010000
00000000
00001000
00000000
00100000
00000000
00001000
00000000
00011000
00000000
00000000
00000000
,
01001000
00000000
00010000
00100000
10000000
00100000
00010000
10000000
,
00100000
01000000
00001000
00010000
00000100
00001000
00000001
00000010
,
00001000
00000010
00000001
00000200
00000000
00000310
00001000
00000100
,
00000000
00010100
00000000
00010000
00001000
00100000
01000000
10000000
,
01000000
00000000
00100000
00000000
00001000
00000000
00010000
00000000
00000010
00000000
00000100
00000010
00000100
00000000
00000001
00000000
,
00001000
00000000
00000100
00000000
00010000
00000000
00001000
00000000
00100000
00000000
01000000
00100000
01000000
00000000
10000000
00000000
,
00010000
00010000
00110000
00000000
10000000
10000000
11000000
00000000
,
00001000
00000000
00010000
00000000
00001000
00000000
01000000
00000000
00001000
00010000
00000100
00010000
00002000
00000000
00000000
00000000
,
00013000
00000000
00000010
00000000
00000100
00000000
00000010
00000000
00001000
00000001
00000010
00000000
00000001
00000000
00001000
00000000
,
00000100
00000000
00010000
00000000
00000100
00000000
00001000
00000000
00000010
00010000
00001000
00000000
00010000
00000000
01000000
00000000
,
10000000
00000000
00100000
00000000
10000000
00000000
00010000
00000000
00100000
00001000
00010000
00000000
00000010
00000000
00000100
00000000
,
00000001
00000000
00001000
00000000
00000001
00000000
00000100
00000000
00000010
00000100
00000010
00000100
00000001
00000000
00001000
00000000
,
00000100
00000000
00010000
00000000
00000010
00000000
00010000
00000000
00001000
01000000
00010000
00000000
10000000
00000000
00100000
00000000
,
01000000
00000000
00100000
00000000
10000000
00000000
00010000
00000000
01000000
00001000
00010000
00000000
00001000
00000000
00010000
00000000
,
00000020
00000100
00000100
00000130
00000001
00001000
00000001
00000001
,
00001000
00000000
00000100
00000000
00001000
00000000
00000010
00000000
00010000
00001000
00100000
00001000
00020000
00000000
00000000
00000000
,
00030010
00000100
00000001
00001000
00000100
00100000
00001000
00010000
,
00001000
00100000
01000000
10000000
00010000
00010000
01010000
00000000
,
10000000
00100000
01000000
00001000
00010000
00100000
01000000
10000000
,
01000000
00000000
00010000
00000000
00100000
00000000
00001000
00000000
00010000
00001000
00010000
00001000
00020000
00000000
00000000
00000000
,
00030100
00001000
00000001
00000010
00000001
00001000
00000010
00010000
,
00000100
00000010
00001000
00010000
00001000
00001000
00101000
00000000
,
01000000
00100000
10000000
00010000
10000000
01000000
00100000
00010000
,
01000000
00100000
01000000
00000000
00001000
00010000
00001000
00000000
00010000
00000000
00000010
00000000
00000100
00000000
00000001
00000000
,
00000020
00000001
00000001
00000031
00002000
00000010
00000010
00003010
,
00000200
00000000
00001000
00000000
00001000
00000000
00000000
00000000
00000301
00000000
00001000
00000000
00000100
00010000
00001000
00000000
,
00200000
00001000
00001000
00301000
00020000
00000100
00000100
00030100
,
00100000
00001000
01000000
00010000
10000000
00100000
00200000
00000000
,
01300000
00010000
01000000
10000000
01000000
00100000
01100000
00000000
,
00001000
00010000
00000100
00001000
00000010
00010000
00010010
00000000
,
00000100
00000000
00000100
00001000
00000000
00000000
00000010
00000000
00000010
00010000
00001000
00100000
,
00020000
10000000
01000000
10030000
,
01000000
00000000
00100000
00000000
01000000
00000000
00001000
00000000
00010000
00000010
00001000
00000000
00000001
00000000
00000010
00000000
,
00000001
00000000
00000010
00000000
00001000
00000000
00000001
00000000
00000100
00010000
00001000
00000000
00010000
00000000
00001000
00000000
,
00200000
00010000
00010000
00310000
10000000
02000000
10000000
13000000
,
00100000
00000000
01000000
00000000
00001000
00000000
00010000
00000000
00000100
00001000
00000100
00001000
00000100
00000000
00000010
00000000
,
00000001
00000000
00001000
00000000
00000100
00000000
00010000
00000000
00001000
00100000
00010000
00000000
10000000
00000000
01000000
00000000
,
00010000
00000000
10000000
00000000
00100000
00000000
00010000
00000000
10000000
00010000
10000000
00000000
00100000
00000000
01000000
00000000
,
00001000
00000000
00010000
00000000
00000010
00000000
00001000
00000000
00000001
00000010
00000100
00001000
00000010
00000100
00001000
00010000
,
00002000
00000000
02000000
03003000
,
00220000
00000000
00300000
10030000
,
10200000
00000000
00000000
01000000
00000000
00000000
01300000
00000000
,
01002000
00000000
00000000
00010000
00000000
00000000
01003000
00000000
,
00020000
00000010
00000000
00000100
00000000
00000010
00030010
00000000
,
00001002
00000000
00000000
00000100
00000000
00000000
00000013
00000000
,
00001020
00000000
00000000
00010000
00000000
00000000
00001030
00000000
,
00000100
00010000
00001000
01000000
00010000
00100000
01000000
10000000
,
00010000
00100000
00010000
00100000
00001000
00010000
00001000
00010000
00000010
00000100
00000001
00001000
00000010
00010000
00001000
00010000
;
