#TITLE:Never Fade Away;
#SUBTITLE:;
#ARTIST:Sota Fujimori feat. dj MAX STEROID;
#TITLETRANSLIT:;
#SUBTITLETRANSLIT:;
#ARTISTTRANSLIT:;
#GENRE:IIDX HANDZ UP!!;
#CREDIT:;
#BANNER:Never Fade Away_banner.png;
#BACKGROUND:Never Fade Away.png;
#LYRICSPATH:;
#CDTITLE:;
#MUSIC:Never Fade Away.ogg;
#OFFSET:-0.430000;
#SAMPLESTART:66.760002;
#SAMPLELENGTH:15.000000;
#LASTBEATHINT:333.000000;
#SELECTABLE:YES;
#BPMS:0.000000=170.000000
;
#STOPS:
;
#BGCHANGES:;
#KEYSOUNDS:;
#ATTACKS:;

//---------------dance-single - ----------------
#NOTES:
     dance-single:
     :
     Easy:
     7:
     0.299565,0.332922,0.048206,0.096412,0.000000,261.000000,255.000000,6.000000,12.000000,0.000000,0.000000,0.299565,0.332922,0.048206,0.096412,0.000000,261.000000,255.000000,6.000000,12.000000,0.000000,0.000000:
0000
0000
0000
0000
,
0000
0000
0000
0000
,
0001
0010
0100
0000
,
1000
0010
0100
0000
,
0001
1000
0100
0000
,
1000
0001
0010
0000
,
0001
0100
0010
0000
,
1000
0100
0010
0000
,
0001
0000
1000
0000
0001
0000
0000
0100
,
0000
0010
0000
0200
0000
0000
0300
0000
,
0010
1000
0010
1000
,
0001
0100
0001
0000
,
1000
0100
1000
0100
,
0010
0001
0010
0000
,
0001
1000
0001
1000
,
0010
0100
0010
0000
,
1000
0100
0001
0100
,
1000
0100
0001
0000
,
0010
0001
0100
0010
,
1000
0100
1000
0000
,
0001
0100
0010
1000
,
0100
0010
0001
0000
,
1000
0010
0100
0010
,
1000
0001
0010
0001
,
0100
0001
0100
1000
,
0100
0010
0110
0000
,
0002
0000
0000
0003
,
0100
0000
0010
0000
,
2000
0000
3100
0000
,
0010
0000
0001
0000
,
2002
0000
0000
3003
,
0000
0000
0000
0000
,
0100
0000
0000
0010
,
0000
0000
0000
0000
,
1000
0100
1000
0010
,
0100
0010
0001
0000
,
0010
0100
0001
0010
,
0100
1000
0100
0000
,
0010
0001
1000
0100
,
1000
0010
0100
0000
,
0001
0100
1000
0100
,
0010
0001
0010
0000
,
2002
0000
3003
0000
,
0010
0100
0000
0100
,
0001
0000
0000
1000
0000
0000
0001
0000
,
1000
0100
0000
0100
,
0010
0000
0000
0001
0000
0000
0010
0000
,
0001
1000
0100
0010
,
0100
1000
0001
0000
,
0100
0010
1000
0010
,
0100
0001
0010
0000
,
0001
1000
0010
0100
,
0010
1000
0100
0000
,
1000
0000
0010
0000
0100
0000
0001
0100
,
0000
0100
0010
0000
,
1000
0100
0010
0001
,
0100
0010
1000
0000
,
0001
0000
0000
1000
0000
0001
0000
2002
,
0000
3003
0010
0000
,
1000
0010
0100
0001
,
2000
0000
3001
0000
,
0100
0000
0010
0000
0100
0000
0001
0010
,
0000
0001
1000
0000
,
0010
1000
0100
1000
,
0010
0100
0010
0000
,
0100
0001
0010
0001
,
0100
0010
0100
0000
,
0001
1000
0100
0001
,
0100
1000
0010
0000
,
0100
0001
0100
1000
,
0100
0010
1000
0000
,
0101
0001
0010
0100
,
1000
0100
0010
0000
,
0001
0100
0010
1000
,
0100
1000
0001
0000
,
0100
0010
1000
0001
,
0010
0100
1000
0000
,
0001
0000
1000
0001
0000
1000
0000
0010
,
0000
0100
0000
0220
0000
0000
0330
0000
,
0001
0000
0000
0010
0000
0000
0001
0000
,
1000
0000
0000
0100
0000
0000
1000
0000
,
0010
0000
0000
0100
0000
0000
0010
0000
,
1000
0000
0000
0001
0000
1000
0010
0100
;

//---------------dance-single - ----------------
#NOTES:
     dance-single:
     :
     Medium:
     12:
     0.537152,0.532676,0.345476,0.200858,0.032137,468.000000,425.000000,43.000000,25.000000,0.000000,0.000000,0.537152,0.532676,0.345476,0.200858,0.032137,468.000000,425.000000,43.000000,25.000000,0.000000,0.000000:
0000
0000
0000
0000
,
0000
0000
0000
0000
,
1001
0000
0010
0100
0000
0100
0000
0010
,
0000
0010
0000
0110
0000
1000
0001
0000
,
0011
0000
1000
0100
0000
1000
0010
0100
,
0000
0001
0000
0011
0000
1000
0100
1000
,
0010
0000
0010
0100
0000
0001
1000
0001
,
0000
1010
0000
1100
0000
0010
0001
1000
,
0001
0000
0001
0100
0000
0100
0010
1000
,
0000
1100
0000
0101
0000
0010
0010
0000
,
1000
0100
1000
0000
0001
0010
0100
0010
,
0001
0100
0001
0000
1000
0010
0100
0010
,
1000
0001
1000
0000
0001
0010
0100
1000
,
0010
0000
0000
0010
0000
0000
0020
0000
0000
0000
0100
0000
0130
0000
0000
0000
,
0001
1000
0100
0000
0010
0100
1000
0100
,
1000
0001
1000
0000
0010
0100
0010
1000
,
0001
0010
0001
0000
0100
0010
1000
0100
,
0010
0000
0000
0010
0000
0000
0010
0000
0001
0000
1000
0000
0100
0000
1000
0000
,
0001
0100
0001
0000
1000
0100
0010
0100
,
1000
0001
1000
0000
0001
0100
0010
0100
,
0001
1000
0001
0000
0010
0100
1000
0100
,
0010
0000
0000
0001
0000
0000
2002
0000
0000
0000
3003
0000
0100
0000
0000
0000
,
0010
1000
0001
0000
0010
0100
1000
0001
,
0010
0001
1000
0000
0010
0100
0001
1000
,
0001
0010
0100
0000
0010
0100
1000
0001
,
0100
0000
0000
0100
0000
0000
0200
0000
0000
0000
0010
0000
0310
0000
0000
0000
,
2000
0000
0000
0000
,
3200
0000
2300
0000
,
3002
0000
0023
0000
,
0230
0000
0320
0000
,
0032
0000
0000
0000
,
2000
0000
3003
0000
,
0120
0000
0000
2000
,
0000
0000
0000
3030
,
0100
0001
0100
0000
0010
1000
0010
0100
,
0001
0010
0001
0000
1000
0100
0010
0100
,
1000
0001
1000
0000
0001
0010
0100
0010
,
0001
1000
0001
0000
0220
0000
0330
0000
,
1000
0001
1000
0000
0010
0100
0001
0100
,
0010
1000
0010
0000
1000
0001
0010
0100
,
1000
0001
0100
0000
0010
1000
0001
0010
,
0001
0010
0100
1000
0001
0000
1001
0000
,
0100
0000
0000
0010
0000
0000
0220
0000
0000
0000
0000
0000
0330
0000
0000
0000
,
1000
0010
0010
0000
0100
0001
0010
0100
,
1000
0100
0100
0000
1000
0001
1000
0010
,
0100
0001
0001
0000
0010
0001
1000
0100
,
0010
0000
0000
0100
0000
0000
0220
0000
0000
0000
0000
0000
0330
0000
0000
0000
,
0001
0100
0010
0100
0000
0001
1000
0100
,
0000
0100
1000
0010
0000
0100
0010
0000
,
1010
0000
0100
0001
0000
1000
0100
0010
,
0000
0010
0100
1000
0000
0001
0001
0000
,
0101
0000
0010
1000
0000
0001
0010
0100
,
0000
1000
0010
0100
0000
0000
0001
1000
,
0001
0000
0110
0000
0100
0010
1000
0001
,
0000
0011
0000
1100
0000
1000
0010
0000
,
0100
0001
0010
0001
0000
1000
0100
1000
,
0000
0001
0010
0100
0000
1000
0001
0000
,
1001
0000
0100
0010
0000
0010
0000
0220
,
0000
0000
0330
0000
1000
0000
0001
0010
,
0001
1000
0100
0000
1000
0010
0100
0001
,
0000
0001
0010
0001
1000
0100
0010
0100
,
1000
0000
0101
0000
0010
0100
0010
2000
,
0000
0001
0000
0001
0000
0000
3001
0000
,
0110
0000
0100
0001
0000
0011
0000
1000
,
0000
1000
0010
0000
0100
0010
1000
0000
,
1001
0000
0010
0100
0000
0001
0000
0011
,
0000
1100
0000
0011
0000
1000
0010
0000
,
0101
0000
0010
1000
0000
0010
0000
1000
,
0000
1000
0100
0000
0010
0000
0011
0000
,
1000
0000
1000
0010
0000
0100
0000
1001
,
0000
0110
0000
1001
0000
0000
1001
0000
,
0100
0010
1000
0010
0000
0100
0000
0001
,
0000
0001
0010
0001
1000
0000
1100
0000
,
1000
0010
0100
0010
0000
1000
0000
0001
,
0000
0011
0000
1001
0000
0100
0010
0100
,
0001
0000
1000
0100
0000
1000
0000
0010
,
0000
0100
0010
0000
0110
0000
0001
0000
,
1000
0000
0010
1000
0000
1001
0000
0101
,
0000
1010
0000
1200
0000
0000
1300
0000
,
1000
0010
0010
0000
0100
0001
1000
0100
,
0010
0000
0000
0010
0000
0000
0010
0000
0001
0000
1000
0000
0001
0000
0100
0000
,
0010
0100
0100
0000
0001
0010
0100
1000
,
0010
0000
0000
0010
0000
0000
0110
0000
0000
0000
0001
0000
1000
0000
0010
0000
;

//---------------dance-single - ----------------
#NOTES:
     dance-single:
     :
     Hard:
     14:
     0.734567,0.766876,0.642746,0.176755,0.297270,640.000000,560.000000,80.000000,22.000000,0.000000,0.000000,0.734567,0.766876,0.642746,0.176755,0.297270,640.000000,560.000000,80.000000,22.000000,0.000000,0.000000:
// measure 0
0000
0000
0000
0000
,  // measure 1
0000
0000
0000
0000
,  // measure 2
0101
0000
0100
0010
1000
0010
0000
0101
,  // measure 3
0000
0000
1100
0000
0000
0000
1010
0000
0000
0000
1000
0000
0001
0000
0010
0001
,  // measure 4
0010
0000
0001
1001
0000
0010
0100
0101
,  // measure 5
0000
1010
0000
0012
0000
1003
0010
0100
,  // measure 6
0001
0010
0001
1000
0000
0010
1000
0100
,  // measure 7
0000
0000
0101
0000
0000
0000
1100
0000
0000
0000
0010
0000
0001
1000
0001
0000
,  // measure 8
1000
0000
0010
0110
0000
0001
1000
1010
,  // measure 9
0000
0000
0011
0000
0000
0000
1001
0000
0000
0000
0100
0000
0010
0000
0100
0001
,  // measure 10
1000
0000
0010
0000
1000
0010
1000
0000
0001
0100
0001
0000
1000
0010
1000
0000
,  // measure 11
0001
0000
0010
0000
0001
1000
0001
0000
0100
0010
0100
0000
0001
0000
0010
0000
,  // measure 12
0100
0000
1000
0000
0100
0010
0100
0000
0001
1000
0001
0000
0100
0000
0010
0000
,  // measure 13
1010
0000
0000
0011
0000
0000
0120
0000
0000
0000
0031
0000
1000
0000
0001
0000
,  // measure 14
0100
0000
0010
0000
1000
0010
1000
0000
0001
0010
0001
0000
1000
0100
1000
0000
,  // measure 15
0010
0000
0100
0000
0001
0100
0001
0000
1000
0100
1000
0000
0001
0000
0010
0000
,  // measure 16
0001
0000
0100
0000
0010
0100
0010
0000
1000
0100
1000
0000
0100
0000
0010
0000
,  // measure 17
0001
0000
0000
0011
0000
0000
1100
0000
0000
0000
1000
0000
0100
0000
0001
0000
,  // measure 18
0100
0000
1000
0000
0001
0100
0001
0000
0010
0001
0010
0000
0001
0000
1000
0000
,  // measure 19
0010
0000
0100
0000
0001
0010
0001
0000
1000
0010
1000
0000
0010
0000
0100
0000
,  // measure 20
0010
0000
1000
0000
0100
1000
0100
0000
0010
0000
0001
0000
0100
0000
0010
0000
,  // measure 21
1010
0000
0000
0110
0000
0000
0102
0000
0000
0000
1003
0000
0010
0000
1000
0000
,  // measure 22
0001
0000
0010
0000
0001
1000
0010
0000
1000
0000
0100
0000
1000
0001
0100
0000
,  // measure 23
0010
0000
1000
0000
0001
1000
0100
0000
1000
0000
0010
0000
1000
0001
0100
0000
,  // measure 24
0010
0000
0100
0000
0001
0010
0001
0000
1000
0000
0010
0000
0100
0001
0100
0000
,  // measure 25
0010
0000
0000
1010
0000
0000
0210
0000
0000
0000
0301
0000
1000
0001
1000
0001
,  // measure 26
0020
0000
0000
0000
,  // measure 27
0032
0000
2003
0000
,  // measure 28
3200
0000
0302
0000
,  // measure 29
0023
0000
0031
0000
,  // measure 30
2002
0000
0000
0000
,  // measure 31
0000
0000
3003
0000
,  // measure 32
0020
0000
0000
0200
,  // measure 33
0000
0000
0000
0000
0000
0330
0000
0000
,  // measure 34
1000
0100
1000
0000
0001
0000
0100
0010
0100
0000
0001
0000
0010
0000
0001
0000
,  // measure 35
0010
0001
0010
0000
0001
0000
1000
0100
1000
0000
0010
0000
0100
0000
0010
0000
,  // measure 36
1000
0001
1000
0000
0001
0000
0100
0010
0100
0000
0001
0000
0010
0000
0100
0000
,  // measure 37
0010
0001
1000
0100
1000
0001
0010
1000
,  // measure 38
0010
0001
0010
0000
0001
0000
1000
0001
1000
0000
0010
0000
0100
0000
0010
0000
,  // measure 39
1000
0100
1000
0000
0010
0000
0100
0001
0100
0000
0001
0000
0010
0000
0001
0000
,  // measure 40
0100
0010
0100
0000
0001
0000
1000
0010
1000
0000
0100
0000
0010
0000
0001
0000
,  // measure 41
1000
0010
0001
0010
0100
0010
0110
0000
,  // measure 42
1001
0000
0000
1100
0000
0000
0202
0000
0000
0000
0000
0000
0303
0000
0000
0000
,  // measure 43
0010
0000
0100
0010
0100
0000
0010
0000
1000
0000
0100
0000
0001
0000
0100
0000
,  // measure 44
1000
0010
0001
0010
0100
0100
0100
0000
,  // measure 45
0000
0000
0001
0010
0001
0000
1000
0000
0010
0000
0100
0000
0010
0000
1000
0000
,  // measure 46
0001
0000
0000
0011
0000
0000
1100
0000
0000
0000
0001
0000
0100
0000
0000
0000
,  // measure 47
0100
0010
1000
0001
0000
0010
0001
1001
,  // measure 48
0000
0100
0010
0120
0000
1000
1030
0000
,  // measure 49
0101
0000
0001
1100
0000
1000
0001
0120
,  // measure 50
0000
0000
1000
0000
0001
0100
0130
0000
,  // measure 51
0001
0000
1000
0000
0010
0100
0010
0100
0010
0000
1000
0000
0001
0000
0010
0000
,  // measure 52
0000
0100
1000
1001
0000
0000
0010
0110
,  // measure 53
0100
0000
0011
0000
1000
0010
0001
0011
,  // measure 54
0000
0000
1010
0000
0000
0000
0101
0000
0000
0000
1000
0000
0100
0000
0010
0100
,  // measure 55
1000
0000
0001
0000
0010
0000
0001
0000
1000
0000
0010
0000
0100
0000
0010
1000
,  // measure 56
0001
0010
0100
0010
0001
1000
0100
0000
,  // measure 57
1001
0000
1001
0101
0000
1010
0000
0012
,  // measure 58
0000
0000
1003
0000
1000
0100
0010
0100
,  // measure 59
1000
0000
0001
0000
0100
0000
0010
0000
0100
0000
0001
1000
0001
0000
0020
0000
,  // measure 60
0000
0130
1000
0100
0001
0100
1000
0010
,  // measure 61
0100
0000
0101
0001
1000
1010
0000
1001
,  // measure 62
0000
0000
0100
0000
0100
0000
0010
0000
0100
0000
0010
0000
1000
0001
1000
0000
,  // measure 63
0001
0010
1000
1010
0000
0010
0001
0101
,  // measure 64
0000
0001
0100
1000
0100
0001
1001
0000
,  // measure 65
1000
0100
0001
0101
0000
0001
0100
1100
,  // measure 66
0000
1000
0010
0100
0010
1000
1001
0000
,  // measure 67
0001
0100
1000
1100
0000
0100
0001
0011
,  // measure 68
0000
0001
0010
1000
0010
0001
1001
0000
,  // measure 69
0110
0000
0110
1010
0000
0101
0000
0011
,  // measure 70
0000
0000
0110
0000
0000
0000
2100
0000
0000
0000
3001
0000
0010
0000
0100
0010
,  // measure 71
0100
0000
1000
0000
0001
0000
1000
0010
0000
0010
1000
0000
0001
0000
0100
0000
,  // measure 72
0001
0000
0010
0000
0001
1000
0000
1000
0010
0000
0100
0000
0110
0000
0000
0000
,  // measure 73
1000
0000
0100
0000
0010
0000
0100
1000
0000
1000
0001
0000
0010
0000
0001
0000
,  // measure 74
0000
1001
0000
0110
0000
0010
1000
0001
,  // measure 75
0010
0000
0001
0000
1000
0000
0010
0100
0000
0100
0001
0000
0010
0000
0100
0000
,  // measure 76
1000
0000
0100
0000
0010
0100
0000
0100
0010
0000
0001
0000
1000
0000
0001
0000
,  // measure 77
0011
0000
0011
0101
0000
1100
0000
1010
,  // measure 78
0000
0000
0011
0000
0000
0000
1001
0000
0000
0000
0100
0000
0010
0000
1000
0001
,  // measure 79
1000
0000
0001
0010
0100
0000
1000
0000
0010
0000
0100
0000
0001
0000
1000
0000
,  // measure 80
0100
0000
0000
1100
0000
0000
0110
0000
0001
0000
0001
0000
0002
0000
0000
0000
,  // measure 81
1003
0000
0010
0100
0001
0000
1000
0000
0100
0000
0001
0000
0100
0000
1000
0000
,  // measure 82
0010
0000
0000
0110
0000
0000
0101
0000
0000
0000
1000
0010
0100
0000
0001
1000
,  // measure 83
0100
0000
0000
0000
;
