#TITLE:なつやすみのぼうけん;
#SUBTITLE:;
#ARTIST:5年3組アンサンブルクラブ;
#TITLETRANSLIT:Natsuyasumi no bouken;
#SUBTITLETRANSLIT:;
#ARTISTTRANSLIT:5-nen 3-kumi ensamble club;
#GENRE:夏休み;
#CREDIT:;
#BANNER:Natsuyasumi no bouken_banner.png;
#BACKGROUND:Natsuyasumi_no_bouken.png;
#LYRICSPATH:;
#CDTITLE:;
#MUSIC:Natsuyasumi no bouken.ogg;
#OFFSET:-1.300000;
#SAMPLESTART:61.389999;
#SAMPLELENGTH:12.000000;
#LASTBEATHINT:285.000000;
#SELECTABLE:YES;
#BPMS:0.000000=142.000000
,16.000000=144.000000
,184.000000=90.000000
,188.000000=124.000000
,200.000000=125.999992
,204.000000=128.000000
,208.000000=124.000000
,216.000000=132.000000
,224.000000=135.000000
,232.000000=140.000000
,236.000000=141.000000
,240.000000=142.000000
,244.000000=143.000000
,248.000000=144.000000
,252.000000=145.000000
,256.000000=146.000000
,260.000000=147.000000
,264.000000=148.000000
,272.000000=152.000000
,280.000000=110.000000
;
#STOPS:279.750000=0.395000
;
#BGCHANGES:;
#KEYSOUNDS:;
#ATTACKS:;

//---------------dance-single - ----------------
#NOTES:
     dance-single:
     :
     Easy:
     5:
     0.181112,0.234913,0.059661,0.067118,0.000000,170.000000,162.000000,8.000000,9.000000,0.000000,0.000000,0.181112,0.234913,0.059661,0.067118,0.000000,170.000000,162.000000,8.000000,9.000000,0.000000,0.000000:
// measure 0
0000
0000
0000
0000
,  // measure 1
0000
0000
0000
0000
,  // measure 2
0000
0000
0000
0000
,  // measure 3
0010
0000
0100
0000
,  // measure 4
0020
0000
0030
0000
,  // measure 5
0000
0000
0000
0000
,  // measure 6
2000
0000
3000
0000
,  // measure 7
0001
0000
0100
0000
,  // measure 8
0001
0000
1000
0000
,  // measure 9
0001
0000
1001
0000
,  // measure 10
0100
0000
0010
0000
,  // measure 11
0100
0000
0010
0000
,  // measure 12
1000
0000
0001
0000
,  // measure 13
0001
0010
0001
0000
,  // measure 14
1000
0010
1000
0000
,  // measure 15
0001
0010
0100
0000
,  // measure 16
0010
0100
1000
0000
,  // measure 17
1000
0010
0100
0000
,  // measure 18
0010
0100
0001
0000
,  // measure 19
0001
1000
0100
0000
,  // measure 20
1000
0001
0100
0000
,  // measure 21
0010
1000
0001
0000
,  // measure 22
1000
0001
0010
0000
,  // measure 23
0001
0010
0100
0000
,  // measure 24
0010
0100
2000
3001
,  // measure 25
0000
0000
0000
0000
,  // measure 26
0010
0000
0010
0100
,  // measure 27
0010
0000
1000
0100
,  // measure 28
0020
0000
0000
0000
0000
0030
0000
0000
,  // measure 29
2000
0000
0000
0000
0000
3000
0000
0000
,  // measure 30
0001
0100
0001
0000
,  // measure 31
0001
0010
0001
0000
,  // measure 32
1000
1000
1100
0000
,  // measure 33
0001
0001
0011
0000
,  // measure 34
1000
0000
0001
0010
,  // measure 35
0001
0000
1001
0000
,  // measure 36
0110
0000
0010
0000
,  // measure 37
1000
0000
1000
0001
,  // measure 38
0010
0000
0010
0001
,  // measure 39
0100
0010
1000
0000
,  // measure 40
0110
0000
1000
0000
,  // measure 41
0001
0010
0001
0000
,  // measure 42
0200
0000
0300
0000
,  // measure 43
0020
0000
0030
0000
,  // measure 44
1000
0000
0001
0000
,  // measure 45
0010
0100
0010
0100
,  // measure 46
0000
0000
0000
0000
,  // measure 47
0001
0000
0001
0000
,  // measure 48
1000
0000
0100
0000
,  // measure 49
1000
0010
1000
0000
,  // measure 50
0001
0000
0100
0000
,  // measure 51
0010
0000
1000
0000
,  // measure 52
1002
0000
0103
0000
,  // measure 53
2001
0000
3100
0000
,  // measure 54
0010
0001
0010
0000
,  // measure 55
0001
0100
0001
0000
,  // measure 56
1000
0010
1000
0000
,  // measure 57
1000
0100
1000
0000
,  // measure 58
0001
0000
0001
0010
,  // measure 59
0100
1000
0001
0000
,  // measure 60
1000
0000
0010
0000
,  // measure 61
1000
0010
0100
0001
,  // measure 62
0010
0000
0100
0000
,  // measure 63
1000
0000
0001
0000
,  // measure 64
1000
0000
0010
0000
,  // measure 65
0100
0000
0001
0000
,  // measure 66
0010
0001
0010
0000
,  // measure 67
0100
1000
0100
0000
,  // measure 68
1000
0000
0001
0000
,  // measure 69
1000
0001
1000
0001
,  // measure 70
0010
0000
0000
0000
;

//---------------dance-single - ----------------
#NOTES:
     dance-single:
     :
     Hard:
     13:
     0.574233,0.552046,0.275930,0.298303,0.212541,539.000000,502.000000,37.000000,40.000000,0.000000,0.000000,0.574233,0.552046,0.275930,0.298303,0.212541,539.000000,502.000000,37.000000,40.000000,0.000000,0.000000:
// measure 0
0000
0000
0000
0000
,  // measure 1
0000
0000
0000
0000
,  // measure 2
0000
0000
0000
0000
,  // measure 3
1002
0013
2100
3001
,  // measure 4
0100
0000
0010
1000
0010
0000
0100
0000
0001
0000
0010
0001
0010
0000
0100
0000
,  // measure 5
1000
0000
0001
0010
0001
0000
1000
0000
0001
0000
0100
0000
0010
0000
1000
0000
,  // measure 6
0100
0000
0010
0100
1000
0000
0001
0000
0100
0000
0010
1000
0001
0000
1000
0000
,  // measure 7
0010
0000
0100
0001
1000
0000
0001
0000
0010
0000
0100
0000
1000
0000
0010
0000
,  // measure 8
0100
0100
0010
0010
1000
1000
0001
0001
,  // measure 9
1000
0000
0010
0100
0010
0000
1000
0000
0001
0000
0010
0000
0100
0000
1000
0000
,  // measure 10
0001
0010
2000
0000
3001
0100
2000
0000
,  // measure 11
3010
1000
0001
0000
0220
0000
0330
0000
,  // measure 12
1000
0000
0001
0000
0100
0000
0010
1000
0001
0000
0000
0000
1001
0000
0000
0000
,  // measure 13
0010
0101
0000
0011
1000
1100
0000
1001
,  // measure 14
0010
1010
0000
1100
0001
0011
0000
1001
,  // measure 15
0100
0010
1000
0001
0010
0000
0010
0001
,  // measure 16
1000
0000
0010
0100
0010
0000
1000
0000
0002
0000
0000
0000
0013
0000
0100
0000
,  // measure 17
1000
0100
0001
0100
2000
0000
3001
0100
,  // measure 18
1000
0000
0100
0000
0001
0000
1000
0000
0100
0000
0010
0100
0010
0000
0001
0000
,  // measure 19
0010
1000
0010
0001
2000
0000
3001
0010
,  // measure 20
1000
0000
0010
0000
0001
0000
0010
0000
1000
0000
0010
0001
0010
0000
0001
0000
,  // measure 21
0100
0010
1000
0010
0210
0000
0301
0010
,  // measure 22
0001
0000
1000
0000
0100
0000
0010
0000
0001
0000
1000
0001
1000
0000
0010
0000
,  // measure 23
0100
1000
0100
0010
0120
0000
1030
0001
,  // measure 24
1000
0000
0100
0010
0100
0000
1000
0000
0001
0000
0100
0000
1001
0000
0000
0000
,  // measure 25
0000
0000
0010
1000
0010
0000
0100
0000
0010
0000
0010
0000
1010
0000
0000
0000
,  // measure 26
1000
0100
0010
0001
0200
0000
0010
0310
,  // measure 27
0020
0000
1000
1000
2030
0000
3100
0010
,  // measure 28
0001
1000
0001
0010
0100
1000
0010
0100
,  // measure 29
0001
0000
0010
0001
0010
0000
0100
0000
1000
0001
1000
0000
0010
0000
0100
0000
,  // measure 30
0001
0001
0010
0001
0002
0000
1003
1000
,  // measure 31
0100
1000
1000
0010
0100
0010
0010
1000
,  // measure 32
0001
0010
0012
0000
0100
0100
0103
0010
,  // measure 33
1000
0100
2100
0000
0010
0010
3010
0100
,  // measure 34
0010
1000
0100
0010
0000
0001
1000
0010
,  // measure 35
0000
0000
0010
0000
0100
0000
0001
0000
1000
0000
0001
1000
0001
0000
0000
0000
,  // measure 36
1200
0000
0310
0001
0012
0000
1003
0010
,  // measure 37
2010
0000
3001
0100
0201
0000
0310
1000
,  // measure 38
1020
0000
1030
0100
0001
0100
1000
0010
,  // measure 39
0100
0001
0010
0000
0201
0000
0310
1000
,  // measure 40
2010
0000
3001
0010
0012
0000
1003
0100
,  // measure 41
2100
0000
3001
0100
0201
0000
0310
1000
,  // measure 42
0001
0000
1000
0100
1000
0000
0010
0000
0100
0010
0100
0000
0002
0000
0000
0000
,  // measure 43
0013
0000
0001
1000
0001
0000
0010
0000
0100
0010
0100
0000
0020
0000
0000
0000
,  // measure 44
0130
0000
1000
0001
1000
0000
0010
0000
0100
0001
0100
0000
0010
0000
1000
0000
,  // measure 45
0100
0001
0100
1000
0010
0001
0200
2000
,  // measure 46
0000
3300
0000
0000
0000
0000
0000
0000
0000
0000
0000
0000
0000
0000
0000
0000
,  // measure 47
0110
0101
2010
3100
,  // measure 48
0010
0001
1100
0000
1000
0010
0011
0000
,  // measure 49
0100
1000
0001
1000
0100
0000
0110
0000
,  // measure 50
1200
0310
0012
1003
,  // measure 51
0010
1000
0100
1000
0001
0010
0100
0000
,  // measure 52
1000
0100
0010
0100
1000
0000
0001
0100
,  // measure 53
0010
0100
0001
1000
0200
0000
0000
0000
,  // measure 54
1300
0000
0001
1000
0001
0000
1000
0000
0010
0000
0100
0001
0100
0000
0010
0000
,  // measure 55
1000
0000
0001
0010
0001
0000
0100
0000
0001
0000
0010
0000
0100
0000
1000
0000
,  // measure 56
0010
0000
1000
0100
1000
0000
0001
0000
0010
0000
0001
0100
0001
0000
0010
0000
,  // measure 57
0001
0000
1000
0100
1000
0000
0001
0000
1000
0000
0010
0000
0100
0000
0001
0000
,  // measure 58
0010
0000
0001
1000
0001
0000
1000
0000
0010
0000
0100
0001
0100
0000
0010
0000
,  // measure 59
1000
0001
0000
0100
0000
0010
0000
1000
0000
0100
0000
0010
0000
0001
0000
1000
,  // measure 60
0010
0000
1000
0100
1000
0000
0001
0000
0010
0000
0001
0100
0001
0000
1000
0000
,  // measure 61
0010
1000
0000
0001
0000
0010
0000
0100
0000
1000
0000
0100
0000
0010
0000
0001
,  // measure 62
1000
0000
0010
0100
0020
0000
0000
0000
1030
0000
0001
0000
0010
0000
0100
0000
,  // measure 63
1000
0000
0001
0010
0002
0000
0000
0000
1003
0000
0100
0000
0001
0000
0100
0000
,  // measure 64
1000
0000
0001
1000
0002
0000
0000
0000
1003
0000
0010
0000
0001
0000
0010
0000
,  // measure 65
1000
0000
0001
1000
0001
0000
0000
0000
0001
0000
0100
0000
1000
0000
0100
0000
,  // measure 66
0001
0000
0010
0001
1000
0000
0000
0000
0100
0000
1000
0000
0001
0000
1000
0000
,  // measure 67
0010
0000
0100
0001
1000
0000
0000
0000
0010
0000
0100
0000
0001
0000
0010
0000
,  // measure 68
0001
0001
0010
0010
0100
0100
1000
1000
,  // measure 69
0010
0000
0100
0001
1000
0000
0001
0000
1000
0000
0100
0000
0010
0000
0001
1000
,  // measure 70
0220
0000
0330
0000
;

//---------------dance-single - ----------------
#NOTES:
     dance-single:
     :
     Medium:
     8:
     0.295107,0.339319,0.119321,0.208812,0.000000,277.000000,261.000000,16.000000,28.000000,0.000000,0.000000,0.295107,0.339319,0.119321,0.208812,0.000000,277.000000,261.000000,16.000000,28.000000,0.000000,0.000000:
// measure 0
0000
0000
0000
0000
,  // measure 1
0000
0000
0000
0000
,  // measure 2
0000
0000
0000
0000
,  // measure 3
1000
0001
1000
0001
,  // measure 4
0110
0000
1000
0010
,  // measure 5
1000
0000
0001
0000
0010
0001
1000
0000
,  // measure 6
0010
1000
0001
0100
,  // measure 7
0001
0000
1000
0000
0100
1000
0001
0000
,  // measure 8
0020
0000
0030
0001
,  // measure 9
1000
0000
0001
0010
0100
0000
1000
0000
,  // measure 10
0020
0130
0200
0310
,  // measure 11
1000
0001
1001
0000
,  // measure 12
0010
0000
0001
1100
,  // measure 13
0000
0001
0000
0011
0000
1000
0000
1010
,  // measure 14
0000
0100
0000
0110
0000
0010
0000
1000
,  // measure 15
0001
0000
0010
0100
1000
0000
0010
0000
,  // measure 16
1000
0000
0010
0100
0001
0000
1000
0000
,  // measure 17
0001
0000
0010
0100
0010
0000
0001
0000
,  // measure 18
1000
0000
0010
0100
0010
0000
1000
0000
,  // measure 19
0001
0000
1000
0100
1000
0000
0001
0000
,  // measure 20
0010
0000
0001
0100
0002
0000
0003
0000
,  // measure 21
0010
0000
0001
1000
0001
0000
0100
0000
,  // measure 22
0010
0000
0100
0010
0100
0000
0001
0000
,  // measure 23
1000
0000
0010
0100
0010
0000
1000
0000
,  // measure 24
0100
0000
0100
0000
0010
0100
0020
0000
,  // measure 25
0030
0000
0000
0000
,  // measure 26
0001
0000
1000
0100
2000
0000
0000
0000
,  // measure 27
3002
0000
0000
0000
0103
0000
0010
0100
,  // measure 28
0020
0000
0000
0000
0000
0030
0000
0000
,  // measure 29
0100
0000
0010
1000
0100
0000
0010
0000
,  // measure 30
0001
0000
0001
1000
0100
0000
1000
0010
,  // measure 31
0100
0000
0001
0000
1000
0001
1000
0000
,  // measure 32
0010
0100
0020
0000
0000
0000
1030
0000
,  // measure 33
1000
0100
2000
0000
0000
0000
3001
0000
,  // measure 34
0002
0000
0023
0000
,  // measure 35
0230
0000
1300
0001
,  // measure 36
1001
0000
0000
0100
0010
0000
0000
1000
,  // measure 37
0100
0000
0000
0010
0001
0000
0000
0001
,  // measure 38
0100
0000
0000
0100
0010
0100
0001
0000
,  // measure 39
1000
0100
2200
3300
,  // measure 40
0010
0000
0000
0001
0010
0000
0000
0100
,  // measure 41
1000
0000
0000
0010
1000
0000
0000
0001
,  // measure 42
0100
0000
0000
0010
0000
0000
0100
0000
,  // measure 43
1001
0000
0000
0100
0000
0000
0010
0000
,  // measure 44
1001
0000
0000
0010
0000
0000
0100
0000
,  // measure 45
0001
0010
0100
1000
,  // measure 46
0110
0000
0000
0000
,  // measure 47
0001
1000
0200
0300
,  // measure 48
1000
0001
0100
0010
,  // measure 49
1000
0001
0022
0033
,  // measure 50
1000
0001
0010
0100
,  // measure 51
1000
0010
0100
0000
,  // measure 52
0001
0000
0000
0000
0100
0000
0000
0010
,  // measure 53
2000
0000
3100
0000
,  // measure 54
1000
0100
0010
0100
,  // measure 55
1000
0001
2000
0000
,  // measure 56
3010
0100
0001
0100
,  // measure 57
0010
0100
0001
0000
,  // measure 58
0010
0000
0001
0000
1000
0100
1000
0000
,  // measure 59
0001
0000
0010
0000
0100
1000
0001
0000
,  // measure 60
0100
0000
0010
0000
1000
0001
1000
0000
,  // measure 61
0010
0000
0100
0000
0001
1000
0010
0000
,  // measure 62
2020
3030
0100
0001
,  // measure 63
0022
0033
0100
1000
,  // measure 64
2002
3003
0100
0010
,  // measure 65
0202
0000
0303
0000
1000
0001
1000
0000
,  // measure 66
0001
0000
0010
0000
0001
0100
0001
0000
,  // measure 67
1000
0000
0010
0000
1000
0100
1000
0000
,  // measure 68
0001
0000
1000
0000
0100
0010
0001
0000
,  // measure 69
1000
0000
0001
0000
0010
0100
1000
0000
,  // measure 70
0010
0000
0000
0000
;
