#TITLE:†渚の小悪魔ラヴリィ~レイディオ† (STARDOM Remix);
#SUBTITLE:;
#ARTIST:kors k;
#TITLETRANSLIT:Nagisa no koakuma lovely~radio(STARDOM Remix);
#SUBTITLETRANSLIT:;
#ARTISTTRANSLIT:;
#GENRE:;
#CREDIT:;
#BANNER:Nagisa no koakuma lovely~radio(STARDOM_Remix)_banner.png;
#BACKGROUND:Nagisa no koakuma lovely~radio(STARDOM_Remix).png;
#LYRICSPATH:;
#CDTITLE:;
#MUSIC:Nagisa no koakuma lovely~radio (STARDOM Remix).ogg;
#OFFSET:-1.250000;
#SAMPLESTART:23.110001;
#SAMPLELENGTH:15.000000;
#LASTBEATHINT:189.500000;
#SELECTABLE:YES;
#BPMS:0.000000=107.000000
;
#STOPS:
;
#BGCHANGES:;
#KEYSOUNDS:;
#ATTACKS:;

//---------------dance-single - ----------------
#NOTES:
     dance-single:
     :
     Easy:
     2:
     0.103129,0.126559,0.027071,0.171452,0.000000,80.000000,77.000000,3.000000,19.000000,0.000000,0.000000,0.103129,0.126559,0.027071,0.171452,0.000000,80.000000,77.000000,3.000000,19.000000,0.000000,0.000000:
0000
0000
0000
0000
,
0000
0000
0000
0000
,
1000
0000
0010
0000
,
0100
0000
0001
0000
,
0010
0000
0100
0000
,
1000
0000
0001
0000
,
0200
0000
0310
0000
,
0020
0000
0130
0000
,
0002
0000
0013
0000
,
2000
0000
3100
0000
,
2002
0000
0000
3003
0000
0000
0000
0000
,
0010
0000
0100
0000
,
0001
0000
1000
0000
,
0100
0000
0010
0000
,
0001
0000
1000
0000
,
0100
0000
0010
0000
,
0002
0000
0003
0000
,
2000
0000
3000
0000
,
0010
0000
0010
0000
,
0100
0000
0100
0000
,
0001
0000
0000
0000
,
0001
0000
0000
0000
,
1000
0000
0000
0000
,
1000
0000
0000
0000
,
0010
0000
0010
0000
,
0010
0000
0000
0000
,
0100
0000
0100
0000
,
0100
0000
0000
0000
,
0002
0000
0013
0000
,
2000
0000
3010
0000
,
0100
0000
0001
0000
,
0010
0000
0100
0000
,
1000
0000
0100
0000
,
0010
0000
0001
0000
,
0200
0000
0000
0300
0000
0000
0000
0000
,
2002
0000
0000
3003
0000
0000
0000
0000
,
0100
0000
0010
0000
,
1000
0000
0100
0000
,
0010
0000
0001
0000
,
2000
0000
3100
0000
,
0002
0000
0013
0000
,
0200
0000
0300
0000
,
0020
0000
0030
0000
,
1000
0000
0100
0000
,
0010
0000
0001
0000
,
0100
0000
0100
0000
,
0010
0000
2002
3003
;

//---------------dance-single - ----------------
#NOTES:
     dance-single:
     :
     Medium:
     9:
     0.324857,0.339295,0.135357,0.360952,0.018048,252.000000,237.000000,15.000000,40.000000,0.000000,0.000000,0.324857,0.339295,0.135357,0.360952,0.018048,252.000000,237.000000,15.000000,40.000000,0.000000,0.000000:
0000
0000
0000
0000
,
0000
0000
0000
0000
,
0001
0100
0010
0100
0001
0000
0001
1000
,
0200
0000
1300
0010
1000
0001
0010
0100
,
1000
0010
0020
0000
0130
0000
0001
0010
,
0200
0000
1300
0010
0100
0010
1000
0000
,
0002
0000
0013
0100
2000
0000
3010
0100
,
0002
0000
0013
0100
1000
0001
1001
0000
,
0100
0010
0010
0000
0010
0100
0100
0000
,
0010
1000
0001
0010
0100
1000
1001
0000
,
0220
0000
0000
0000
0000
0330
0000
0000
1000
0000
0000
0100
0000
0000
1000
0000
,
0001
0010
0001
0000
2002
0000
3003
0000
,
0100
0000
0010
0100
0001
0000
0010
0100
,
1000
0000
0010
0100
0001
1000
0002
0000
,
0203
0000
0010
0000
0302
0000
0013
0100
,
2000
0000
0010
0000
3001
0100
0010
1000
,
0200
0000
0310
0001
2000
0000
3010
0100
,
0002
0000
0000
0000
0000
0000
0003
0000
1000
0000
0000
0010
0000
0000
1000
0000
,
0001
0001
0000
1000
1000
0000
0010
0010
,
0100
0001
0000
1000
0100
0000
0010
0000
,
0011
0000
1000
0010
0100
0000
0010
1000
,
0100
0000
1000
0010
0100
0000
0110
0000
,
0002
0000
0013
0100
0010
0000
0001
0100
,
0010
0000
0100
0001
0010
0000
0011
0000
,
0001
0100
0010
0000
0100
0010
1000
0000
,
0100
0010
0001
0000
1000
0001
1000
0001
,
0200
0000
0310
1000
0100
0000
0010
0001
,
0100
0000
0010
0000
0100
0010
0100
0010
,
2000
0001
0010
3001
,
0002
0010
1000
0013
,
0200
0010
0302
0010
,
2003
0100
3020
0100
,
1030
0100
1000
0000
0001
0010
0001
0000
,
0100
0000
0010
0100
0010
0000
0110
0000
,
2002
0000
3003
0000
,
2200
0000
0000
0000
0000
3300
0000
0000
0001
0000
0000
0010
0000
0000
0001
0000
,
0100
0010
1000
0000
2020
0000
3030
0000
,
0100
1000
0010
0000
0100
0001
0010
0000
,
0002
0000
0103
0000
0010
1000
0001
0100
,
0002
0010
2003
0010
,
3002
0100
2003
0100
,
3010
0100
0001
0000
0010
0100
1000
0000
,
2002
0000
0000
0000
0000
3003
0000
0000
0100
0000
0000
0010
0000
0000
0100
0000
,
0001
0001
0000
1000
1000
0000
0010
0010
,
0100
0000
0010
0000
1000
0100
0010
0001
,
0100
0001
1000
0010
,
2100
3001
0012
1003
,
0110
0000
0000
0000
;

//---------------dance-single - ----------------
#NOTES:
     dance-single:
     :
     Hard:
     14:
     0.688387,0.657384,0.279738,0.207548,0.988107,534.000000,503.000000,31.000000,23.000000,0.000000,0.000000,0.688387,0.657384,0.279738,0.207548,0.988107,534.000000,503.000000,31.000000,23.000000,0.000000,0.000000:
// measure 0
0000
0000
0000
0000
,  // measure 1
0000
0000
0000
0000
,  // measure 2
0100
0000
0001
0010
0000
0010
0001
1000
0010
1000
0001
0100
0000
0010
0100
0000
,  // measure 3
0010
1000
0100
1000
0000
0001
0010
0001
0200
0000
0302
0000
0023
0000
2030
0000
,  // measure 4
3010
0001
0100
0010
1000
0000
1100
0000
0100
1000
0010
0100
0000
0010
0100
0001
,  // measure 5
0010
0000
0100
0010
0000
0100
0010
0001
0010
0100
1000
0001
0100
0010
0110
0000
,  // measure 6
0100
1000
0100
0001
0000
0010
1000
0010
0001
0100
1000
0100
0000
0100
0010
1000
,  // measure 7
0100
0001
0100
1000
0000
1000
0001
0100
0010
1000
0100
0010
0001
0000
1001
0000
,  // measure 8
1000
0010
0001
0010
0000
1000
0100
0010
0001
0010
1000
0010
0000
0010
0001
0100
,  // measure 9
0010
1000
0100
0010
0001
0100
0001
0010
0100
0010
0100
1000
0001
0000
1001
0000
,  // measure 10
0120
0000
0000
1000
0000
0000
0001
0000
1030
0000
0001
0010
0000
0001
1000
0000
,  // measure 11
0100
1000
0010
0100
0000
0100
0010
1000
0100
0000
0010
0001
1000
0001
1000
0000
,  // measure 12
0001
0000
0100
0000
0010
0000
1000
0000
0000
0000
0100
0000
1000
0000
0010
0000
0000
0000
0100
0000
0001
0000
0010
0000
0001
0000
0000
1001
0000
0000
0100
0000
,  // measure 13
0010
1000
0001
0000
0010
0001
1000
0010
0100
0000
1001
0000
0010
0000
1001
0000
,  // measure 14
0100
0000
0010
0200
0000
0301
0010
0200
0000
1300
0010
0200
0000
0301
0010
0100
,  // measure 15
1000
0001
1000
0010
0000
0010
0100
0001
0010
0000
0100
1000
0001
0100
0010
0000
,  // measure 16
0010
0000
1000
0000
0100
0000
0010
0000
0000
0000
0100
0000
1000
0000
0010
0000
0000
0000
0100
0000
0010
0000
1000
0000
0001
0000
0000
0110
0000
0000
0001
0000
,  // measure 17
0020
0000
0001
0000
0001
0000
0031
0000
1000
0100
1000
0100
0000
1000
0010
0000
,  // measure 18
0100
0100
0010
0100
0000
0000
0010
0010
0100
0010
0000
0000
1001
0000
1001
0000
,  // measure 19
0010
0010
0100
0010
0000
0000
0100
0100
0010
0100
0000
0000
1001
0000
1001
0000
,  // measure 20
0010
0000
0000
0010
0100
0000
0001
0000
0010
0100
0000
0100
1000
0000
1001
0000
,  // measure 21
0100
0000
0000
0100
0010
0000
1000
0000
0100
0010
0000
0010
0001
0000
0101
0000
,  // measure 22
0001
0000
0000
0001
1000
0000
0100
0000
1000
0010
0000
0010
0100
0000
1001
0000
,  // measure 23
0010
0000
0000
0010
0001
0000
1000
0000
0010
1000
0000
1000
0001
0100
0010
0000
,  // measure 24
1000
0000
0000
1000
0010
0000
0010
0000
0100
0001
0000
0001
0010
0100
1000
0000
,  // measure 25
0010
0000
0000
0010
1000
0000
1000
0000
0001
0010
0100
0000
1000
0010
0100
0001
,  // measure 26
0010
0000
0000
0010
0100
0000
1000
0000
0001
0100
0001
0000
1000
0010
0100
0010
,  // measure 27
1000
0100
1000
0000
0001
0010
0001
0000
1000
0010
1000
0000
0001
0100
0001
0000
,  // measure 28
0010
0001
0010
0001
0010
0000
0001
1000
0000
1001
0000
0110
0000
0010
0100
0000
,  // measure 29
0010
1000
0010
1000
0010
0000
0100
0001
0000
1010
0000
0101
0000
0001
0010
0000
,  // measure 30
0200
0000
1300
0000
0020
0000
0130
0000
0001
0010
0000
0010
0001
0000
0100
0000
,  // measure 31
0002
0000
0013
0000
0200
0000
1300
0000
0010
1000
0000
1000
0001
0100
0001
0000
,  // measure 32
0100
0001
0010
1000
0010
0001
0100
1000
,  // measure 33
0200
0000
2300
0000
3002
0000
0013
1000
0100
0000
0010
0001
0100
0000
0010
0000
,  // measure 34
2002
0000
0000
0000
0000
0000
3003
0000
0100
0100
0100
0100
0000
0000
0100
0000
,  // measure 35
0210
0000
0000
0001
0000
0000
1000
0000
0301
0000
1000
0100
0000
1000
0001
0000
,  // measure 36
0010
0001
0100
0010
0000
0010
0100
0001
0010
0100
1000
0001
0100
0110
0000
0000
,  // measure 37
1000
0000
0010
0000
0100
0000
0001
0000
0000
0000
0010
0000
0001
0000
0100
0000
0000
0000
0010
0000
1000
0000
0100
0000
1000
0000
0000
1001
0000
0000
0010
0000
,  // measure 38
0100
0001
1000
0000
0100
1000
0001
0100
0010
0000
1001
0000
0100
0000
1001
0000
,  // measure 39
0010
0000
0100
0020
0000
1030
0100
0020
0000
0031
0100
0020
0000
1030
0100
0010
,  // measure 40
0001
1000
0001
0100
0000
0100
0010
1000
0100
0000
0010
0001
1000
0010
0100
0000
,  // measure 41
0100
0000
0001
0000
0010
0000
0100
0000
0000
0000
0010
0000
0001
0000
0100
0000
0000
0000
0010
0000
0100
0000
0001
0000
1000
0000
0000
0110
0000
0000
1000
0000
,  // measure 42
0200
0000
1000
0000
1000
0000
1300
0000
0001
0010
0001
0010
0000
0001
0100
0000
,  // measure 43
0010
0010
0100
0010
0000
0000
0100
0100
0010
0100
0000
0000
0110
0000
1001
0000
,  // measure 44
0100
0100
0010
0100
0000
0000
0010
0010
0100
0010
0000
0000
1001
0000
0110
0000
,  // measure 45
0001
0100
1000
0001
0000
0010
1000
0100
0001
0100
1000
0010
0000
0010
0100
0001
,  // measure 46
0010
0001
0000
0001
0100
0000
0010
1000
0000
1000
0100
0000
0010
0001
1000
0010
,  // measure 47
0001
0000
0000
0000
;

//---------------dance-single - ----------------
#NOTES:
     dance-single:
     :
     Challenge:
     9:
     0.288762,0.339295,0.180476,0.225595,0.099262,224.000000,204.000000,20.000000,25.000000,336.000000,0.000000,0.288762,0.339295,0.180476,0.225595,0.099262,224.000000,204.000000,20.000000,25.000000,336.000000,0.000000:
0000
0000
0000
0000
,
0000
0000
0000
0000
,
1001
MMMM
0010
1000
0001
0000
0010
0001
,
1000
0000
0010
0100
0010
MMMM
0110
MMMM
,
0100
0001
0001
MMMM
0010
1000
1000
MMMM
,
1000
0100
0010
0001
0100
0010
1001
MMMM
,
0002
0000
0010
0010
0010
0000
1003
MMMM
,
2000
0000
0100
0100
0100
0000
3001
MMMM
,
0110
MMMM
0001
0010
0100
MMMM
1000
0010
,
0100
0000
0001
0000
0100
0000
0010
0000
0100
0010
0100
0000
MMMM
0000
0000
0000
,
2002
0000
0000
0000
0000
0000
3003
0000
0020
0000
0000
0230
0000
0000
0310
0000
,
1000
0001
0100
0000
1001
0000
MMMM
0000
,
0001
0010
0100
0000
1000
0010
0100
0000
,
0110
0000
0010
0100
0001
0010
0100
MMMM
,
0002
0010
0000
0100
0000
0010
0000
1003
,
2000
0100
0000
0010
3010
MMMM
0010
MMMM
,
0010
0100
0001
0000
0010
0100
1000
0000
,
2002
0000
0000
0000
0000
3003
0000
0000
0100
0000
0000
0010
0000
0000
0100
0000
,
0001
0000
0010
0001
0000
0000
1000
0000
0100
1000
0000
0000
MMMM
0000
MMMM
0000
,
1000
0000
0010
1000
0000
0000
0001
0000
0100
0001
0000
0000
0000
0000
0000
0000
,
MMMM
MMMM
MMMM
MMMM
MMMM
MMMM
MMMM
MMMM
,
MMMM
MMMM
MMMM
MMMM
MMMM
MMMM
MMMM
MMMM
,
MMMM
MMMM
MMMM
MMMM
MMMM
MMMM
MMMM
MMMM
,
MMMM
MMMM
MMMM
MMMM
MMMM
MMMM
MMMM
MMMM
,
MMMM
MMMM
MMMM
MMMM
MMMM
MMMM
MMMM
MMMM
,
1000
0000
0000
0001
1000
0000
0000
0000
0001
0000
0000
1000
0001
0000
0000
0000
,
0100
0000
0000
0010
0100
0000
0000
0000
0010
0000
0100
0000
0110
0000
0000
0000
,
MMMM
MMMM
MMMM
0000
MMMM
MMMM
MMMM
0000
,
0002
0000
0010
0000
1000
0000
0103
MMMM
,
2000
0000
0100
0000
0001
0000
3010
MMMM
,
0210
0301
0120
1030
,
1000
0001
0100
0000
0110
0000
0110
0000
,
0102
0013
2100
3010
,
0100
0010
1000
0001
0010
0100
1000
0000
,
2002
0000
0000
0000
0000
0000
3003
0000
MMMM
MMMM
MMMM
MMMM
0000
0000
MMMM
0000
,
0220
0000
0000
0000
0000
0000
0330
0000
1000
0000
0000
0001
0000
0000
1000
0000
,
0010
0000
0100
0010
0000
0000
0010
0000
1001
0000
0000
0000
MMMM
0000
0000
0000
,
0010
0001
0100
0000
0010
1000
0100
0100
,
0200
0000
0310
0000
MMMM
0100
MMMM
0100
,
0002
0100
0000
0010
0000
0100
0000
0013
,
0200
1000
0000
0310
0001
MMMM
1000
MMMM
,
0001
0010
0100
0000
1000
0010
0100
0001
,
2002
0000
0000
0000
0000
0000
3003
0000
0100
0000
0000
0010
0000
0000
0100
0000
,
0001
0000
1000
0001
0000
0000
0010
0000
0100
0010
0000
0000
MMMM
0000
MMMM
0000
,
0001
1000
MMMM
1000
0001
0000
MMMM
0000
,
0100
0000
0010
0100
0000
0010
0000
0010
0000
0100
0010
0100
0000
0000
MMMM
0000
,
0001
MMMM
1000
MMMM
0001
MMMM
1000
MMMM
,
0110
0000
0000
0000
;
