#TITLE:NEON WORLD;
#SUBTITLE:;
#ARTIST:SOUND HOLIC feat. Nana Takahashi;
#TITLETRANSLIT:;
#SUBTITLETRANSLIT:;
#ARTISTTRANSLIT:;
#GENRE:;
#CREDIT:;
#BANNER:NEON_WORLD_banner.png;
#BACKGROUND:NEON_WORLD.png;
#LYRICSPATH:;
#CDTITLE:;
#MUSIC:NEON WORLD.ogg;
#OFFSET:0.240000;
#SAMPLESTART:61.348000;
#SAMPLELENGTH:12.000000;
#LASTBEATHINT:365.000000;
#SELECTABLE:YES;
#BPMS:0.000000=154.000000
,36.000000=164.000000
;
#STOPS:
;
#BGCHANGES:;
#KEYSOUNDS:;
#ATTACKS:;

//---------------dance-single - ----------------
#NOTES:
     dance-single:
     :
     Easy:
     5:
     0.220662,0.268279,0.088687,0.162593,0.000000,209.000000,197.000000,12.000000,22.000000,0.000000,0.000000,0.220662,0.268279,0.088687,0.162593,0.000000,209.000000,197.000000,12.000000,22.000000,0.000000,0.000000:
0000
0000
0000
0000
,
0000
0000
0000
0000
,
0000
0000
0000
0000
,
0000
0000
0000
0000
,
0000
0000
0000
0000
,
0001
0000
0010
0000
,
0100
0000
1000
0000
,
0001
0000
1000
0000
,
0110
0000
0000
0000
,
2002
0000
0000
0000
,
3003
0000
0000
0000
,
0000
0000
0000
0000
,
0000
0000
0000
0000
,
0010
0000
0001
0000
,
1000
0000
0100
0000
,
1000
0000
0010
0000
,
2002
0000
3003
0000
,
0100
0000
0001
0010
,
0001
1000
0100
0000
,
1000
0000
0001
1000
,
0010
0100
0001
0000
,
0020
0000
0031
1000
,
0100
1000
0010
0000
,
0200
0000
0301
1000
,
0100
0010
0001
0000
,
0020
0000
0230
0000
,
1300
0000
1000
0001
,
0100
0000
0001
0010
,
0100
0000
0010
0000
,
1000
0010
0100
0001
,
0010
0000
0100
1000
,
0100
0000
0010
0001
,
0010
0000
0100
0000
,
0010
0001
1000
0010
,
0100
0000
0001
0100
,
0001
0000
1000
0010
,
1000
0000
0100
1000
,
0001
0000
0100
0001
,
0010
0001
1000
0000
,
0010
0100
0001
0000
,
0011
0000
1000
0000
,
2200
0000
3300
0000
,
0010
0000
0100
0010
,
1000
0000
0001
0100
,
0010
0000
1000
0001
,
1001
0000
0100
0001
,
0010
0000
0001
1000
,
0010
0000
0100
0010
,
1000
0001
1000
0001
,
0200
0000
0300
0000
,
0010
0000
1000
0001
,
0010
0000
0001
1000
,
0100
0000
0100
1000
,
0010
0000
0110
0000
,
0001
0000
1000
0001
,
0010
0000
0001
1000
,
0020
0000
0030
0000
,
0200
0000
0300
0000
,
0002
0000
0003
2000
,
0000
3000
0100
0000
,
0000
0010
0000
0000
,
0001
0000
0000
1000
,
0000
0000
0010
0000
,
0000
0100
0000
0000
,
1000
0000
0100
1000
,
0000
0001
0100
0000
,
0001
0010
0000
0001
,
1000
0000
0100
0010
,
0000
0001
0100
0000
,
0010
1000
0000
0100
,
1000
0000
0001
0010
,
0000
0220
0000
0330
,
0000
1000
0000
0000
,
0000
0001
0000
0010
,
0000
0001
0000
1000
,
0000
0100
0000
0010
,
0000
0100
0000
1000
,
0000
0001
0000
1000
,
0001
0000
2002
0000
0000
3003
0000
0000
,
0000
0010
0000
0001
,
1000
0010
0000
1000
,
0001
0100
0000
0001
,
0000
0010
0000
0100
,
0000
1000
0000
0010
,
0100
0010
0000
1000
,
0100
1000
0000
0001
,
0000
0220
0000
0330
,
0000
2000
0000
0000
,
3000
0001
0010
0001
,
0100
0010
0000
0000
,
1000
1100
0000
0101
;

//---------------dance-single - ----------------
#NOTES:
     dance-single:
     :
     Medium:
     11:
     0.462440,0.504408,0.147812,0.236499,0.018477,438.000000,418.000000,20.000000,32.000000,0.000000,0.000000,0.462440,0.504408,0.147812,0.236499,0.018477,438.000000,418.000000,20.000000,32.000000,0.000000,0.000000:
0000
0000
0000
0000
,
0000
0000
0000
0000
,
0000
0000
0000
0000
,
0000
0000
0000
0000
,
0000
0000
0000
0000
,
0010
0000
1000
0100
1000
0000
0001
0000
,
0010
0001
2002
3003
,
0100
0000
0010
0100
0001
0000
0010
0100
,
2000
3000
0001
1000
,
2002
0000
0000
0000
,
0000
0000
3003
0000
,
0010
0000
0010
0000
,
0100
0000
0100
0000
,
0001
0010
0001
0000
1000
0100
0000
1000
,
0010
0000
0000
0000
1000
0000
0000
0000
0001
0000
0000
0010
0000
0000
0100
0000
,
1000
0010
1000
0000
0001
0100
0000
0001
,
0020
0000
0000
0000
0031
1000
0100
0000
,
1000
0000
0010
0100
0010
1000
0100
0000
,
0010
0001
1000
0001
0010
0000
0100
0000
,
1000
0000
0001
0100
0010
0100
0001
0000
,
0010
0100
1000
0001
1000
0000
0110
0000
,
1000
0000
0010
1000
0001
0010
0001
0000
,
0100
0001
0100
0010
0100
0000
0001
0000
,
0010
0000
0100
1000
0001
1000
0100
0000
,
1000
0000
0010
0000
0100
0000
0001
0000
0010
0000
0000
0001
0000
0000
1000
0000
,
0200
0000
0320
0000
,
0031
0000
1000
0001
0000
1000
0010
1000
,
0001
0000
0010
0001
0000
0010
0001
1000
,
0010
0000
0100
0010
0000
1000
0100
0000
,
1000
0000
0000
0001
0000
0000
0010
0000
0100
0000
0000
1000
0000
0000
0010
0000
,
0100
0000
0010
1000
0000
0100
1000
0001
,
0100
0000
0001
1000
0000
0100
1000
0001
,
0020
0000
0000
0000
0000
0031
1000
0001
,
0200
0320
2030
3100
,
1001
0000
0010
0001
0000
1000
0010
1000
,
0100
0010
0001
1001
,
0100
0000
0010
1000
0000
0001
1000
0000
,
0001
0010
0100
0000
1000
0000
1001
0000
,
0100
0010
0100
0010
0000
1000
0100
1000
,
0000
0001
0010
0001
0000
0100
0010
0100
,
0020
0000
1000
1030
,
0001
0000
0000
0010
0000
0000
0110
0000
0000
0000
0000
0000
0000
0000
0000
0000
,
1000
0000
0100
1000
0010
0100
0010
1000
,
0000
0001
0010
0000
0001
0100
0010
0100
,
0000
0001
0010
0001
0100
0010
1000
0100
,
0020
0000
0000
0000
0031
1000
0010
1000
,
0001
0000
1000
0100
0000
1000
0010
0000
,
0100
0000
0001
0010
0000
0001
1000
0000
,
0010
0100
0010
0100
0001
1000
0001
1000
,
0000
0001
0001
0000
1000
0100
0010
0000
,
0100
0000
1000
0000
0010
0100
0001
0010
,
0000
0000
0001
0000
1000
0100
1000
0000
,
0001
0010
0100
0010
0000
0001
0000
1000
,
0000
0010
0000
0220
0000
0000
0330
0000
,
1000
0001
1000
0000
0001
0010
0100
1000
,
0000
0000
0001
0000
1000
0100
0010
0000
,
0001
0000
0100
0010
0100
0001
0010
0000
,
0001
1000
0100
1000
0010
0000
0110
0000
,
1000
0000
0100
0010
0000
0001
0010
0000
,
0100
1000
0000
0010
1000
0000
0001
0010
,
0000
0001
0100
0000
0010
1000
0000
0100
,
1000
0000
0010
1000
0000
0001
0010
0000
,
0001
0100
0000
0001
1000
0000
0100
0010
,
0000
0001
2000
0000
0000
0000
3000
0000
,
0010
0100
0010
1000
0010
0100
0000
0001
,
0010
0001
1000
0001
0000
1000
0100
1000
,
0010
1000
0001
0000
0010
0200
0000
0000
,
1300
0010
1000
0010
0100
0010
0000
1000
,
0100
0010
0100
1000
0000
0001
0100
0001
,
0100
0000
0010
0100
0000
0001
0010
0000
,
0100
1000
0000
0001
1000
0001
2000
0000
,
3000
1010
0000
0100
,
0001
0022
0033
1000
,
0001
0202
0303
0010
,
1000
0200
0000
1300
,
0001
1000
0000
0001
,
0010
0001
0000
1000
,
0010
0000
1000
0100
1000
0100
0010
0001
,
0010
0001
0000
0000
0100
0000
0010
0100
,
0001
0000
0101
0000
0010
0000
0100
1000
,
0001
1000
0000
0010
0100
0000
0001
0000
,
0010
0000
0001
0100
0010
0100
0000
0010
,
0000
1000
0000
0100
0000
2200
0000
0000
,
3300
0000
0010
0000
0001
0000
1000
0001
,
0100
0001
0000
0000
1000
0000
0010
0100
,
0010
0000
1000
0100
1000
0000
0001
0100
,
0001
0000
0010
0001
0100
0010
1000
0100
,
0010
2002
0000
0000
,
3003
0110
0001
0011
,
1000
1100
0000
0000
,
0010
2002
3003
0220
,
0330
0000
0000
0000
;

//---------------dance-single - ----------------
#NOTES:
     dance-single:
     :
     Hard:
     15:
     0.713721,0.773426,0.354749,0.229109,0.332577,676.000000,628.000000,48.000000,31.000000,0.000000,0.000000,0.713721,0.773426,0.354749,0.229109,0.332577,676.000000,628.000000,48.000000,31.000000,0.000000,0.000000:
// measure 0
0000
0000
0000
0000
,  // measure 1
0000
0000
0000
0000
,  // measure 2
0000
0000
0000
0000
,  // measure 3
0000
0000
0000
0000
,  // measure 4
0000
0000
0000
0000
,  // measure 5
1000
0100
0001
0100
2000
0000
3010
0000
,  // measure 6
0100
0000
0001
0010
2000
0000
3010
0000
,  // measure 7
0001
0010
1000
0010
0001
1000
0010
0100
,  // measure 8
0000
0000
0110
0000
1000
0100
0010
0001
,  // measure 9
2002
0000
0000
0000
,  // measure 10
0000
0000
3003
0000
,  // measure 11
0100
0010
0100
0000
0001
0000
1000
0010
1000
0000
0001
0000
0010
0001
0010
0000
,  // measure 12
0100
1000
0010
1000
2002
0000
3003
0000
,  // measure 13
0010
0100
0010
0000
1000
0000
0100
1000
0100
0000
0010
0000
0001
0100
0001
0000
,  // measure 14
1000
0000
0001
0100
0001
0000
0010
0000
0100
0000
0000
1100
0000
0000
0001
0000
,  // measure 15
1000
0010
1000
0000
0001
0000
0100
0010
0100
0000
0001
0000
0010
0000
0100
0000
,  // measure 16
0220
0330
2002
3003
,  // measure 17
0010
0000
0001
0100
0010
0000
1000
0100
0010
0000
0100
0000
1000
0000
0100
0000
,  // measure 18
0010
0000
0001
1000
0001
0000
0100
0000
0010
0000
1000
0100
0000
0010
0001
0000
,  // measure 19
1000
0000
0001
0010
0100
0000
1000
0010
0100
0000
0001
0000
0100
0000
0010
0000
,  // measure 20
1000
0000
0001
1000
0100
0000
0010
0000
0100
0000
1000
0001
0000
1000
0001
0000
,  // measure 21
0010
0000
0001
0100
0010
0000
0100
0010
1000
0000
0100
0000
0001
0000
0100
0000
,  // measure 22
1000
0000
0010
1000
0100
0000
0010
0000
0001
0000
1000
0010
0000
0100
0001
0000
,  // measure 23
0010
0000
0100
1000
0001
0000
1000
0010
0100
0000
0001
0000
0100
0000
1000
0000
,  // measure 24
0100
0000
0001
0010
0100
0000
1000
0000
0010
0100
0001
0100
0010
0000
1000
0000
,  // measure 25
2200
3300
0022
0033
,  // measure 26
1000
0001
0010
0001
1000
0001
0010
0100
,  // measure 27
2000
0000
3010
0100
0010
1000
0100
1000
,  // measure 28
0002
0000
0103
0010
0100
0001
0010
0100
,  // measure 29
1000
0000
0010
0100
0000
0010
0100
0000
0001
0000
0010
0100
0000
0010
0100
0000
,  // measure 30
1000
0010
0100
0010
1000
0100
0001
0100
,  // measure 31
1000
0010
1000
0001
0010
1000
0010
0001
,  // measure 32
1000
0001
0010
0001
0100
0010
1000
0100
,  // measure 33
1000
0010
1000
0000
0001
0010
0001
0000
0100
0000
0001
0010
0100
0000
1000
0000
,  // measure 34
0020
0000
1030
0001
0010
1000
0010
0001
,  // measure 35
1000
0010
0001
0000
1010
0000
0001
0010
,  // measure 36
0100
0000
1000
0000
0010
0000
1000
0001
0100
0000
0010
0000
1000
0000
0100
0000
,  // measure 37
1000
0000
0100
0000
0001
0000
0100
0000
1000
0001
1000
0001
1000
0000
0100
0000
,  // measure 38
0010
0001
1000
1010
0000
0001
0010
0011
,  // measure 39
0000
0100
1000
1100
0000
0010
0100
0001
,  // measure 40
0010
0000
0100
0000
1000
0000
0010
0000
1000
0010
1000
0010
0100
0001
0100
0001
,  // measure 41
0010
0000
0000
0110
0000
0000
2002
0000
0000
0000
0000
0000
3003
0000
0000
0000
,  // measure 42
0100
0000
0010
1000
0001
0000
0010
0000
0001
0000
1000
0000
0100
0000
1000
0010
,  // measure 43
0000
0000
0100
0010
0100
0000
0001
0000
0010
0000
0001
0000
1000
0000
0010
0100
,  // measure 44
0000
0000
0010
1000
0100
0000
1000
0000
0001
0000
0010
0000
0100
0000
1000
0001
,  // measure 45
1000
0001
1000
0000
0010
0100
0010
0000
1000
0000
0100
0010
0001
0000
0100
0000
,  // measure 46
0001
0000
0010
0000
0001
0000
1000
0010
1000
0000
0001
0000
0010
0000
0001
0100
,  // measure 47
0000
0000
0001
0010
0001
0000
1000
0000
0100
0000
1000
0010
0100
0000
0000
0000
,  // measure 48
0001
0001
1000
1000
0010
0100
0010
0110
,  // measure 49
0000
0000
0100
0010
0100
0000
0010
0000
1000
0000
0100
0000
0010
0000
0001
1000
,  // measure 50
0000
0001
0010
0100
1000
0010
1000
0100
,  // measure 51
0000
0000
0100
0000
1000
0000
0010
0000
1000
0000
0001
0010
0001
0000
0000
0000
,  // measure 52
1000
0010
0100
0110
0000
1100
0000
0011
,  // measure 53
0000
0000
1000
0000
0001
0000
1001
0000
0000
0000
0010
0100
0010
0000
0000
0000
,  // measure 54
0100
0000
0001
0000
0010
0000
0100
1000
0001
0000
1000
0000
0010
0000
0100
0010
,  // measure 55
0000
0000
0010
0000
1000
0000
0001
0000
0100
0000
0010
0000
0100
0000
0001
0010
,  // measure 56
0001
1000
0010
0100
0001
0010
0100
1000
,  // measure 57
0100
1000
0100
0000
1000
0010
1000
0000
0001
0100
0001
0100
0001
0000
1000
0000
,  // measure 58
0010
0000
1000
1100
0000
0001
0011
0000
,  // measure 59
0100
0110
0000
1000
1100
0000
0001
1001
,  // measure 60
0000
0100
0110
0000
0001
1001
0000
0000
,  // measure 61
0100
0010
0010
1000
0100
0100
0010
0001
,  // measure 62
0001
1000
0010
0010
0100
0001
0001
0010
,  // measure 63
1000
1000
0010
0001
0100
0220
0330
0000
,  // measure 64
1000
0000
0001
0010
0001
0000
1000
0000
0001
0000
0010
0000
0100
0000
1000
0100
,  // measure 65
1000
0000
0001
0000
1000
0000
0010
0000
1000
0000
0010
0100
0010
0000
1000
0000
,  // measure 66
0100
0000
0010
0000
0001
1000
0001
0000
0100
0000
0020
0000
0000
0000
0000
0000
,  // measure 67
0130
0000
0001
0010
0100
0000
1000
0000
0010
0000
1000
0000
0001
0000
1000
0100
,  // measure 68
0010
0000
0001
0000
1000
0000
0010
0000
1000
0000
0001
1000
0010
0000
0100
0000
,  // measure 69
0001
0000
0010
0000
0100
0000
1000
0001
1000
0000
0010
0000
0100
0000
0010
0100
,  // measure 70
0010
0000
1000
0000
0001
0000
0010
0100
0010
0100
0010
0100
0010
0000
0000
0000
,  // measure 71
0000
1001
0000
0100
,  // measure 72
0001
1100
0000
0010
,  // measure 73
0100
0011
0000
1000
,  // measure 74
0001
2200
3300
0010
,  // measure 75
0010
0110
0000
0001
,  // measure 76
0010
0100
1000
0000
0010
0000
1000
0001
,  // measure 77
0100
0000
0010
0010
0100
0100
0001
1000
,  // measure 78
0001
1001
0000
0000
0110
0000
1000
0010
,  // measure 79
1000
0000
0001
0010
0001
0000
0000
0000
0110
0000
0000
0000
1000
0000
0100
0000
,  // measure 80
0001
0000
0100
0000
1000
0000
0010
0000
1000
0000
0001
0000
0010
0000
0001
1000
,  // measure 81
0100
0000
0010
0001
1000
1100
0000
0010
,  // measure 82
1000
1100
0000
0101
0000
1100
0000
0010
,  // measure 83
0110
0000
0000
0000
1000
0000
0001
0000
0010
0000
0001
1000
0100
0000
1000
0000
,  // measure 84
0010
0100
0000
0100
0001
1000
0001
0010
,  // measure 85
0100
0000
1000
0010
0100
0001
0010
0100
,  // measure 86
1000
0000
0001
0000
0100
0010
1000
0000
0001
0010
0100
0000
0010
0001
0010
0001
,  // measure 87
1000
0100
1000
0100
0020
0000
0000
0000
0000
0000
0000
0000
0000
0000
0000
0000
,  // measure 88
0030
1100
1010
0101
,  // measure 89
0011
2002
0000
3003
,  // measure 90
0110
2002
3003
0220
,  // measure 91
0330
0000
0000
0000
;
