#TITLE:Mynarco;
#SUBTITLE:;
#ARTIST:positive MAD-crew;
#TITLETRANSLIT:;
#SUBTITLETRANSLIT:;
#ARTISTTRANSLIT:;
#GENRE:DRUM'N COREDUST;
#CREDIT:;
#BANNER:Mynarco_banner.png;
#BACKGROUND:Mynarco.png;
#LYRICSPATH:;
#CDTITLE:;
#MUSIC:Mynarco.ogg;
#OFFSET:-0.360000;
#SAMPLESTART:32.180000;
#SAMPLELENGTH:15.000000;
#LASTBEATHINT:313.000000;
#SELECTABLE:YES;
#BPMS:0.000000=181.000000
;
#STOPS:
;
#BGCHANGES:;
#KEYSOUNDS:;
#ATTACKS:;

//---------------dance-single - ----------------
#NOTES:
     dance-single:
     :
     Easy:
     6:
     0.261933,0.330036,0.131638,0.272679,0.000000,195.000000,181.000000,14.000000,29.000000,0.000000,0.000000,0.261933,0.330036,0.131638,0.272679,0.000000,195.000000,181.000000,14.000000,29.000000,0.000000,0.000000:
0000
0000
0000
0000
,
0000
0000
0000
0000
,
0000
0000
0000
0000
,
0000
0000
0000
0000
,
0010
0000
1000
0000
,
0100
0000
0010
0000
,
0001
0000
0100
0000
,
0220
0000
0330
0000
,
1000
0000
0100
1000
,
0100
0000
0010
0000
,
0001
0000
0100
0010
,
0100
0000
0001
0000
,
0010
0000
0001
1000
,
0001
0000
0100
0000
,
0010
0000
1000
0100
,
1000
0000
1001
0000
,
0100
0000
0010
1000
,
0010
0000
0100
0000
,
0001
0000
0010
0001
,
0010
0000
0100
0000
,
1000
0001
0100
0000
,
0001
1000
0100
0000
,
1000
0000
0001
0000
,
2002
0000
3003
0000
,
0200
0000
0310
1000
,
0100
0000
0010
0100
,
1000
0001
0100
0000
,
0220
0000
0330
0000
,
0002
0000
0013
0100
,
0010
0000
0001
0100
,
0020
0000
1030
0000
,
2200
0000
3300
0000
,
0002
0000
0013
0100
,
1000
0000
0010
1000
,
0100
0000
1000
0000
,
0202
0000
0303
0000
,
0010
0000
0100
0010
,
1000
0000
0001
0000
,
0010
0001
1000
0000
,
0010
1000
0001
0000
,
0100
0000
0010
0000
,
1000
0000
0100
0000
,
0010
0001
0100
0010
,
2000
0000
0000
3000
,
0010
0000
0010
0100
,
0010
0000
0010
0000
,
0010
0000
0010
1000
,
0010
0000
0110
0000
,
0100
0000
0100
0001
,
0100
0000
0100
0000
,
0100
0000
0100
0010
,
0100
0000
0110
0000
,
0001
0010
0001
0000
,
1000
0001
1000
0000
,
0001
0100
0001
0000
,
1000
0000
1010
0000
,
1000
0100
0010
0000
,
0010
0100
1000
0000
,
0010
0100
0001
0000
,
0010
0001
0100
0000
,
0220
0000
0000
0000
,
0330
0000
0000
0000
,
2000
0000
3100
0010
,
0200
0000
1300
0001
,
0100
0000
0010
0000
,
0220
0000
0330
0000
,
0002
0000
0013
0100
,
0020
0000
0031
0000
,
1000
0001
0100
0000
,
0010
0000
0110
0000
,
2000
0000
3001
0010
,
0200
0000
0310
0001
,
1000
0010
0100
0000
,
2020
0000
3030
0000
,
0001
0010
1000
0000
,
1000
0010
0001
0000
,
1000
0010
0100
0001
,
0010
0100
1000
2002
,
3003
0000
0000
0000
;

//---------------dance-single - ----------------
#NOTES:
     dance-single:
     :
     Medium:
     12:
     0.601775,0.622402,0.235068,0.244471,0.000000,448.000000,423.000000,25.000000,26.000000,0.000000,0.000000,0.601775,0.622402,0.235068,0.244471,0.000000,448.000000,423.000000,25.000000,26.000000,0.000000,0.000000:
0000
0000
0000
0000
,
0000
0000
0000
0000
,
0000
0000
0000
0000
,
0000
0000
0000
0000
,
0200
0000
0310
1000
0100
0000
1000
0010
,
0000
0010
1000
0001
0010
0000
1001
0000
,
0200
0000
0301
0010
0100
0000
0010
0001
,
0000
1000
0001
0010
0001
0000
1100
0000
,
0010
0000
0100
0010
0000
1000
0100
0000
,
1001
0000
0010
0001
0000
1000
0001
0000
,
0101
0000
0100
0010
0000
1000
0001
0000
,
0010
0001
1000
0000
0010
1000
0001
0000
,
0101
0000
0100
0001
0000
0010
0001
0000
,
1001
0000
1000
0010
0000
0100
0010
0000
,
1010
0000
1000
0100
0000
0010
0001
0000
,
1001
0000
0010
0100
0001
0100
0010
0000
,
1000
0100
0001
0200
0000
1300
0010
0000
,
1000
0010
0001
0020
0000
1030
0001
0000
,
0010
0001
0010
2000
0000
3010
0001
0000
,
0100
0001
0100
1000
0100
0010
0100
0000
,
0001
0010
1000
0020
0000
0031
1000
0000
,
0100
1000
0100
0002
0000
0103
1000
0000
,
0010
1000
0100
0020
0000
0031
0100
0000
,
0001
0010
0100
1000
0010
0000
0110
0000
,
1000
0010
0100
0000
0001
0000
0011
0000
,
1000
0001
0010
0000
0001
0100
0010
0000
,
1000
0010
0100
0010
1000
0000
0001
0000
,
2200
0000
3300
0000
,
0001
0100
0010
0000
1000
0000
0010
1000
,
0100
0010
0100
0000
1000
0001
0100
0000
,
0010
0100
0001
0010
0001
0000
1001
0000
,
0210
0000
0301
0010
,
0001
0010
0100
0000
1000
0010
0100
0000
,
0010
1000
0100
1000
0001
1000
0100
0000
,
0010
0001
1000
0000
0001
0010
0100
0000
,
1000
0001
0100
0001
1000
0000
1001
0000
,
0010
0100
0010
0000
1000
0100
1000
0000
,
0001
0010
0001
0000
0100
0010
0100
0000
,
0001
0010
0100
0000
1000
0010
0100
0000
,
0001
1000
0010
0100
0001
1000
0100
0000
,
1000
0010
0000
0010
0100
0001
0000
0001
,
0010
0100
0000
0100
1000
0001
1000
0000
,
0010
0100
0000
0100
0001
0010
0000
0010
,
0220
0000
0330
0000
,
1001
0000
1000
0010
0100
0010
1000
0000
,
0001
0010
0100
0010
0001
0000
1000
0010
,
0100
0010
1000
0000
0001
0010
0100
0010
,
0001
0000
1000
0001
0010
0100
1000
0000
,
1001
0000
0010
1000
0100
1000
0010
0000
,
0100
0001
0010
0001
0100
0000
0001
1000
,
0010
1000
0001
0000
1000
0001
0010
0001
,
1000
0000
0001
0100
0010
1000
0100
0000
,
1010
0000
1000
0100
0001
0100
1000
0000
,
0001
0100
1000
0100
0001
0000
1000
0010
,
0001
0010
1000
0000
0001
0010
1000
0010
,
0001
0000
0100
0001
0010
0100
1000
0000
,
1001
0000
0100
0001
0010
0001
1000
0000
,
0010
1000
0100
1000
0001
0000
0010
0001
,
1000
0001
0100
0000
0010
1000
0100
0010
,
0001
0000
0100
1000
0010
0001
0100
0000
,
0220
0000
0330
0000
,
2002
0000
3003
0000
,
0001
0100
0010
0000
1000
0010
0100
0000
,
0001
0010
0100
1000
0100
0010
0001
0000
,
1001
0000
0100
0010
1000
0000
0001
0000
,
0022
0030
2000
3003
,
0100
0010
1000
0000
0100
0010
0001
0000
,
0100
0010
0100
0001
1000
0100
0010
0000
,
0001
1000
0010
0000
1000
0001
0100
0000
,
0220
0030
0002
0303
,
0010
0001
1000
0010
1000
0100
0010
0000
,
0001
1000
0010
1000
0001
0010
0100
0000
,
1000
0010
1000
0100
1000
0001
0010
0000
,
2002
3000
0200
0303
,
0010
1000
0100
1000
0001
0010
0100
1000
,
0010
1000
0100
0010
0100
1000
0001
0100
,
0010
0100
0001
0010
1000
0010
0001
1000
,
0100
0001
0100
1000
0010
0100
1000
0001
;

//---------------dance-single - ----------------
#NOTES:
     dance-single:
     :
     Hard:
     16:
     0.866395,0.879391,0.479540,0.159847,0.333797,645.000000,594.000000,51.000000,17.000000,0.000000,0.000000,0.866395,0.879391,0.479540,0.159847,0.333797,645.000000,594.000000,51.000000,17.000000,0.000000,0.000000:
// measure 0
0000
0000
0000
0000
,  // measure 1
0000
0000
0000
0000
,  // measure 2
0000
0000
0000
0000
,  // measure 3
0000
0000
0000
0000
,  // measure 4
0001
1000
0010
1000
0001
0010
0100
0010
,  // measure 5
0000
0010
0100
1000
0001
0100
0110
0000
,  // measure 6
1000
0010
0100
0010
1000
0100
0001
0100
,  // measure 7
0000
0000
0100
0000
0010
0000
0100
0000
1000
0001
0100
0000
0020
0000
0000
0000
,  // measure 8
1030
0100
0001
0200
0000
1300
0001
0100
,  // measure 9
1000
0100
0001
0020
0000
1030
0010
0001
,  // measure 10
0100
1000
0100
0002
0000
1003
0010
1000
,  // measure 11
0001
0010
0100
0000
1000
0000
0010
0000
0100
0010
1000
0000
0200
0000
0000
0000
,  // measure 12
1300
0010
0001
0020
0000
1030
0001
0100
,  // measure 13
1000
0100
0001
0020
0000
1030
0010
0001
,  // measure 14
1000
0000
0100
0000
0010
0000
0001
0000
0100
0010
1000
0000
0100
0000
0010
0000
,  // measure 15
0001
0000
0100
0000
0010
0000
0100
0000
0001
1000
0100
0000
0010
0001
1000
0000
,  // measure 16
0010
0000
0100
0000
0001
0000
0100
0000
0010
0000
1000
0100
0010
0000
0001
0000
,  // measure 17
1000
0000
0001
0000
0010
0000
0100
0000
1000
0000
0010
0100
0001
0000
0010
0000
,  // measure 18
0100
0000
1000
0000
0100
0000
0001
0000
0100
0000
1000
0010
0100
0000
0001
0000
,  // measure 19
0010
0000
1000
0000
0010
0000
0001
0000
0010
0000
0100
1000
0001
0000
0100
0000
,  // measure 20
0010
0000
0000
0000
0110
0000
0100
0000
0001
0000
0010
0100
1000
0000
0010
0000
,  // measure 21
0100
0000
0000
0000
0110
0000
0010
0000
1000
0000
0001
1000
0100
0000
0010
0000
,  // measure 22
0001
0000
0001
0000
1000
0000
1000
0000
0100
0000
0010
0001
1000
0000
0010
0000
,  // measure 23
0100
0000
0001
0000
0100
0000
1000
0000
0100
0010
0100
0010
0200
0000
0000
0000
,  // measure 24
0301
0010
1000
0001
0100
1000
0100
0001
,  // measure 25
1000
0010
0001
1000
0100
0001
0100
0000
,  // measure 26
1020
0130
0102
0013
,  // measure 27
1000
0010
1000
0010
1000
0000
0001
0000
0010
0100
0010
0100
0010
0000
0001
0000
,  // measure 28
1000
0100
0001
1000
0010
0001
0010
1000
,  // measure 29
0001
0100
1000
0100
1000
0001
0100
0000
,  // measure 30
0012
0103
0120
1030
,  // measure 31
1000
0100
0010
0000
0100
0010
0001
0000
0010
0100
1000
0100
0020
0000
0000
0000
,  // measure 32
0031
0000
0100
0000
1000
0000
0001
0000
0010
0000
1000
0001
0100
0000
0010
0000
,  // measure 33
1000
0000
0100
0000
0001
0000
1000
0000
0001
0000
0100
1000
0010
0000
0100
0000
,  // measure 34
0001
0021
0130
2100
,  // measure 35
3001
0100
0010
0100
0001
0000
1000
0000
0010
1000
0100
1000
0010
0000
0100
0000
,  // measure 36
0001
0000
0100
0000
1000
0000
0100
0000
0010
0000
1000
0100
0010
0000
0001
0000
,  // measure 37
0100
0000
0001
0000
0010
0000
0100
0000
1000
0000
0001
0100
0010
0000
1000
0000
,  // measure 38
0010
0000
0010
0000
0100
0000
0100
0000
0001
0000
1000
0001
0100
0000
0010
0000
,  // measure 39
1000
0010
0100
0000
0010
0100
0001
0000
0010
0001
1000
0001
0010
0000
0000
0000
,  // measure 40
0001
0100
1000
0100
0001
0100
1000
0100
,  // measure 41
0010
1000
0010
0001
0010
1000
0010
1000
,  // measure 42
0001
0010
0100
0010
0001
0000
1000
0000
0010
1000
0100
1000
0010
0000
0100
0000
,  // measure 43
0220
0000
0000
0330
,  // measure 44
1010
0000
0001
0010
0100
0010
0011
0000
,  // measure 45
1010
0010
0100
0010
1010
0000
0101
0100
,  // measure 46
0010
0100
0101
0000
0011
0001
1000
0001
,  // measure 47
0011
0000
1100
0100
0010
0100
1100
0000
,  // measure 48
1001
0000
0010
0100
0010
1000
1001
0000
,  // measure 49
0101
0001
1000
0010
1010
0000
0011
0010
,  // measure 50
0001
1000
1100
0000
1010
0010
0100
0001
,  // measure 51
0101
0000
0000
0000
1000
0000
0010
0000
0100
0000
0010
1000
0100
0000
0000
0000
,  // measure 52
1001
0001
0010
0100
1010
0100
0101
0000
,  // measure 53
1001
1000
0010
0100
0101
0000
0011
0001
,  // measure 54
1000
0010
1010
0000
0101
0001
1001
0100
,  // measure 55
0110
0000
0000
0000
1000
0000
0010
0000
1000
0000
0001
0010
0100
0000
0000
0000
,  // measure 56
0110
0000
1000
0100
0001
0100
1100
0000
,  // measure 57
0001
0100
1000
0100
0101
0000
1000
0010
,  // measure 58
0001
0010
1010
0000
0001
0010
1000
0010
,  // measure 59
0011
0000
0000
0000
1000
0000
0001
0000
0010
0000
0001
1000
0100
0000
0000
0000
,  // measure 60
1010
0000
0100
0100
0000
0010
0010
0010
,  // measure 61
0100
0001
1000
0010
0001
0000
0110
0000
,  // measure 62
1000
0000
0100
0000
0001
0000
1000
0000
0010
0000
0001
0100
0010
0000
1000
0000
,  // measure 63
0001
0000
0010
0000
1000
0000
0001
0000
0100
0000
1000
0010
0100
0000
0001
0000
,  // measure 64
0010
0001
1001
0000
1000
0010
0110
0000
,  // measure 65
1000
0010
0100
0010
1000
0000
0001
0000
0100
0010
1000
0010
0100
0000
0001
0000
,  // measure 66
0010
0000
1000
0000
0001
0000
0100
0000
1000
0000
0010
0100
0001
0000
0010
0000
,  // measure 67
1000
0000
0010
0000
0001
0000
1000
0000
0010
0000
0100
0001
0010
0000
0100
0000
,  // measure 68
1000
0010
0110
0000
0001
0010
0110
0000
,  // measure 69
0001
1000
0010
1000
0001
0000
0100
0000
0010
1000
0100
1000
0010
0000
0100
0000
,  // measure 70
0001
0000
0010
0000
1000
0000
0010
0000
0100
0000
1000
0010
0100
0000
0001
0000
,  // measure 71
1000
0000
0010
0000
0100
0000
0010
0000
0001
0000
0010
1000
0100
0000
0010
0000
,  // measure 72
0001
1000
1100
0000
0001
0010
0110
0000
,  // measure 73
1000
0001
0010
0100
1000
0000
0010
0000
1000
0010
0100
0001
0010
0000
0100
0000
,  // measure 74
1000
0000
0100
0000
0001
0000
1000
0000
0010
0000
0001
0100
0010
0000
1000
0000
,  // measure 75
0010
0000
0001
0000
0010
0000
1000
0000
0001
0000
0010
0100
1000
0000
0001
0000
,  // measure 76
0100
0010
1000
0000
0001
0000
0010
0000
0001
0100
0010
0000
1000
0000
0100
0000
,  // measure 77
0010
0001
1000
0000
0010
1000
0001
0000
0100
0010
1000
0001
0010
0100
1000
0010
;
