#TITLE:Mynarco(Nagomu 2Step Remix);
#SUBTITLE:;
#ARTIST:Akizuki Nagomu feat. fu-ko;
#TITLETRANSLIT:;
#SUBTITLETRANSLIT:;
#ARTISTTRANSLIT:;
#GENRE:;
#CREDIT:;
#BANNER:Mynarco(Nagomu_2Step_Remix)_banner.png;
#BACKGROUND:Mynarco(Nagomu_2Step_Remix).png;
#LYRICSPATH:;
#CDTITLE:;
#MUSIC:Mynarco(Nagomu 2Step Remix).ogg;
#OFFSET:-0.400000;
#SAMPLESTART:31.700001;
#SAMPLELENGTH:12.000000;
#LASTBEATHINT:414.000000;
#SELECTABLE:YES;
#DISPLAYBPM:230.000000;
#BPMS:0.000000=230.000000
,279.000000=38.330002
,281.750000=115.000000
,282.000000=230.000000
;
#STOPS:
;
#BGCHANGES:;
#KEYSOUNDS:;
#ATTACKS:;

//---------------dance-single - ----------------
#NOTES:
     dance-single:
     :
     Easy:
     7:
     0.225097,0.312307,0.095760,0.261163,0.000000,181.000000,170.000000,11.000000,30.000000,0.000000,0.000000,0.225097,0.312307,0.095760,0.261163,0.000000,181.000000,170.000000,11.000000,30.000000,0.000000,0.000000:
0000
0000
0000
0000
,
0000
0000
0000
0000
,
1000
0000
0010
0000
,
0100
0000
0010
0000
,
1000
0000
0001
0000
,
0010
0000
0001
0000
,
0100
0000
0010
0000
,
0100
0000
0001
0000
,
1000
0000
0001
0000
,
0220
0000
0330
0000
,
0001
0000
0010
0000
,
0100
0000
0000
0000
,
1000
0000
0010
0000
,
0100
0000
0000
0000
,
0001
0000
1000
0000
,
0010
0000
1000
0000
,
0001
0000
0010
0000
,
0200
0000
0300
0000
,
1000
0000
0010
0000
,
0100
0000
0010
0000
,
1000
0000
0100
0000
,
0010
0000
0000
0000
,
0001
0000
1000
0000
,
0010
0000
1000
0000
,
0001
0000
1000
0000
,
0220
0000
0330
0000
,
1001
0000
0000
0000
,
0000
0000
0000
0000
,
0100
0000
0010
0000
,
0100
0000
0001
0000
,
1000
0000
0100
0000
,
0020
0000
0030
0000
,
0001
0000
0100
0000
,
0020
0000
0030
0000
,
1000
0000
0001
0000
,
0100
0000
0010
0000
,
1000
0000
0100
0000
,
0020
0000
0030
0000
,
0001
0000
1000
0000
,
0020
0000
0030
0000
,
1000
0000
0001
0000
,
0020
0000
0030
0000
,
0001
0000
0100
0000
,
0010
0000
1000
0000
,
0100
0000
0010
0000
,
0001
0000
1001
0000
,
0200
0000
0000
0000
,
0300
0000
0000
0000
,
0010
0000
0010
0000
,
0100
0000
0100
0000
,
2002
0000
3003
0000
,
1000
0000
0010
0000
,
1000
0000
0001
0000
,
0010
0000
0001
0000
,
0100
0000
0010
0000
,
0100
0000
0001
0000
,
0010
0000
0100
0000
,
1000
0000
0010
0000
,
1000
0000
0200
0000
,
1300
0000
0001
0000
,
0100
0000
0010
0000
,
0100
0000
0001
0000
,
0010
0000
0100
0000
,
1000
0000
0001
0000
,
1000
0000
0010
0000
,
0100
0000
0001
0000
,
0010
0000
0100
0000
,
2000
0000
0000
3002
,
0000
0000
1003
0000
,
0010
0000
0200
0300
,
0000
0000
0000
0000
,
0001
0000
0020
0000
,
0030
0000
0001
0000
,
1000
0000
0020
0000
,
0030
0000
1000
0000
,
0001
0000
0100
0000
,
0001
0000
1000
0000
,
0010
0000
0220
0000
,
0330
0000
0100
0000
,
0001
0000
0020
0000
,
0030
0000
0100
0000
,
1000
0000
0020
0000
,
0030
0000
0110
0000
,
0001
0000
0110
0000
,
0000
0000
1001
0000
,
0100
0000
2002
0000
,
3003
0000
0010
0000
,
1000
0000
0001
0000
,
0100
0000
0010
0000
,
1000
0000
0200
0000
,
0300
0000
1000
0000
,
0100
0000
0010
0000
,
0100
0000
1000
0000
,
0001
0000
0200
0000
,
0300
0000
0010
0000
,
0100
0000
0001
0000
,
0010
0000
0001
0000
,
1000
0000
0020
0000
,
0030
0000
0100
0000
,
0010
0000
1000
0000
,
0001
0000
0010
0000
,
0100
0000
1000
0000
,
2002
0000
3003
0000
;

//---------------dance-single - ----------------
#NOTES:
     dance-single:
     :
     Medium:
     12:
     0.432784,0.491965,0.095760,0.322100,0.134934,348.000000,337.000000,11.000000,37.000000,0.000000,0.000000,0.432784,0.491965,0.095760,0.322100,0.134934,348.000000,337.000000,11.000000,37.000000,0.000000,0.000000:
// measure 0
0000
0000
0000
0000
,  // measure 1
0000
0000
0000
0000
,  // measure 2
0001
0000
0000
0010
0000
0000
0100
0000
0000
0000
0000
1000
,  // measure 3
0000
0010
1000
0001
,  // measure 4
0100
0000
0000
0010
0000
0000
0100
0000
0000
0000
0000
0001
,  // measure 5
0000
0010
0100
1000
,  // measure 6
0010
0000
0000
0100
0000
0000
0001
0000
0000
0000
0000
1000
,  // measure 7
0000
0001
1000
0100
,  // measure 8
0010
0000
0000
0001
0000
0000
1000
0000
0000
0000
0000
0001
,  // measure 9
0000
0100
0220
0330
,  // measure 10
0010
0000
0000
0000
0000
0010
0000
0000
0000
0100
0000
0000
,  // measure 11
0001
0000
0000
0000
0000
0001
0000
0000
0000
0010
0000
0000
,  // measure 12
0100
0000
0000
0000
0000
0100
0000
0000
0000
1000
0000
0000
,  // measure 13
0001
0010
0100
1000
,  // measure 14
0010
0000
0000
0000
0000
1000
0000
0000
0000
0010
0000
0000
,  // measure 15
1000
0000
0000
0000
0000
0100
0000
0000
0000
1000
0000
0000
,  // measure 16
0001
0000
0000
0000
0000
0010
0000
0000
0000
0001
0000
0000
,  // measure 17
1000
0100
0010
0001
,  // measure 18
0100
0000
0000
0000
0000
0010
0000
0000
0000
0100
0000
0000
,  // measure 19
0001
0000
0000
0000
0000
0010
0000
0000
0000
0001
0000
0000
,  // measure 20
1000
0000
0000
0000
0000
0010
0000
0000
0000
1000
0000
0000
,  // measure 21
0001
0010
0100
1000
,  // measure 22
0010
0000
0000
0000
0000
0110
0000
0000
0000
1000
0000
0000
,  // measure 23
0001
0000
0000
0000
0000
0011
0000
0000
0000
0100
0000
0000
,  // measure 24
0010
0000
0000
0000
0000
1000
0000
0000
0000
0001
0000
0000
,  // measure 25
1000
0100
0010
0001
,  // measure 26
2002
0000
0000
0000
,  // measure 27
3003
0000
0110
0000
,  // measure 28
1000
0001
0010
0001
,  // measure 29
0100
0010
2000
0000
,  // measure 30
3001
0000
0000
0000
0000
0010
0000
0000
0000
0001
0000
0000
,  // measure 31
0200
0000
0310
1000
,  // measure 32
0001
0000
0000
0000
0000
0010
0000
0000
0000
0001
0000
0000
,  // measure 33
2002
0000
3003
0000
,  // measure 34
0100
0000
0000
0000
0000
0010
0000
0000
0000
1000
0000
0000
,  // measure 35
0200
0000
0310
0001
,  // measure 36
1000
0001
0100
0010
,  // measure 37
1000
0001
0010
0100
,  // measure 38
1000
0000
0000
0000
0000
0010
0000
0000
0000
1000
0000
0000
,  // measure 39
0002
0000
0013
0100
,  // measure 40
1000
0000
0000
0000
0000
0010
0000
0000
0000
1000
0000
0000
,  // measure 41
2002
0000
3003
0000
,  // measure 42
0100
0000
0000
0000
0000
0010
0000
0000
0000
0100
0000
0000
,  // measure 43
0001
0000
0000
0000
0000
0010
0000
0000
0000
0100
0000
0000
,  // measure 44
1000
0010
0100
0001
,  // measure 45
0010
0100
1000
0001
,  // measure 46
2002
0000
0000
0000
,  // measure 47
3003
0000
0000
0000
,  // measure 48
0010
0000
0100
0010
0000
0000
1000
0000
0100
1000
0000
0000
,  // measure 49
0002
0023
0230
1300
,  // measure 50
0002
0000
2003
0000
,  // measure 51
3010
0100
0001
0100
,  // measure 52
0010
0100
0001
1000
,  // measure 53
0100
0010
0100
1000
,  // measure 54
0100
0010
0100
1000
,  // measure 55
0001
0100
0010
0100
,  // measure 56
0001
0010
0100
0010
,  // measure 57
0001
1000
0100
1000
,  // measure 58
0001
0010
0200
0000
,  // measure 59
1300
0010
1000
0001
,  // measure 60
1000
0010
1000
0001
,  // measure 61
0010
0001
1000
0001
,  // measure 62
0100
0001
0020
0000
,  // measure 63
0130
1000
0001
1000
,  // measure 64
0010
0100
0001
0010
,  // measure 65
0100
1000
0010
1000
,  // measure 66
0001
0010
0001
0001
,  // measure 67
1000
0010
0010
1000
,  // measure 68
0100
0000
0000
0100
0000
0000
0010
0000
0100
1000
0000
0000
,  // measure 69
1000
0000
0000
0001
0000
0100
0010
0000
1000
0000
0000
0000
,  // measure 70
0000
0000
0002
0000
,  // measure 71
0013
0100
2000
0000
,  // measure 72
3010
0100
0001
0010
,  // measure 73
0100
1000
2002
0000
,  // measure 74
3003
0000
0100
0000
,  // measure 75
0010
0100
0001
0010
,  // measure 76
0001
0000
1000
0010
,  // measure 77
0100
0000
0001
0010
,  // measure 78
0100
1000
0010
0100
,  // measure 79
0001
0100
0010
1000
,  // measure 80
0100
1000
0010
1000
,  // measure 81
0100
0010
0002
0000
,  // measure 82
2003
0000
3100
0010
,  // measure 83
0100
1000
0001
0100
,  // measure 84
0010
0100
0001
1000
,  // measure 85
0001
1000
0100
0010
,  // measure 86
0100
0000
0000
1000
0000
0000
0001
0000
0010
0001
0000
0000
,  // measure 87
1000
0010
2000
0000
,  // measure 88
3010
0000
0000
0100
0000
0000
0001
0000
1000
0001
0000
0000
,  // measure 89
0010
0001
0202
0000
,  // measure 90
0303
0000
0010
1000
,  // measure 91
0100
1000
0020
0000
,  // measure 92
0130
0001
1000
1000
,  // measure 93
0100
0100
0010
1000
,  // measure 94
0010
0000
0000
0001
0000
0000
0100
0000
0010
0100
0000
0000
,  // measure 95
0001
0010
0200
0000
,  // measure 96
1300
0010
1000
0001
,  // measure 97
1000
0100
0220
0000
,  // measure 98
0330
0000
0001
0010
,  // measure 99
0001
1000
0010
1000
,  // measure 100
0001
0100
0002
0010
,  // measure 101
0023
0100
0130
1000
,  // measure 102
0100
0002
0000
0003
;

//---------------dance-single - ----------------
#NOTES:
     dance-single:
     :
     Hard:
     16:
     0.693946,0.805033,0.235046,0.618085,0.744313,558.000000,531.000000,27.000000,71.000000,0.000000,0.000000,0.693946,0.805033,0.235046,0.618085,0.744313,558.000000,531.000000,27.000000,71.000000,0.000000,0.000000:
// measure 0
0000
0000
0000
0000
,  // measure 1
0000
0000
0000
0000
,  // measure 2
0010
0000
0000
0110
0000
0000
1000
0000
0000
0001
0000
0010
,  // measure 3
0000
0000
1000
0010
0000
0000
0001
0000
0000
0100
0000
0000
,  // measure 4
0010
0000
0000
1010
0000
0000
1000
0000
0000
0001
0000
0100
,  // measure 5
0000
0000
1000
0100
0000
0000
0001
0000
0000
0010
0000
0000
,  // measure 6
0001
0000
0000
1000
0000
0000
1100
0000
0000
0010
0000
1000
,  // measure 7
0000
0000
0100
0010
0000
0000
0001
1000
0001
1000
0000
0000
,  // measure 8
0010
0000
0000
0100
0000
0000
0110
0000
0000
0001
0000
1000
,  // measure 9
0000
0000
0100
0001
0000
0000
0100
0000
0000
1000
0000
0000
,  // measure 10
0010
0000
0000
0100
0000
0020
0000
0000
0000
0130
0000
0000
,  // measure 11
0001
0000
0000
0010
0000
0002
0000
0000
0000
1003
0000
0000
,  // measure 12
0010
0000
0000
1000
0000
0100
0000
0000
0010
0001
0000
0000
,  // measure 13
0100
0000
0000
0010
0000
0000
1000
0001
1000
0001
0000
0000
,  // measure 14
0010
0000
0000
0100
0000
2000
0000
0000
0000
3010
0000
0000
,  // measure 15
0100
0000
0000
0001
0000
0020
0000
0000
0000
0130
0000
0000
,  // measure 16
1000
0000
0000
0001
0000
0020
0000
0000
0000
0031
0000
0000
,  // measure 17
1000
0000
0000
1001
0000
0000
0010
0100
0010
0100
0000
0000
,  // measure 18
0002
0000
0000
0013
0000
1000
0000
0000
0010
0001
0000
0000
,  // measure 19
2000
0000
0000
3010
0000
0001
0000
0000
0010
1000
0000
0000
,  // measure 20
0002
0000
0000
0103
0000
1000
0000
0000
0100
0001
0000
0000
,  // measure 21
2000
0010
3002
0010
,  // measure 22
0103
0000
0000
0001
0000
0100
0000
0000
0010
1000
0000
0000
,  // measure 23
0100
0000
0000
1000
0000
0010
0000
0000
0100
0001
0000
0000
,  // measure 24
0012
0000
0000
0000
0000
2003
0000
0000
0000
3100
0000
0000
,  // measure 25
1000
0000
0010
0100
0000
0000
0001
0000
0010
0100
0000
0000
,  // measure 26
1000
0000
0100
0010
0000
0100
1000
0000
0000
0001
0000
0100
,  // measure 27
0010
0000
0100
0001
0000
0000
2002
0000
0000
3003
0000
0000
,  // measure 28
0010
0000
0001
0010
0000
0100
1000
0000
0010
1000
0000
0100
,  // measure 29
1000
0000
0001
0010
0000
0100
2000
0000
0000
3002
0000
0000
,  // measure 30
0103
0000
0000
0010
0000
0100
0010
0000
0000
1000
0000
0000
,  // measure 31
0200
1300
0002
0013
,  // measure 32
0100
0000
0000
1000
0000
0010
0100
0000
0000
0001
0000
0000
,  // measure 33
2002
3000
0200
0303
,  // measure 34
0010
0000
0000
0100
0000
0001
0010
0000
0000
0100
0000
0000
,  // measure 35
2000
3020
0032
0203
,  // measure 36
0310
0000
0000
0001
0000
1000
0010
0000
0000
0100
0000
0000
,  // measure 37
0002
0023
0230
1300
,  // measure 38
0010
0000
0000
1000
0000
0100
0010
0000
0000
0001
0000
0000
,  // measure 39
0200
0310
2000
3001
,  // measure 40
0010
0000
0000
0001
0000
1000
0001
0000
0000
0100
0000
0000
,  // measure 41
0220
0300
2000
3030
,  // measure 42
0001
0000
0000
1000
0000
0100
0010
0000
0000
0001
0000
0000
,  // measure 43
0100
0000
0000
0001
0000
0010
0100
0000
0000
1000
0000
0000
,  // measure 44
0010
0100
0010
0100
0000
0000
0001
0010
0001
0010
0000
0000
,  // measure 45
0002
0203
2300
3200
,  // measure 46
0302
0000
1000
0000
,  // measure 47
0010
0000
1003
0000
,  // measure 48
1000
0001
0010
0001
0000
0000
0001
0100
0001
1000
0000
0000
,  // measure 49
0010
0000
0010
1000
0000
1000
0100
0000
0100
0020
0000
0000
,  // measure 50
1030
0000
0220
0330
,  // measure 51
1001
0000
0000
0100
0000
1000
0100
0000
0001
0010
0000
0000
,  // measure 52
0100
0000
1000
0100
0000
0010
0001
0000
0000
0100
0000
1000
,  // measure 53
0100
0000
0001
0100
0000
0000
0010
0000
1000
0010
0000
0001
,  // measure 54
0010
0000
0000
1000
0000
0001
0010
0000
0100
1000
0000
0000
,  // measure 55
1001
0000
0000
0010
0000
0001
0010
0000
1000
0100
0000
0000
,  // measure 56
0010
0000
0001
0010
0000
0100
1000
0000
0000
0010
0000
0001
,  // measure 57
0010
0000
1000
0010
0000
0000
0100
0000
0001
0100
0000
1000
,  // measure 58
0100
0000
0000
0001
0000
1000
0100
0000
0010
0002
0000
0000
,  // measure 59
0003
0000
0000
0110
0000
0000
1000
0000
0010
0100
0000
0000
,  // measure 60
0001
0000
0010
0100
0000
1000
0001
0000
0000
0100
0000
0010
,  // measure 61
1000
0000
0100
0010
0000
0000
0001
0000
1000
0100
0000
0010
,  // measure 62
0100
0000
0000
1000
0000
0010
0100
0000
0010
1000
0000
0000
,  // measure 63
1001
0000
0001
0010
0000
0010
0100
0000
0100
1000
0000
0000
,  // measure 64
0010
0000
0010
0100
0000
0100
0001
0000
0000
0010
0000
0010
,  // measure 65
0100
0000
0100
1000
0000
0000
0010
0000
1000
0001
0000
0010
,  // measure 66
0001
0000
0000
0110
0000
0100
1000
0000
0010
0100
0000
0000
,  // measure 67
0110
0000
1000
0100
0000
0010
0001
0000
0000
0110
0000
0001
,  // measure 68
0010
0000
0100
1000
0000
0001
0000
0000
0100
0010
0000
0100
,  // measure 69
0010
0000
0000
0000
0000
0000
0000
0000
0000
0000
0000
0000
0000
0000
0000
0000
0000
0000
0000
0000
0000
0000
0000
0000
0000
0000
0000
0000
0000
0000
0000
0000
1000
0000
0000
0000
0000
0000
0000
0000
0000
0000
0000
0000
0000
0000
0000
0000
0001
0000
0000
0000
0000
0000
0000
0000
0000
0000
0000
0000
0000
0000
0000
0000
0000
0000
0000
0000
0000
0000
0000
0000
0000
0000
0000
0000
0000
0000
0000
0000
0010
0000
0000
0000
0000
0000
0000
0000
0000
0000
0000
0000
0000
0000
0000
0000
0100
0000
0000
0000
0000
0000
0000
0000
0000
0000
0000
0000
0000
0000
0000
0000
0000
0000
0000
0000
0000
0000
0000
0000
0000
0000
0000
0000
0000
0000
0000
0000
2002
0000
0000
0000
0000
0000
0000
0000
0000
0000
0000
0000
0000
0000
0000
0000
0000
0000
0000
0000
0000
0000
0000
0000
0000
0000
0000
0000
0000
0000
0000
0000
0000
0000
0000
0000
0000
0000
0000
0000
0000
0000
0000
0000
0000
0000
0000
0000
0000
0000
0000
0000
0000
0000
0000
0000
0000
0000
3003
0000
0000
0000
0000
0000
,  // measure 70
0000
0000
0000
0000
0000
0000
0100
0000
0000
0010
0000
0100
,  // measure 71
0010
0000
0000
0100
0000
0000
0001
0010
0100
1000
0100
0010
,  // measure 72
0001
0000
0000
0100
0000
0000
0010
0000
1000
0100
0000
0010
,  // measure 73
0001
1000
2020
3000
,  // measure 74
0200
0000
0000
0330
0000
0000
0001
0000
0000
0010
0000
0001
,  // measure 75
0010
0000
0000
0100
0000
0000
1000
0000
0000
0010
0000
1000
,  // measure 76
0010
0000
0000
0100
0000
0000
0001
0000
1000
0010
0000
0000
,  // measure 77
0100
0000
0001
1000
0000
0000
0200
0000
0000
2300
0000
0000
,  // measure 78
3020
0000
0000
0031
0000
0000
1001
0000
0000
0010
0000
0100
,  // measure 79
0010
0000
0000
1000
0000
0000
0001
0000
0001
1000
0000
1000
,  // measure 80
0100
0000
0100
0010
0000
0000
0001
0000
0010
0100
0000
1000
,  // measure 81
0100
0010
0022
0030
,  // measure 82
2000
0000
0000
3003
0000
0000
0010
0000
0100
0001
0000
0010
,  // measure 83
0001
0000
0000
1000
0000
0000
0010
0000
1000
0001
0000
0010
,  // measure 84
0100
0000
0000
1000
0000
0000
0001
0010
1000
0010
0000
0000
,  // measure 85
0001
0100
1000
0100
0000
0000
0020
0000
0000
2030
0000
0000
,  // measure 86
3200
0000
0000
0302
0000
0000
0103
0000
0100
1000
0000
1000
,  // measure 87
0010
0000
0010
0100
0000
0100
0001
0000
0010
0100
0000
1000
,  // measure 88
0001
0000
1001
0000
0100
0000
0010
0000
0100
0010
0000
1000
,  // measure 89
0001
0010
0220
0300
,  // measure 90
0002
0000
0000
0033
0000
0000
1000
0000
0010
0100
0000
0010
,  // measure 91
1000
0000
0000
0100
0000
0000
0010
0000
0000
0001
0000
1000
,  // measure 92
0001
0000
0010
0100
0000
0000
1000
0000
0000
1010
0000
0000
,  // measure 93
0001
0011
0200
0302
,  // measure 94
0023
0000
0000
2030
0000
0000
3010
0000
0000
0001
0000
1000
,  // measure 95
0001
0000
0000
0100
0000
0000
0010
1000
0010
1000
0000
0000
,  // measure 96
0001
0010
0001
0010
0000
0000
0100
0000
0000
1000
0000
0010
,  // measure 97
1000
0001
0022
0003
,  // measure 98
0200
0000
0000
0330
0000
0000
1000
0010
1000
0010
0000
0000
,  // measure 99
0100
0001
0100
0001
0000
0000
0010
0100
1000
0100
0010
0100
,  // measure 100
1000
0000
0001
1000
0000
0000
0020
0000
0000
1030
0000
0000
,  // measure 101
0002
0000
0000
0013
0000
0000
0100
1000
0010
0100
0001
0010
,  // measure 102
0001
0220
0000
0330
;
