#TITLE:ムーニャポヨポヨスッポコニャーゴ;
#SUBTITLE:;
#ARTIST:全日本スッポコニャーゴ親衛隊;
#TITLETRANSLIT:Muunya poyopoyo suppokonyaago;
#SUBTITLETRANSLIT:;
#ARTISTTRANSLIT:Zennihon suppokonyago shineitai;
#GENRE:;
#CREDIT:;
#BANNER:Muunya_poyopoyo_suppokonyaago_banner.png;
#BACKGROUND:Muunya_poyopoyo_suppokonyaago_bg.png;
#LYRICSPATH:;
#CDTITLE:;
#MUSIC:Muunya poyopoyo suppokonyaago.ogg;
#OFFSET:-0.430000;
#SAMPLESTART:28.760000;
#SAMPLELENGTH:10.660000;
#SELECTABLE:YES;
#BPMS:0.000000=180.000000
;
#STOPS:51.875000=0.333000,
67.875000=0.333000,
159.000000=0.167000,
159.500000=0.167000,
160.000000=0.167000,
160.500000=0.167000,
173.000000=0.167000,
173.500000=0.167000,
315.875000=0.333000
;
#BGCHANGES:;
#KEYSOUNDS:;
#ATTACKS:;

//---------------dance-single - ----------------
#NOTES:
     dance-single:
     :
     Easy:
     8:
     0.313931,0.357525,0.145361,0.299273,0.000000,257.000000,240.000000,17.000000,35.000000,0.000000,0.000000,0.313931,0.357525,0.145361,0.299273,0.000000,257.000000,240.000000,17.000000,35.000000,0.000000,0.000000:
0000
0000
0000
0000
,
0000
0000
0000
0000
,
0000
0000
0000
0000
,
0000
0000
0000
0000
,
0000
0000
0000
0000
,
1000
0100
1000
0010
,
1000
0100
0010
0000
,
0001
0100
0010
0100
,
0001
0010
0100
0000
,
1000
2002
3003
0010
,
0100
0001
0010
0000
,
0001
0100
0010
1000
,
0001
0010
0100
0100
,
2002
0000
0000
0000
,
0000
0000
3003
0000
,
0100
0000
0010
0000
,
1000
0000
0001
0000
,
0010
0000
0001
0000
,
1000
0000
0010
1000
,
0100
1000
0000
0001
,
0010
0002
0000
1003
,
0100
0010
0100
1000
,
0001
0100
0000
0001
,
0010
1000
0000
1000
,
0010
0002
0000
1003
,
0010
0100
0001
0010
,
0100
1000
0000
0001
,
0100
1000
0100
0001
,
1000
0010
0000
1000
,
0001
0010
0100
1000
,
0010
0100
0000
0001
,
1000
0100
0010
0001
,
1000
0010
0000
0100
,
0010
0100
0001
0010
,
0100
1000
0000
0101
,
0000
1010
0000
0001
,
1000
0110
0000
0002
,
0000
0010
0000
2003
,
0000
0010
0000
3001
,
0010
0000
0100
0000
0000
0000
1000
0001
,
1000
0001
0200
0000
0000
0000
0010
0000
,
0000
0302
0000
0010
,
0000
1003
0010
0100
,
0000
0000
0001
1000
2002
0000
3003
0000
,
0220
0330
0001
1000
,
0100
0010
0010
0000
,
0001
0100
0010
0010
,
1000
0001
1000
0000
,
0202
0303
0010
1000
,
0100
0010
0010
0000
,
0001
0010
0100
1000
,
0010
0100
2002
3003
,
0020
0000
0100
0000
,
2030
0000
0001
0000
,
3002
0000
0010
0000
,
0203
0000
0010
0000
,
0301
0010
0100
0000
,
1000
0010
0100
0000
,
0001
0010
0100
1000
,
0010
0100
1001
0000
,
1000
0000
0010
0000
,
1000
0000
0010
0000
,
0100
0000
0001
0000
,
0100
0001
0010
1000
,
0220
0000
0000
0000
0000
0330
0000
0000
,
2002
0000
3003
0000
0010
0100
0010
0000
,
1000
0100
1000
0000
,
0001
0010
0001
0100
,
0010
1000
0220
0330
,
2002
0000
3003
0000
0100
0010
0100
0000
,
0001
0010
0001
0000
,
1000
0100
0010
0001
,
0100
0010
2020
3030
,
0100
0001
1000
0100
,
0010
0000
0002
0000
0000
1000
1003
0000
,
0001
0010
0001
1000
,
0010
1000
0001
0000
,
1000
0100
1000
0001
,
0100
0001
1000
0000
,
0110
0010
1000
0100
,
1000
0001
0000
0010
,
0001
0100
0010
1000
,
0001
0010
0100
0000
,
0000
0000
2002
0000
0000
3003
0000
0000
;

//---------------dance-single - ----------------
#NOTES:
     dance-single:
     :
     Medium:
     12:
     0.571673,0.608700,0.350577,0.316375,0.038478,468.000000,427.000000,41.000000,37.000000,0.000000,0.000000,0.571673,0.608700,0.350577,0.316375,0.038478,468.000000,427.000000,41.000000,37.000000,0.000000,0.000000:
0000
0000
0000
0000
,
0010
0000
0100
0000
0001
0010
0100
0000
,
1000
0000
0010
0000
1000
0100
0010
0000
,
0001
0100
0010
0100
0002
0000
1003
0000
,
1000
0100
0010
0100
2000
0000
3001
0000
,
0110
0000
1000
0000
0001
0010
0000
0100
,
2000
0000
3001
0000
0010
0001
1000
0000
,
0010
0000
0000
0100
0000
0000
0010
0000
1000
0000
0000
0001
0000
0000
1000
0000
,
0001
0000
0000
0010
0000
0000
0100
0000
1000
0000
0000
0000
1001
0000
0000
0000
,
0010
0000
0000
0000
0110
0000
0000
0000
0001
0000
0000
0010
0000
0000
0100
0000
,
2000
0000
3001
0000
0010
0001
1000
0000
,
0001
0000
0000
1000
0000
0000
0100
0000
1000
0000
0000
0010
0000
0000
0100
0000
,
0001
0000
0000
0010
0000
0000
0100
0000
1000
0000
0000
0001
0000
0000
1000
0000
,
0220
0000
0000
0000
,
0000
0000
0330
0000
,
0001
0000
0010
0000
0001
1000
0100
0000
,
1000
0000
0010
0000
1000
0001
0100
0010
,
0100
0000
0001
0010
0100
0000
1000
0000
,
0010
0000
1000
0001
0100
0000
0010
0000
,
1000
0000
0100
0010
0001
0000
1000
0000
,
0001
0220
0330
1000
,
0100
1000
0100
0010
0100
0000
1000
0010
,
1000
0000
0001
0010
0001
0000
0100
0010
,
0100
0000
0001
1000
0001
0000
1000
0100
,
0010
0100
1000
0000
1001
0000
0100
0000
,
0010
1000
0010
0100
0010
0000
1000
0100
,
1000
0000
0001
0010
0001
0000
0100
0010
,
0100
0000
0001
0010
0001
0000
1000
0100
,
0010
0001
0200
0000
0310
0000
1000
0001
,
0010
0001
1000
0000
0010
0000
0100
0010
,
1000
0010
0100
0000
0001
0000
0010
0001
,
0100
0001
0010
0000
0100
0000
1000
0010
,
0100
0010
1000
0000
0001
0000
1000
0100
,
0001
0000
0001
0100
1000
0000
0001
0010
,
1000
0000
1000
0010
0001
0000
0100
0010
,
0100
0000
0010
0000
1000
0000
0001
0000
1000
0000
0000
0000
0001
0000
0000
0010
,
0000
0100
1000
0000
0010
0100
0002
0000
,
0000
0000
0013
0100
1000
0100
0020
0000
,
0000
0032
0000
0000
1003
0000
0010
0100
,
0010
1000
0100
0000
1000
0000
1010
0011
,
1010
0011
0200
0000
0000
0000
0310
0000
,
1000
0001
0020
0000
0031
0000
0200
0000
,
1300
0000
0010
0001
1000
0010
0100
0000
,
0010
0000
0110
1001
0220
0000
0330
0000
,
0001
0010
0100
0000
0010
0001
0100
0010
,
1000
1010
0011
1010
,
0100
0010
1000
0000
0100
1000
0001
0010
,
0001
0100
0010
1000
0001
0000
1001
0000
,
0220
0000
0330
0000
1000
0001
0010
0100
,
1000
1100
0101
1100
,
0010
0100
0010
0100
0001
0010
0100
1000
,
0010
1000
0001
0000
0220
0000
0330
0000
,
1000
0000
0100
0010
0100
1000
0001
0000
,
0100
0000
0010
1000
0010
0000
0100
0000
,
0001
0000
0010
0001
1000
0010
0100
0000
,
0001
1000
0100
0000
2020
0000
3030
0000
,
0002
0000
0100
0000
,
2003
0000
0000
3010
0000
0100
0010
0100
,
0001
0000
0010
0001
1000
0000
0010
0000
,
1000
0001
0100
0000
2002
0000
3003
0000
,
0010
0000
0100
0000
0010
0100
0010
0000
,
1000
0100
0010
0001
,
0100
0000
0001
0010
0001
0000
1000
0000
,
1010
1100
0011
0101
,
2002
0000
3003
0000
,
0100
0001
0010
0000
0001
0010
0100
0000
,
1000
1010
0101
0011
,
2000
0000
3100
0010
0001
1000
0010
0000
,
0100
0001
0100
1000
0100
0000
0110
0000
,
2002
0000
3003
0000
0010
1000
0100
0010
,
0001
1100
1010
0101
,
0010
1000
0001
0100
0001
0010
0100
0000
,
1000
0010
0100
0000
0022
0000
0033
0000
,
0100
0001
0010
0100
1000
0010
0100
0000
,
0001
0100
1000
0200
0000
0001
0301
0000
,
1000
0000
0010
0000
1000
0001
0100
0000
,
0001
0000
0010
0000
0001
1000
0010
0000
,
0100
0000
0010
0000
1000
0001
0010
0000
,
0001
0000
0100
0000
0001
0010
0100
1000
,
0110
0000
1000
0100
0010
0000
0001
0000
,
1000
0000
0001
0010
0100
0000
1000
0000
,
1010
0000
0001
1000
0100
0000
0010
0001
,
0100
0010
1000
0001
0010
0100
1000
0000
,
0000
0220
0000
0330
;

//---------------dance-single - ----------------
#NOTES:
     dance-single:
     :
     Hard:
     16:
     0.894155,1.038371,0.316375,0.179564,0.666952,732.000000,695.000000,37.000000,21.000000,0.000000,0.000000,0.894155,1.038371,0.316375,0.179564,0.666952,732.000000,695.000000,37.000000,21.000000,0.000000,0.000000:
// measure 0
0000
0000
0000
0000
,  // measure 1
0010
0000
1000
0000
0010
0100
0010
0000
0100
0000
0001
0000
0100
0010
0100
0000
,  // measure 2
0001
0000
0010
0000
0001
1000
0001
0000
1000
0000
0010
0000
1000
0001
1000
0000
,  // measure 3
0010
0100
0010
0100
0010
0100
0010
0100
0010
1000
0100
0010
0100
0000
0000
0000
,  // measure 4
1000
0001
1000
0001
1000
0001
1000
0001
1000
0010
0100
0010
1000
0000
0000
0000
,  // measure 5
1010
0000
0000
0000
0100
0000
0001
0000
0010
0000
0100
1000
0000
0000
1000
0001
,  // measure 6
0200
0000
0000
0000
0310
0000
1000
0000
0001
0000
1000
0000
0100
0000
0010
0001
,  // measure 7
0010
0000
0000
1100
0000
0000
1000
0010
1000
0000
0000
0101
0000
0000
0010
0000
,  // measure 8
0100
0000
0001
0010
0000
0100
1000
0000
0001
0000
0100
0000
0110
0000
0000
0000
,  // measure 9
1100
0000
0000
0000
0010
0000
0010
0000
1000
0000
0001
0010
0000
0000
0001
1000
,  // measure 10
0020
0000
0000
0000
0130
0000
0001
0000
1000
0000
0010
0000
0001
0000
0010
1000
,  // measure 11
0010
0000
0000
1100
0000
0000
0001
0010
0001
0000
0000
1001
0000
0000
0100
0000
,  // measure 12
0010
0000
1000
0100
0010
0000
0001
0000
0010
0000
1000
0010
0000
0001
0010
0000
,  // measure 13
2002
0000
0000
0000
,  // measure 14
0000
0000
3003
0000
,  // measure 15
0010
0000
1000
0000
0001
0010
0000
0001
1000
0000
0001
0010
0000
0001
1000
0000
,  // measure 16
0010
0000
1000
0000
0100
1000
0000
0001
1000
0000
0010
1000
0000
0001
0100
0000
,  // measure 17
0110
0000
0000
0000
0001
0000
0010
0100
0000
1000
0001
0000
1000
0000
0010
0000
,  // measure 18
1000
0100
0000
0010
0001
0000
0100
0010
0000
1000
0001
0000
1000
0000
0100
0000
,  // measure 19
0010
0100
0000
1000
0100
0000
0010
0100
0000
1000
0100
0000
0010
0000
0001
0000
,  // measure 20
0100
0001
0000
0010
0001
0000
0100
0001
0000
0010
0001
0000
1000
0000
0001
0010
,  // measure 21
0001
0000
1000
0000
0001
0000
0010
0100
0010
0000
0001
0000
1000
0000
0010
0100
,  // measure 22
0010
0000
1000
0000
0001
0000
0010
0100
0010
0000
0001
0000
1000
0000
0100
1000
,  // measure 23
0100
0000
0010
0000
0001
0000
0100
0001
0100
0000
0010
0000
1000
0000
0001
0000
,  // measure 24
1000
0010
0100
0001
0010
0000
0100
0000
0110
0000
0000
0000
1000
0000
0100
0010
,  // measure 25
0100
0000
1000
0000
0010
0000
0100
0001
0100
0000
0001
0000
0010
0100
1000
0000
,  // measure 26
0010
0100
0001
0000
1000
0000
0100
1000
0010
0000
0100
0000
0001
0000
0010
0001
,  // measure 27
0010
0000
0001
0000
0100
0000
0010
0100
0010
0000
1000
0000
0100
0000
1000
0000
,  // measure 28
0001
1000
0100
0010
0001
0000
0100
0000
0010
0000
0010
0000
1000
0000
0001
1000
,  // measure 29
0100
0000
1000
0000
0010
0000
1000
0000
0010
0000
0001
0000
0010
0000
1000
0100
,  // measure 30
0010
0000
0001
0000
0100
0000
0001
0000
0100
0000
1000
0000
0100
0000
0001
0010
,  // measure 31
0001
0000
1000
0010
1000
0000
0100
0000
0001
0000
0100
0000
1000
0000
0010
1000
,  // measure 32
0010
0000
0100
0001
0100
0000
0001
0000
1000
0000
0100
0000
0010
0001
0010
0001
,  // measure 33
0010
0000
0001
0000
1000
0000
0010
0000
0001
0000
0010
0000
1000
0000
0100
0010
,  // measure 34
0100
0000
1000
0000
0001
0000
0010
0100
0010
0000
0001
0000
0100
0010
1000
0001
,  // measure 35
0100
0000
0001
0000
0010
0000
0100
0000
1000
0000
0010
0000
0100
0000
0001
0100
,  // measure 36
0000
0010
0100
0000
0001
0000
0000
0000
1001
0000
0000
0000
0220
0000
0000
0000
,  // measure 37
0300
0000
1030
0100
0001
0100
2000
0000
,  // measure 38
3010
0010
0020
0000
0130
0000
0001
0100
,  // measure 39
1000
0001
0010
1000
0001
0010
0110
1100
,  // measure 40
1001
0110
2002
0000
3003
0000
0110
0000
,  // measure 41
1000
0001
0020
0000
0230
0000
1300
0001
,  // measure 42
0010
0001
1000
0010
0001
1000
0100
0001
,  // measure 43
0010
0001
1001
0110
2002
0000
3003
0000
,  // measure 44
0010
0000
0100
0010
1000
0000
0000
0000
0001
0000
1000
0000
0100
0000
0010
0000
,  // measure 45
0001
0000
0100
0000
1000
0000
0100
0000
0001
0000
1000
0001
0200
0000
0000
0000
,  // measure 46
0310
0000
1000
0000
0001
1000
0010
0000
0100
0000
0010
0000
0100
0001
0010
0000
,  // measure 47
1000
0000
0010
0000
0001
0000
0010
0000
0100
1000
0010
0100
0001
0000
0000
0000
,  // measure 48
0100
0000
0010
1000
0100
0000
0000
0000
1000
0000
0001
0000
0100
0000
0010
0000
,  // measure 49
1000
0100
0001
0100
1000
0001
0101
0000
,  // measure 50
0010
0000
0100
0010
1000
0000
0100
0000
0010
0000
0001
0000
0100
0000
0100
0000
,  // measure 51
0001
0000
1000
0001
0100
0000
0010
1000
0001
0000
0000
0000
0110
0000
0000
0000
,  // measure 52
0001
0010
0100
1000
0100
0010
0001
0000
,  // measure 53
1000
0010
0100
0001
0010
0100
1000
0000
,  // measure 54
0001
0100
1000
0100
0001
0010
0100
0000
,  // measure 55
1000
0010
0001
0010
1000
0000
0110
0000
,  // measure 56
0001
0000
0100
0000
0010
0000
1000
0000
0100
0000
0010
0001
1000
0000
0010
0000
,  // measure 57
0100
0000
0001
0000
0100
0000
1000
0000
0100
0000
0010
1000
0100
0000
0010
0000
,  // measure 58
0001
0000
0100
0000
0010
0000
1000
0000
0001
0000
0010
0100
1000
0000
0010
0000
,  // measure 59
1000
0010
0100
0001
1000
0010
0100
0001
0020
0000
0000
0000
0030
0000
0000
0000
,  // measure 60
0001
0000
0101
0000
1000
0100
0001
0100
,  // measure 61
1000
0000
0010
0010
0100
0000
1001
0000
,  // measure 62
0010
0000
0010
0000
0100
0000
0100
0000
0001
1000
0010
0000
0100
0000
0000
0000
,  // measure 63
1010
0011
1100
0101
,  // measure 64
2002
0000
0000
0000
3003
0000
0000
0000
0010
0100
0010
0100
0001
1000
0001
1000
,  // measure 65
0010
0000
1000
0100
0010
0000
0000
0000
0001
0000
0100
0000
0001
0010
0100
0000
,  // measure 66
1000
0000
0010
0000
0001
0000
0010
0000
1000
0000
0001
0100
0010
0000
0000
0000
,  // measure 67
1100
0000
0000
0000
0001
0000
0001
0000
0010
0000
0100
0000
1000
0010
0100
0000
,  // measure 68
0001
0000
0010
0000
0001
0000
1000
0000
0001
0010
0100
0010
0001
0000
0000
0000
,  // measure 69
0100
0000
0010
0100
0001
0000
0000
0000
1000
0000
0001
0000
0010
0100
1000
0000
,  // measure 70
0001
0000
0100
0000
0001
0000
1000
0000
0001
0000
0010
0100
1000
0000
0000
0000
,  // measure 71
0010
0000
0100
0001
0010
0000
0100
0000
1000
0000
0010
0000
1000
0000
0100
0000
,  // measure 72
1000
0000
0100
0010
0001
0000
0100
0000
0110
0000
0000
0000
1001
0000
0000
0000
,  // measure 73
0010
0000
1000
0100
0010
0000
0100
1000
0001
0000
0100
0010
1000
0000
0001
0000
,  // measure 74
0010
0000
0001
0100
0001
0000
0020
0000
0000
0000
0130
0000
1001
0000
0000
0000
,  // measure 75
1000
0000
0100
0000
0010
0100
0000
1000
0100
0000
0010
0100
0000
1000
0100
0000
,  // measure 76
0010
0000
0001
0000
1000
0001
0000
0010
0001
0000
1000
0001
0000
0010
0001
0000
,  // measure 77
0100
0000
0010
0000
0100
0001
0000
0100
0010
0000
0100
0001
0000
0100
0010
0000
,  // measure 78
1000
0000
0001
0000
1000
0010
0000
1000
0001
0000
1000
0010
0100
0001
0010
0100
,  // measure 79
1001
0000
0000
0000
0001
0000
0010
0100
0000
1000
0010
0000
1000
0000
0010
0000
,  // measure 80
0100
0001
0000
0010
0100
0000
1000
0001
0000
1000
0100
0000
1000
0000
0010
0000
,  // measure 81
0100
0010
0000
1000
0010
0000
0100
0001
0000
0010
0001
0000
0100
0000
0001
0000
,  // measure 82
0100
0010
0000
0100
0001
1000
0100
0010
0001
0010
0100
1000
0010
0000
0000
0000
,  // measure 83
0000
2002
0000
3003
;
