#TITLE:Miracle 5ympho X;
#SUBTITLE:;
#ARTIST:USAO;
#TITLETRANSLIT:;
#SUBTITLETRANSLIT:;
#ARTISTTRANSLIT:;
#GENRE:FRENCHCORE;
#CREDIT:;
#BANNER:Miracle 5ympho X_banner.png;
#BACKGROUND:Miracle 5ympho X.png;
#LYRICSPATH:;
#CDTITLE:;
#MUSIC:Miracle 5ympho X.ogg;
#OFFSET:-0.710000;
#SAMPLESTART:47.560001;
#SAMPLELENGTH:10.000000;
#LASTBEATHINT:392.008545;
#SELECTABLE:YES;
#DISPLAYBPM:105.000000:210.000000;
#BPMS:0.000000=210.000000
,184.000000=105.000000
,184.500000=52.500000
,184.750000=17.500000
,185.000000=210.000000
,189.000000=52.500000
,190.000000=210.000000
,318.000000=105.000000
,325.000000=420.000000
,327.000000=210.000000
;
#STOPS:28.000000=0.857000,
61.000000=0.857000,
154.000000=0.857000,
185.000000=1.714000,
325.000000=0.071000,
325.500000=0.071000,
326.000000=0.071000,
326.500000=0.071000
;
#BGCHANGES:;
#KEYSOUNDS:;
#ATTACKS:;

//---------------dance-single - ----------------
#NOTES:
     dance-single:
     :
     Easy:
     9:
     0.312765,0.394287,0.145957,0.291914,0.000000,270.000000,252.000000,18.000000,36.000000,0.000000,0.000000,0.312765,0.394287,0.145957,0.291914,0.000000,270.000000,252.000000,18.000000,36.000000,0.000000,0.000000:
0000
0000
0000
0000
,
0000
0000
0000
0000
,
0000
0000
0000
0000
,
0000
0000
0000
0000
,
1000
0100
1000
0000
,
0001
0010
0001
0000
,
1000
0001
0010
0100
,
1001
0100
0010
1000
,
0100
1000
0001
0010
,
0000
0001
0100
0010
,
1000
0001
1000
0220
,
0330
1000
0100
0010
,
0001
0100
0010
1000
,
0000
0001
0010
0100
,
1000
0001
0000
0110
,
0000
1000
0200
0000
,
0300
0000
2000
0000
,
3000
0000
0020
0000
,
0030
0000
0200
0000
,
0300
0000
0001
0000
,
0000
0000
0010
0000
,
0000
0000
0100
0000
,
0000
0000
1000
0000
,
0000
0000
0001
0000
,
0100
0001
0100
0000
,
0010
0000
1000
0000
,
0100
1000
0100
0000
,
0010
0000
0001
0000
,
1000
0001
1000
0000
,
0010
0000
0100
0000
,
0010
0100
0002
0000
,
0003
0000
1000
0100
,
1000
0100
1000
0010
,
1000
0000
0001
0010
,
0001
0010
0001
0100
,
0001
0000
1000
0001
,
0000
0001
1000
0010
,
0000
0010
1000
0001
,
0010
0100
1000
2002
,
0000
3003
0000
0100
,
0010
0100
0000
2002
,
0000
3003
0000
0010
,
0100
0010
0000
2200
,
0000
3300
0000
0001
,
0100
0001
0000
0022
,
0000
0033
0000
2002
,
0000
3003
0000
0000
0000
0000
0000
0000
,
0000
0000
0100
0010
,
1000
0001
0010
0100
,
2000
0000
3001
0100
,
0010
0100
0001
0000
,
1100
0000
0001
1000
,
0100
1000
0010
0100
,
0001
0000
0010
0001
,
0100
0010
2000
0000
,
3002
0000
0103
0010
,
0100
0001
0010
0100
,
1000
0000
1000
0010
,
0100
0010
1000
0000
,
1001
0000
0010
0001
,
1000
0010
1000
0001
,
0010
0000
0001
0100
,
0001
1000
0100
0000
,
1001
0000
0100
0010
,
0000
0010
0100
0001
,
0000
0001
0010
0100
,
0000
0100
1000
0001
,
0010
0100
1000
0010
,
0000
0010
1000
0001
,
0000
0001
0010
0001
,
0100
0010
1000
0000
,
1010
0000
0100
0001
,
0000
0001
0010
0100
,
0000
0100
1000
0010
,
0000
0010
1000
0001
,
0010
0100
0020
0001
,
0000
0031
2000
0010
,
0000
3010
0010
0100
,
0001
1000
0100
0000
,
0001
0000
1001
0000
,
0010
0100
0001
1000
,
2002
3003
0000
0000
,
0010
0000
0010
0100
,
0010
1000
0100
0010
,
0010
0000
0010
0001
,
0100
0010
1000
0100
,
0100
0000
0100
1000
,
0010
0100
0001
0010
,
0010
0000
0010
0001
,
0100
0010
1000
2020
,
0000
3030
0000
0022
,
0000
0033
0000
2002
,
0000
3003
0000
0220
,
0000
0330
0000
0002
,
0000
0013
0000
0200
,
0000
1300
0000
2000
,
0000
3010
0000
0200
,
0000
0301
0000
0000
;

//---------------dance-single - ----------------
#NOTES:
     dance-single:
     :
     Medium:
     13:
     0.586145,0.672010,0.340566,0.373001,0.036489,506.000000,464.000000,42.000000,46.000000,0.000000,0.000000,0.586145,0.672010,0.340566,0.373001,0.036489,506.000000,464.000000,42.000000,46.000000,0.000000,0.000000:
0000
0000
0000
0000
,
0000
0000
0000
0000
,
0000
0000
0000
0000
,
0000
0000
0000
0000
,
0001
0000
0100
0000
0010
0100
0010
0100
,
0010
0000
1000
0000
0100
0010
0100
0010
,
0100
0000
1000
0010
0100
0000
0001
0000
,
1001
0000
0010
0100
0010
0000
0001
0000
,
0010
0001
1000
0000
0010
0000
0100
0000
,
0010
0100
0001
0010
0100
0000
1000
0000
,
0010
0100
0010
0000
1000
0100
2000
0000
,
0000
0000
3001
0100
0010
0000
0100
0000
,
0001
0010
0100
0000
1000
0000
0010
0100
,
0010
0100
0010
0000
1000
0100
0000
0010
,
0000
0001
0000
1000
0001
0010
0100
0000
,
0110
1001
2000
0000
,
0010
0100
3020
0000
,
0000
0130
0200
0001
,
0001
0010
0320
0000
,
1030
0001
1002
0000
,
0010
0100
0023
0000
,
0000
0130
1000
0010
,
0100
0001
0010
0100
,
0110
0000
1001
0000
,
0001
0010
0100
0000
,
1000
0000
0010
0100
0010
0000
1000
0000
,
0100
0010
0001
0100
,
0010
0100
0001
0000
0011
0000
0000
0000
,
1000
0000
0010
0100
0020
0000
0000
0000
,
1030
0100
0010
0001
,
0100
0010
0100
0000
2002
0000
0000
0000
,
0000
0000
3003
0000
0110
0000
0010
0100
,
0010
0000
0100
0010
0000
0010
0000
0010
,
0100
0000
0110
0000
1001
0000
0001
1000
,
0001
0000
1000
0001
0000
0001
0000
0001
,
1000
0000
1001
0000
1010
0000
0010
0100
,
0010
0000
0100
0001
0010
0001
0000
0001
,
0010
0000
0011
0000
1000
0100
1000
0000
,
1100
0000
0000
0000
0000
0000
0000
0000
0100
0000
0000
0000
1000
0000
0000
0000
0002
0003
0000
0000
0000
0000
0000
0000
2001
0000
0000
0000
0000
0000
0000
0000
,
0000
0100
0100
0000
3100
0000
1000
0010
,
0000
0010
1000
0000
1010
0000
0012
0000
,
0000
0100
0100
0000
0103
0000
0100
0010
,
0000
0010
0100
0010
0100
0000
0201
0000
,
0000
0010
0010
0000
0301
0000
0010
0001
,
0000
1000
0100
1000
0010
0000
0120
0000
,
0000
1000
1000
0000
0130
0000
0220
0000
,
0000
0330
0000
0000
,
0000
0000
0000
0000
1000
0100
0010
0100
,
1000
0010
0100
0001
0010
0001
1000
0010
,
0100
0000
0000
0110
0000
0000
0010
0000
0100
0000
0001
0000
0010
0000
0100
0000
,
0010
0001
1000
0010
0100
0000
1001
0000
,
0010
0000
1001
0000
0010
0001
0100
0010
,
1000
0010
0100
0001
0010
0100
1000
0010
,
0100
0000
0000
0110
0000
0000
0010
0000
1000
0000
0100
0000
0010
0000
0001
0000
,
0100
0010
1000
0001
1000
0000
0011
0000
,
0100
0000
1001
0000
0010
0100
0010
0100
,
0001
0010
0001
0010
0100
1000
0100
1000
,
0001
0000
0000
0100
0000
0000
0010
0000
1000
0000
0100
0000
1000
0000
0100
0000
,
0010
0001
0010
0001
1000
0000
1001
0000
,
0010
0000
0110
0000
0100
0001
0010
0100
,
1000
0010
1000
0100
0010
0001
0100
0010
,
1000
0000
0000
0100
0000
0000
0010
0000
0001
0000
0100
0000
0010
0000
1000
0000
,
0100
0010
0001
0100
0020
0000
0000
0000
,
0000
0000
0030
0000
1000
0100
0001
0100
,
0000
1000
0001
0100
0001
0100
1000
0100
,
0000
0001
0010
0100
1000
0010
0100
0001
,
0000
0010
0001
0100
0010
0000
0110
0000
,
0100
0000
0110
0000
0001
0010
1000
0010
,
0000
0010
1000
0010
0001
0100
1000
0100
,
0000
0100
0001
0100
0010
1000
0100
0010
,
0000
0010
0100
1000
0002
0000
2003
0000
,
3002
0000
2003
0000
3010
0100
0001
0010
,
0100
1000
0100
0010
0001
0100
0010
1000
,
0001
0010
0100
1000
0010
0100
0001
1000
,
0100
0010
0001
0100
0010
0000
0110
0000
,
2002
0000
3003
0000
1000
0010
0100
0020
,
0000
1030
0100
0010
0001
0100
0010
0200
,
0000
0301
0010
0100
1000
0001
0010
0001
,
0100
0010
1000
0100
0020
0000
0000
0000
,
0002
0000
0000
0000
0033
0000
0000
0000
1100
0000
0000
0000
0000
0010
0100
0010
,
1000
0000
0000
0100
0000
0000
0010
0000
0001
0000
0000
0100
0000
0000
0010
0000
,
1000
0001
1000
0000
0200
0000
0320
0000
0230
0000
0320
0000
0031
0000
0100
0000
,
0010
0000
1000
0000
0010
0100
0001
0010
,
0100
0000
0010
0001
0100
0001
0010
0100
,
1000
0000
0010
0000
0100
0010
1000
0000
,
1010
0000
0011
0000
1010
0000
0100
0010
,
0100
0000
0001
0000
0010
0001
1000
0010
,
1000
0000
0001
0000
1000
0100
0010
0100
,
1000
0000
0010
0000
0100
0010
1000
0100
,
0010
0001
0200
0000
0300
0000
0220
0000
,
0000
0030
0000
0002
,
0000
0300
0000
2000
,
0003
0000
0000
0200
,
0000
0000
3300
2020
,
0000
0000
3030
0022
,
0000
0000
0033
2200
,
0000
0000
3300
0202
,
0000
0000
0303
0000
;

//---------------dance-single - ----------------
#NOTES:
     dance-single:
     :
     Hard:
     17:
     0.838674,0.948720,0.656806,0.640589,0.377056,724.000000,643.000000,81.000000,79.000000,0.000000,0.000000,0.838674,0.948720,0.656806,0.640589,0.377056,724.000000,643.000000,81.000000,79.000000,0.000000,0.000000:
0000
0000
0000
0000
,
0000
0000
0000
0000
,
0000
0000
0000
0000
,
0000
0000
0000
0000
,
0010
0000
0100
0000
0001
0000
0010
0000
0100
0000
1000
0010
1000
0000
0100
0000
,
0010
0000
0001
0000
0100
0000
0010
0000
1000
0000
0001
0100
0001
0000
1000
0000
,
0010
0000
0100
0000
0001
0000
0010
0000
0100
1000
0100
1000
0100
0000
0010
0000
,
0022
0033
0000
0000
0000
0000
0000
0000
1000
0000
0000
0000
1000
0000
0000
0000
1100
0000
0000
0000
0000
0000
0000
0000
1010
0000
0000
0000
0000
0000
0000
0000
,
0010
0100
0001
0010
0100
0010
0001
1000
,
0010
0100
0001
0001
0011
0000
1100
0000
,
0010
0000
0100
0000
0001
0000
0010
0000
1000
0000
0010
0000
0001
1000
0001
0000
,
0010
0100
1000
0010
1010
0000
0110
0000
,
0010
0000
0100
0000
0001
0000
0010
0000
0100
0000
0010
0000
0001
1000
0100
0000
,
1000
0010
0100
0100
0200
0001
0000
0010
,
0000
0000
1000
0000
0000
0000
0310
0000
1000
0000
0100
0000
0010
0100
1000
0001
,
0100
0000
0000
0000
0000
0000
0010
0000
0000
0000
0000
0000
0220
0330
0000
0000
0000
0000
0000
0000
0000
0000
0000
0000
1002
0000
0000
0000
0000
0000
0000
0000
0000
0000
0000
0000
0000
0000
0000
0000
0000
0000
0000
0000
0000
0000
0000
0000
,
0023
0130
2100
0000
,
0010
3100
0210
2300
,
3002
0103
0210
0000
,
0301
0010
2200
3300
,
1000
0010
0202
0300
,
0013
0020
2030
3020
,
0032
0203
2300
3200
,
0302
1003
1001
0100
,
0010
0100
0001
0010
0200
0000
0010
0000
,
1300
0000
0010
0100
0002
0013
0200
1300
,
0020
0130
0002
0013
0001
0100
1000
0100
,
0001
0010
0100
0000
1020
0000
0130
0000
,
0010
1000
0100
0010
0002
0000
0103
0000
,
0001
0010
0100
0000
0011
0000
1000
0010
,
0100
0000
0010
0000
1000
0000
0100
0000
2200
3300
0000
0000
0220
0330
0000
0000
,
0022
0033
0000
0000
0220
0330
0000
0000
1100
0000
0000
0000
0100
0000
1000
0000
,
0100
0000
1100
0100
1000
0100
1000
0100
,
1100
0000
1100
0000
0101
0000
0001
0100
,
0001
0000
0101
0100
0001
0100
0101
0100
,
0101
0000
0011
0000
1010
0000
0010
1000
,
1010
0000
0010
0001
0011
0100
1000
0010
,
0110
0000
1001
0000
0100
0010
0100
0010
,
1000
0000
0000
0001
0000
0000
1000
0000
0000
0001
0000
0000
0010
0000
0000
0100
0000
0000
0010
0000
0000
0100
0000
0000
2000
3000
0000
0000
0000
0000
0000
0000
0000
0000
0000
0000
1002
0000
0000
0000
0000
0000
0000
0000
0000
0000
0000
0000
,
0010
0010
0010
0000
1003
0010
2000
0100
,
0000
0100
3100
0000
0110
0000
1002
0000
,
0100
0100
0100
0000
1003
0010
0100
0010
,
1000
0100
0010
0100
1100
0000
0102
0000
,
0010
0100
0010
0000
0103
0001
0010
0100
,
0000
0110
0010
0100
1000
0010
2010
0000
,
0010
0100
0010
0000
3010
1000
0220
0000
,
0000
0000
0000
0000
0330
0000
0000
0000
0000
0000
0000
2002
0000
0000
0000
3003
,
0000
0000
0220
0000
0000
0000
0000
0000
0000
0330
0000
0000
0000
2002
0000
0000
0000
3003
0000
0000
0000
0000
0000
0000
0010
0000
0000
0000
0000
0000
0100
0000
0000
0000
0000
0000
0010
0000
0000
1000
0000
0000
0100
0000
0000
0000
0000
0000
,
0010
0000
0001
0000
0100
0010
1000
0000
0100
0000
0010
0000
0001
0010
0100
1000
,
0010
0000
0000
0110
0000
0000
1000
0000
0001
0000
1000
0000
0100
0010
0001
0000
,
0100
0000
0010
0000
1000
0001
0100
0010
0100
0000
0000
0000
1001
0000
0000
0000
,
0010
0000
0000
0000
1001
0000
0000
0000
0010
0000
0100
0000
0001
0010
0100
0000
,
1000
0000
0010
0000
0100
0010
1000
0000
0100
0000
0010
0000
0100
1000
0001
0100
,
0010
0000
0000
0110
0000
0000
0100
0000
0001
0000
0010
0000
0001
1000
0100
0000
,
1000
0000
0010
0000
0100
0001
0010
0001
1000
0000
0000
0000
1001
0000
0000
0000
,
0001
0000
0000
0000
2001
0000
0000
0000
3010
0000
0100
0000
0010
0100
0001
0100
,
0010
0000
1000
0000
0100
1000
0001
1000
0100
0000
0010
0000
0001
0100
0010
0100
,
0001
0000
0000
1001
0000
0000
1000
0000
0100
0000
0010
0000
0100
1000
0010
0100
,
0001
0000
0010
0000
0001
0100
0010
1000
0100
0000
0000
0000
1001
0000
0000
0000
,
0010
0000
0000
0000
1001
0000
0000
0000
0100
0000
0010
0000
0100
0010
1000
0100
,
0010
0000
0100
0000
1000
0001
0010
0001
0100
0000
0010
0000
0100
0001
0010
0100
,
1000
0000
0000
1000
0000
0000
1000
0000
0010
0100
0010
0100
0010
0000
1000
0000
,
0001
0100
0001
0100
0001
0000
0010
0000
0001
0000
0100
0000
1000
0000
0100
0000
,
0002
0000
0000
0000
0000
0000
0000
0000
1003
0000
0100
0010
0001
0000
0100
0000
,
0001
0000
0010
0100
1000
0000
0010
0000
1000
0000
0010
0100
0001
0000
0010
0000
,
0100
0000
1000
0010
0100
0000
0001
0000
0010
0000
0001
1000
0100
0000
1000
0000
,
0010
0000
0100
0001
0010
0000
0001
0000
1000
0000
1000
0000
1000
0000
0000
0000
,
2002
0000
0000
0000
0000
0000
3003
0000
0010
0000
0100
0001
0010
0000
0001
0000
,
1000
0000
0010
0100
0010
0000
1000
0000
0100
0000
0010
0001
0100
0000
0010
0000
,
1000
0000
0100
1000
0100
0000
0010
0000
0001
0000
0100
0010
0100
0000
0001
0000
,
1000
0000
0010
0100
0010
0000
1000
0000
0100
0010
0001
0100
0010
1000
0010
0100
,
0002
0000
0000
0000
1003
0110
0100
0010
,
0000
1010
0100
0001
0010
0011
0001
1000
,
0000
0110
1000
0001
1000
0110
0001
0010
,
0000
0000
0101
0000
0010
0000
1000
0000
0100
0000
0010
0001
1000
0000
0010
0000
,
0200
0000
0000
0000
0000
0000
0000
0000
0301
0000
0010
0100
1000
0000
0010
0000
,
1000
0000
0100
0010
0001
0000
1001
0000
1000
0000
0010
0100
0001
0000
0010
0000
,
0100
0000
1000
0001
0100
0000
0110
0000
0010
0000
1000
0000
0100
0000
1000
0001
,
0100
0000
0001
0000
0010
0000
0001
1000
0200
0000
0000
0000
0000
0000
0000
0000
,
0020
0000
0000
0000
0000
0000
0000
0000
0000
0000
0000
0000
0330
0000
0000
0000
1001
0000
0000
0000
0000
0000
0000
0000
0000
0000
0001
0010
0100
0000
1000
0000
,
0020
0000
0000
0230
0000
0000
0310
0000
1001
0000
0000
0100
0000
0000
0010
0000
,
0001
0100
1000
0200
0010
0000
0010
0000
0010
0000
0310
0000
1000
0000
0100
0000
,
0110
0000
0101
0000
0010
0100
1000
0010
,
0100
0000
0001
0000
1000
0100
0010
0100
1000
0000
0001
0000
0100
0000
0100
0000
,
0110
0000
0101
0000
0010
0001
1000
0001
,
0010
0000
0001
0000
0100
0010
0100
0010
0100
0010
0100
0010
0100
0000
0001
0000
,
0011
0000
1100
0000
0010
1000
0100
1000
,
0001
0000
1000
0000
0100
0010
0001
0010
0100
0000
1000
0000
0110
0000
0001
0000
,
0000
0001
0110
1000
0000
1000
0110
0100
,
0001
0010
0200
0000
0300
0000
2020
0000
,
0000
0000
0000
0000
3030
0000
0010
0100
0001
0000
0010
0000
0002
0000
0000
0000
,
0000
0023
0000
0000
1030
0000
1020
0000
,
0000
0032
0000
0000
0103
0000
1020
0000
,
0000
0032
0000
0000
0013
0000
0220
0000
,
0000
0000
0000
0000
0330
0000
0001
0010
0100
0000
1000
0000
0020
0000
0000
0000
,
0000
0230
0000
0000
0301
0000
2010
0000
,
0000
0100
0000
0000
3010
0000
0102
0000
,
0000
0010
0000
0000
0103
0000
0000
0000
;

//---------------dance-single - ----------------
#NOTES:
     dance-single:
     :
     Challenge:
     19:
     1.025174,1.225431,0.681133,0.664915,0.818981,885.000000,801.000000,84.000000,82.000000,0.000000,0.000000,1.025174,1.225431,0.681133,0.664915,0.818981,885.000000,801.000000,84.000000,82.000000,0.000000,0.000000:
// measure 0
0000
0000
0000
0000
,  // measure 1
0000
0000
0000
0000
,  // measure 2
0000
0000
0000
0000
,  // measure 3
0000
0000
0000
0000
,  // measure 4
0001
0000
0010
0000
0100
0000
1000
0000
0010
0000
1000
0100
0010
0000
0100
0000
,  // measure 5
1000
0000
0010
0000
0100
0000
0001
0000
0010
0000
0001
0100
0010
0000
1000
0000
,  // measure 6
0010
0100
0001
0100
0010
1000
0100
0010
0001
0100
0010
1000
0001
1000
0100
0010
,  // measure 7
0002
0003
0000
0000
0000
0000
0000
0000
0000
0000
0000
0000
0101
0000
0000
0000
0000
0000
0001
0000
0000
0000
0000
0000
0011
0000
0000
0000
0000
0000
0000
0000
0000
0000
0000
0000
0001
0000
0000
0000
0000
0000
1000
0000
0000
0000
0000
0000
,  // measure 8
0010
0000
1000
0100
0010
0000
0100
0000
1000
0000
0010
0000
0100
0010
0100
0010
,  // measure 9
0100
0001
0010
0010
0110
0000
1000
0001
,  // measure 10
0010
0000
0001
1000
0100
0000
1000
0000
0100
0000
0001
0000
0100
1000
0010
0000
,  // measure 11
0200
0000
0301
0010
0100
0000
1000
0000
1001
0000
0000
0000
0010
0000
0100
0000
,  // measure 12
0001
0000
0010
0001
1000
0000
0010
0000
0100
0000
0001
0000
1000
0100
0010
0001
,  // measure 13
0100
0010
1000
1000
1200
0010
0000
1000
,  // measure 14
0000
0000
0310
0000
0001
0000
0010
0000
0100
0000
1000
0000
0010
0100
0010
1000
,  // measure 15
0100
0000
0000
0010
0000
0000
0001
0000
0000
0010
0000
0000
0200
0300
0000
0000
0000
0000
0000
0000
0000
0000
0000
0000
0021
0000
0000
0000
0000
0000
0000
0000
0000
0000
0000
0000
0000
0000
0000
0000
0000
0000
0000
0000
0000
0000
0000
0000
,  // measure 16
0100
1030
0201
0000
,  // measure 17
1000
0000
0301
0000
0010
0100
1000
0010
,  // measure 18
0001
0010
1000
0100
0010
0000
1100
0000
,  // measure 19
0001
0100
1000
0000
0021
0000
0000
0000
,  // measure 20
1000
0130
0210
0000
,  // measure 21
1000
0000
0301
0000
1000
0100
0010
0000
,  // measure 22
0010
0100
1000
0000
0001
0100
0010
0100
,  // measure 23
0001
1000
0010
1000
0001
0000
0000
0000
0110
0000
0000
0100
0001
0000
0010
0000
,  // measure 24
0100
0000
1000
0010
1000
0000
0000
0000
0110
0000
0000
0010
1000
0000
0100
0000
,  // measure 25
0010
0001
1000
0001
0010
0000
0100
0000
2000
0000
3010
0000
0200
0000
0301
0000
,  // measure 26
0020
0130
2000
3001
0200
0310
0200
1300
,  // measure 27
0001
0010
1000
0100
0010
0000
0001
0000
1000
0000
0000
1000
0010
0000
0100
0000
,  // measure 28
0010
1000
0100
0000
0010
0000
0001
0000
0100
0000
0000
0100
0010
0000
0100
0000
,  // measure 29
0001
0010
0100
0000
0010
0000
0001
0000
1000
0000
0010
0000
0100
0000
0001
0000
,  // measure 30
0010
0100
1000
0000
0010
0100
0001
0100
0020
0000
0000
0000
1000
0000
1000
0000
,  // measure 31
1000
0000
0130
0000
0110
0000
0010
0100
,  // measure 32
0110
0000
0110
0010
0100
0110
0010
1000
,  // measure 33
1010
0000
1100
0000
0011
0000
1001
0001
,  // measure 34
1001
0000
1001
1000
1010
0010
0100
0001
,  // measure 35
0101
0000
0011
0000
1100
0000
0010
0100
,  // measure 36
1100
0000
1100
1000
0010
0100
0101
0001
,  // measure 37
0011
0000
1001
0000
0110
0000
0101
0001
,  // measure 38
0011
0000
0000
0000
0000
0000
0000
0000
0000
0000
0000
0000
1100
0000
0000
0000
0000
0000
0001
0000
0000
0000
0000
0000
2002
3003
0000
0000
0000
0000
0000
0000
0000
0000
0000
0000
0200
0000
0000
0000
0000
0000
0001
0000
0000
0000
0000
0000
,  // measure 39
0001
0001
0301
0000
0010
0100
2000
0010
,  // measure 40
0010
3010
1010
0000
0011
0000
0020
0100
,  // measure 41
0100
0100
0130
1000
0100
0010
0001
0100
,  // measure 42
1000
0000
0100
0000
0010
0100
0001
1000
0100
0000
0000
0000
0020
0000
0100
0000
,  // measure 43
0100
0100
0100
0000
0031
1000
0010
1000
,  // measure 44
0100
0000
0001
0000
0100
1000
0010
0100
0001
0000
1000
0000
0020
0000
0100
0000
,  // measure 45
0100
0100
0100
0000
1030
0001
0220
0000
,  // measure 46
0000
0000
0000
0000
0330
0000
0000
0000
0000
0000
0000
2002
0000
0000
0000
3003
,  // measure 47
0000
0000
0220
0000
0000
0000
0000
0000
0000
0000
0330
0000
0000
2002
0000
0000
0000
0000
3003
0000
0000
0000
0000
0000
0010
0000
0000
0100
0000
0000
0010
0000
0000
0100
0000
0000
0001
0000
0000
0010
0000
0000
0001
0000
0000
0010
0000
0000
,  // measure 48
0100
1000
0100
1000
0010
0100
0010
0100
0001
0010
0100
1000
0001
0010
0100
1000
,  // measure 49
0010
0000
0000
1001
0000
0000
0010
0000
1000
0100
1000
0100
0010
0001
0010
0001
,  // measure 50
0100
0010
0100
0010
1000
0010
0100
0001
0010
0000
0000
0000
2200
3300
0000
0000
,  // measure 51
0202
0303
0000
0000
2200
3300
0000
0000
0010
1000
0010
1000
0001
0100
0001
0100
,  // measure 52
0001
0010
0001
0010
0100
1000
0100
1000
0010
0100
0001
1000
0010
0100
0001
1000
,  // measure 53
0100
0000
0000
1100
0000
0000
1001
0000
0010
0001
0010
0001
1000
0100
1000
0100
,  // measure 54
1000
0001
1000
0001
0100
0010
1000
0100
0010
0000
0000
0000
0022
0033
0000
0000
,  // measure 55
2020
3030
1000
0000
0022
0033
0001
0000
1000
0010
0100
0010
1000
0100
0010
0100
,  // measure 56
1000
0010
0100
0010
1000
0001
0010
0001
0100
0010
0100
0001
0010
0100
0010
0001
,  // measure 57
0100
0000
0000
1001
0000
0000
0010
0000
0100
0001
0010
0001
0100
0010
0100
0001
,  // measure 58
0010
0100
0010
0001
1000
0010
0100
0010
1000
0000
0000
0000
0202
0303
0000
0000
,  // measure 59
2200
3300
0000
0000
0202
0303
0000
0000
1000
0010
0100
0001
0010
0100
1000
0100
,  // measure 60
0010
0001
0100
0010
1000
0001
0010
0100
1000
0010
0100
0001
0010
0100
1000
0100
,  // measure 61
0010
0000
0000
1001
0000
0000
0110
0000
0100
0001
0010
0100
0010
0001
0100
0010
,  // measure 62
1000
0100
1000
0010
0100
0010
1000
0100
0020
0000
0000
0000
0000
0000
0000
0000
,  // measure 63
0000
0000
0000
0000
0030
0000
0000
0000
0001
0000
0100
0010
0100
0000
0001
0000
,  // measure 64
0010
0100
1000
0100
0010
0000
0001
0000
1000
0000
0010
0100
0010
0000
1000
0000
,  // measure 65
0001
1000
0010
1000
0001
0000
0010
0000
0001
0000
1000
0100
1000
0000
0001
0000
,  // measure 66
1000
0010
0100
0010
1000
0000
0100
0000
1000
0000
0001
0010
0001
0000
1000
0000
,  // measure 67
1000
0001
0100
0010
1000
0100
0010
0001
0100
0000
0001
0010
0100
0000
0010
0000
,  // measure 68
0001
0100
0010
1000
0100
0000
1000
0000
0010
0000
1000
0100
0010
0000
0100
0000
,  // measure 69
1000
0001
0100
0010
1000
0000
0010
0000
0100
0000
0001
1000
0100
0000
1000
0000
,  // measure 70
0001
0100
0010
0100
0001
0000
1000
0000
0001
0100
0010
1000
0100
0010
0001
1000
,  // measure 71
0001
0010
0100
1000
0001
0010
0100
1000
0010
0000
1010
0000
1000
0000
1000
0100
,  // measure 72
0010
0000
0011
0000
0001
0000
0001
0100
0010
0000
0110
0000
0100
0000
0001
1000
,  // measure 73
0100
0000
1100
0000
0010
0000
0001
0100
0010
0000
0110
0000
0100
0000
0001
0010
,  // measure 74
0100
0000
1100
0000
1000
0000
0001
1000
0010
0000
0110
0000
0100
0000
0010
1000
,  // measure 75
0100
0010
0001
0100
0010
0000
0100
0010
0100
0000
0001
0010
0100
0000
0010
0001
,  // measure 76
0100
0000
0010
1000
0100
0000
0010
0100
1000
0000
0001
0100
0010
0000
1000
0001
,  // measure 77
0010
0000
0001
1000
0100
0000
1000
0001
0100
0000
0110
0000
0010
0000
1000
0100
,  // measure 78
0010
0000
0110
0000
0100
0000
0010
0001
0200
0000
2300
0000
3020
0000
0032
0000
,  // measure 79
0203
0000
0000
0000
2300
0000
0000
0000
3020
0000
0000
0000
0032
0000
0000
0000
0203
0000
0000
0000
0000
0000
0000
0000
0310
0000
1000
0100
0010
0000
0001
0000
,  // measure 80
0200
0000
0310
2000
0000
3001
1001
0000
0021
0000
0130
0020
0000
0031
0100
0000
,  // measure 81
0220
0300
0001
1000
0001
1030
0001
0010
,  // measure 82
1001
0000
0000
0000
1010
0000
0000
0000
0100
0000
0010
0100
0001
0000
0010
0000
,  // measure 83
0100
0000
1000
0000
0100
0000
0010
0000
0100
0000
1000
0001
0100
0000
0010
0000
,  // measure 84
1010
0000
0000
0000
1100
0000
0000
0000
0001
0000
0100
0010
0100
0000
0001
0000
,  // measure 85
0001
0000
0001
0000
1000
0010
0100
0010
1000
0100
0010
0001
0100
0000
0001
0000
,  // measure 86
0011
0000
0000
0000
1100
0000
0000
0000
0010
0000
1000
0100
0010
0000
0100
0000
,  // measure 87
1000
0000
0010
0000
0100
0001
0010
0000
0001
0000
1000
0010
0200
0000
0010
0000
,  // measure 88
0010
0010
0000
1000
0000
0001
0000
0310
,  // measure 89
0020
0000
1000
0000
0000
0000
0031
0000
0010
1000
0100
0020
0200
0000
0000
0000
,  // measure 90
0030
0000
0000
0000
0000
0000
1300
0001
0010
0000
0100
0000
2200
0000
0000
0000
,  // measure 91
3300
0022
0000
0033
2002
3003
0202
0003
,  // measure 92
0000
0320
0000
0000
1030
0000
1200
0000
,  // measure 93
0000
0001
0000
0000
1300
0000
0201
0000
,  // measure 94
0000
0000
0000
0000
1300
0000
0100
0001
0010
0000
0100
0000
1200
0000
0000
0000
,  // measure 95
0000
0010
0000
0000
1300
0000
0201
0000
,  // measure 96
0000
1000
0000
0000
0310
0000
1020
0000
,  // measure 97
0000
0001
0000
0000
0130
0000
0000
0000
;
