#TITLE:Mighty Guy;
#SUBTITLE:;
#ARTIST:荒牧陽子;
#TITLETRANSLIT:;
#SUBTITLETRANSLIT:;
#ARTISTTRANSLIT:Yoko Aramaki;
#GENRE:MAXIMUM;
#CREDIT:;
#BANNER:Mighty_Guy_banner.png;
#BACKGROUND:Mighty_Guy.png;
#LYRICSPATH:;
#CDTITLE:;
#MUSIC:Mighty Guy.ogg;
#OFFSET:0.315000;
#SAMPLESTART:53.480000;
#SAMPLELENGTH:12.380000;
#SELECTABLE:YES;
#BPMS:0.000000=156.000000
;
#STOPS:
;
#BGCHANGES:;
#KEYSOUNDS:;
#ATTACKS:;

//---------------dance-single - ----------------
#NOTES:
     dance-single:
     :
     Easy:
     6:
     0.266778,0.318586,0.142917,0.190556,0.000000,196.000000,181.000000,15.000000,20.000000,0.000000,0.000000,0.266778,0.318586,0.142917,0.190556,0.000000,196.000000,181.000000,15.000000,20.000000,0.000000,0.000000:
0000
0000
0000
0000
,
0000
0000
0000
0000
,
0000
0000
0000
0000
,
0000
0000
0000
0000
,
0000
0000
0000
0000
,
0200
0000
0000
0000
0000
0300
0000
0000
,
0020
0000
0000
0000
0000
0030
0000
0000
,
1001
0000
0100
0000
,
0010
0100
0010
0000
,
1000
0010
0100
0000
,
0001
0010
0100
0000
,
0010
0001
1000
0000
,
0100
1000
0001
0000
,
0110
0000
1000
0010
,
0100
0000
0001
0010
,
0011
0000
1000
0010
,
0100
0000
1001
0000
,
0110
0000
0000
0000
,
0000
0000
0000
0000
,
0001
0100
0001
0000
,
1000
0100
1000
0000
,
0020
0000
1030
0000
,
0001
0100
0010
0000
,
1000
0001
0010
0000
,
0001
0100
0010
0000
,
2000
0000
3001
0100
,
0010
1000
0100
0000
,
0010
0001
1000
0010
,
0100
0001
1000
0100
,
1000
0010
1000
0001
,
0202
0000
0303
0000
,
0010
1000
0001
0010
,
0100
1000
0001
0100
,
0010
0100
0001
1000
,
2002
0000
0000
0000
0000
3003
0000
0000
,
0100
0010
1010
0000
,
0100
0001
0011
0000
,
1000
0010
0100
0001
,
2002
0000
0000
0000
0000
3003
0000
0000
,
0010
0001
0100
0010
,
1000
0001
0100
0000
,
0010
1000
0100
1000
,
0002
0000
0013
0000
,
0010
0100
1100
0000
,
0010
0001
0101
0000
,
0010
1000
0001
0100
,
0220
0000
0000
0000
0000
0330
0000
0000
,
1000
0001
0010
0000
,
0100
1000
0001
0000
,
1000
0000
0110
0000
,
0001
0010
0100
1000
,
0020
0000
0000
0130
,
0001
1000
0100
0010
,
0002
0000
0103
0010
,
1000
0010
0100
0001
,
0010
0000
0000
0010
0000
0000
0100
0000
,
0000
0100
0000
0000
1000
0000
0000
0000
,
0002
0000
0103
0010
,
1000
0001
0100
0001
,
0010
0010
0100
0100
,
1000
1000
0001
0001
,
1000
0010
0100
0001
,
0010
0001
0200
0000
,
0301
0010
1000
0010
,
0001
0100
1000
0100
,
0020
0000
0130
0001
,
1000
0000
0001
0000
2002
0000
0000
3003
;

//---------------dance-single - ----------------
#NOTES:
     dance-single:
     :
     Medium:
     9:
     0.381112,0.446020,0.114334,0.142917,0.019056,280.000000,268.000000,12.000000,15.000000,0.000000,0.000000,0.381112,0.446020,0.114334,0.142917,0.019056,280.000000,268.000000,12.000000,15.000000,0.000000,0.000000:
0000
0000
0000
0000
,
0000
0000
0000
0000
,
0000
0000
0000
0000
,
0000
0000
0000
0000
,
0000
0000
0000
0000
0000
0000
0000
0010
,
0001
0000
0001
0000
1000
0000
1000
0010
,
0100
0000
0100
0010
1000
0000
1001
0000
,
0002
0013
2000
3010
,
0100
0110
0010
0110
,
1000
0000
0001
0000
0100
0001
0100
0000
,
0010
0000
1000
0000
0001
1000
0001
0000
,
1000
0000
0010
0000
0100
0010
0100
0000
,
0001
0000
0010
0000
0001
1000
0001
1000
,
0010
0000
0100
0000
0010
1000
0010
0000
,
0100
0000
0001
0000
1000
0010
1000
0000
,
0001
0000
0100
0000
0001
0010
0001
0000
,
1000
0010
1000
0000
0001
0100
0001
0000
,
2002
0000
0000
0000
,
0000
0000
0000
0000
0000
3003
0000
0000
,
1000
0000
0010
1000
0000
0010
1000
0000
,
0001
0000
0100
0001
0000
0100
0001
0000
,
1000
0000
0010
0000
0100
0000
0001
0010
,
0001
0000
1000
0000
0010
0100
0010
0000
,
1000
0000
0001
0100
0000
0001
0100
0000
,
0010
0000
1000
0001
0000
1000
0001
0000
,
0200
0320
1030
0001
,
1000
0000
0010
0000
0100
0001
0100
0000
,
0001
0010
1000
0010
,
0001
0100
1000
0100
,
0001
0000
1000
0001
0000
0100
0000
0020
,
0000
0000
0000
0030
,
1000
0000
0100
0010
0000
0100
1000
0000
,
0001
0000
0100
0010
0000
0100
0001
0000
,
1000
0000
0001
0000
0100
0010
0100
0020
,
0000
0000
0000
0030
,
1000
0000
0100
0000
1100
0000
1000
0001
,
0000
0001
0010
0000
0000
0000
0001
0000
,
0010
0000
1010
0000
1000
0100
0010
0002
,
0000
0000
0000
0000
0000
0003
0000
0000
,
0010
0001
0011
1000
,
0010
0000
0100
0010
0000
0000
0110
0000
,
0001
0000
1000
0000
0010
0100
0010
1000
,
0000
0002
0000
0000
0000
0000
0003
0000
,
0010
0000
0001
0000
0011
0000
0001
1000
,
0000
1000
0100
0000
0000
0000
1000
0000
,
0010
0000
0101
0000
0001
0010
0100
2000
,
0000
0000
0000
0000
0000
3000
0000
0000
,
0010
0100
0110
0010
,
1000
0001
1000
0001
0000
0000
0200
0000
,
0301
0000
0001
1000
0010
0000
1001
0000
,
0100
0000
0010
1000
0010
0000
0100
0000
,
0002
0000
0000
0000
0003
0000
0010
0001
,
0000
1000
0000
0001
0000
0100
0010
0200
,
0000
0000
0000
0300
0010
0000
1000
0100
,
0000
0010
0000
0100
0000
1000
0000
0000
,
0001
0000
0001
0100
0000
0000
0010
0000
,
0000
1000
0000
0000
0001
0000
0000
1000
,
0010
0000
0100
0000
0001
0010
0001
0010
,
0000
0001
0000
1000
0000
0100
0000
1000
,
0100
0000
0000
0010
0000
0000
0001
0000
0000
1000
0000
0000
0010
0000
0000
0000
,
0100
0000
0000
0001
0000
0000
1000
0000
0000
0010
0000
0000
0100
0000
0000
0000
,
0001
0000
1000
0000
0010
0000
0100
0010
,
1000
0000
0001
0000
1000
0100
1000
0010
,
0100
0001
0100
0000
0010
1000
0010
0000
,
1000
0100
1000
0000
0001
0100
0001
0000
,
0020
0000
0031
0000
1000
0100
1000
0001
,
0000
1000
0000
0010
0100
0010
0100
0010
;

//---------------dance-single - ----------------
#NOTES:
     dance-single:
     :
     Hard:
     13:
     0.628835,0.700889,0.323945,0.114334,0.209612,462.000000,428.000000,34.000000,12.000000,0.000000,0.000000,0.628835,0.700889,0.323945,0.114334,0.209612,462.000000,428.000000,34.000000,12.000000,0.000000,0.000000:
0000
0000
0000
0000
,
0000
0000
0000
0000
,
0000
0000
0000
0000
,
0000
0000
0000
0000
,
0000
0000
0000
0000
0000
0000
0000
1000
,
1002
0000
0103
0000
0110
0000
0010
1000
,
0001
0100
0010
0200
0000
0000
0301
0000
,
1020
0000
0130
0010
0200
0000
0301
0010
,
0001
1000
0100
0010
0001
0010
0100
1000
,
0010
0000
1000
0010
0000
0000
0100
0000
0001
0000
0100
0001
0000
0000
0010
0000
,
0001
0000
1000
0001
0000
0000
0100
0000
0010
0000
1000
0100
0000
0000
1000
0000
,
0001
0000
0100
0010
0000
0000
1000
0000
0010
0000
0100
0001
0000
0000
1000
0000
,
0001
0100
0010
0100
0001
0001
1000
1000
,
0010
0000
0100
0010
0000
1000
0010
0000
0100
0000
0001
0100
0000
0010
0100
0000
,
0001
0000
0010
0001
0000
1000
0001
0000
1000
0000
0010
1000
0000
0001
1000
0000
,
0001
0000
0100
0010
0000
1000
0100
0000
1000
0000
0010
0100
0000
0001
0010
0000
,
0001
1000
0000
1100
0000
0101
0000
0110
,
0020
0000
0000
0000
0000
0000
0000
1000
,
1000
0000
0000
0000
0130
0001
0100
0010
,
1000
0001
0010
0001
0000
1000
0010
0100
,
0001
0010
0100
1000
0000
1000
0001
0100
,
0010
0000
0000
0000
1010
0000
0000
0000
1001
0000
0000
0000
0100
0000
0000
0010
,
0100
0000
0101
0000
0001
1000
0010
0100
,
0001
0010
0100
1000
0000
0001
0100
0000
,
0010
1000
0100
0010
0000
0011
0000
0001
,
1000
0000
0000
1000
0001
0000
0000
0001
0100
0000
0010
0000
1000
0000
0010
0000
,
0100
0001
0010
0001
1000
0010
0100
0000
,
0001
0100
1000
0100
0001
0010
1000
0010
,
0001
0100
1000
0100
0001
0010
1000
0010
,
0001
1000
0010
0100
0000
0110
0000
1001
,
0000
1010
0000
0100
0010
1000
0001
1000
,
0010
1000
0100
1000
0010
0100
1000
0100
,
0001
0010
0100
0010
0001
1000
0010
0100
,
0010
0000
1010
1000
0001
0100
0010
0100
,
0001
0101
0000
1100
0000
0010
0100
0010
,
1000
0000
0011
0000
1100
0000
1000
0010
,
0000
0010
0100
0001
0100
0010
1000
0010
,
0000
1010
1000
0001
0010
0001
1000
0002
,
0000
0000
0100
0000
0100
0000
0103
0010
,
1000
0000
0000
0000
1100
0000
0000
0100
0010
0000
0000
0000
0010
0000
0000
0010
,
0001
0000
0001
1000
0010
0100
0001
0000
,
0011
0000
0000
0000
1001
0000
0000
1000
0010
0000
0100
0000
0010
0000
0110
0000
,
0000
1001
0000
0001
1000
0100
0010
0001
,
1000
0000
0101
0000
1010
0000
1000
0001
,
0000
0100
0010
1000
0010
0100
0001
0010
,
0000
0010
0001
1000
0100
0001
0100
2000
,
0000
0000
0010
0000
0010
0000
3010
0100
,
0001
0000
0000
0000
0001
0000
0000
0100
0010
0000
0000
0000
1000
0000
0000
1000
,
0001
0010
0100
2000
0000
0000
3010
0100
,
0001
0000
0010
0000
0001
0000
1000
0010
1000
0000
0001
0000
0100
0000
0010
0000
,
1000
0000
0001
0000
0010
0001
1000
0000
0010
0000
0100
0000
0010
0000
0100
0000
,
0002
0000
1000
0000
0103
0010
0100
0010
,
0000
0000
1000
0010
1000
0000
0001
0000
0100
0000
0010
0000
1000
0000
0200
0000
,
0000
0000
0000
0000
0000
0000
0310
0001
0010
0000
0001
0000
0000
0000
1001
0000
,
0000
1010
0000
0101
0000
0100
0010
1000
,
0001
0010
0001
0000
0100
0000
0010
1000
0010
0000
0100
0000
0001
1000
0001
0000
,
0010
0000
0100
1000
0100
0000
1000
0000
0001
1000
0001
0000
0010
0000
0001
0000
,
2000
0000
3010
0000
0100
0001
0010
0001
,
0000
1001
0000
0100
0010
1000
0001
0010
,
0001
0000
0001
0010
0000
0010
0100
0000
0100
1000
0000
0000
1001
0000
0000
0000
,
1000
0000
1000
0100
0000
0100
0010
0000
0010
0001
0000
0000
1001
0000
0000
0000
,
1010
0000
0000
0010
0100
0000
0000
0100
0001
0000
0010
0000
0001
0000
1000
0000
,
0100
1000
0010
0100
0001
0010
0001
0100
,
0010
0100
1000
0100
0010
1000
0001
0010
,
0100
1000
0001
0010
1000
0010
0001
0100
,
0002
0000
1003
0000
0010
1000
0100
1000
,
0000
0000
0001
0100
0001
0000
1000
0000
0010
0000
0010
0000
0010
0000
0110
0000
;

//---------------dance-single - ----------------
#NOTES:
     dance-single:
     :
     Challenge:
     16:
     0.861586,0.955758,0.333473,0.095278,0.728877,633.000000,598.000000,35.000000,10.000000,0.000000,0.000000,0.861586,0.955758,0.333473,0.095278,0.728877,633.000000,598.000000,35.000000,10.000000,0.000000,0.000000:
// measure 0
0000
0000
0000
0000
,  // measure 1
0102
0000
1000
0000
0203
0000
0010
0320
,  // measure 2
0000
1030
2010
0000
0000
3001
0010
1010
,  // measure 3
0000
1000
0010
0011
0000
0001
0100
1200
,  // measure 4
0000
0000
0010
0000
0001
0000
0310
1000
,  // measure 5
1000
0000
0000
1000
0001
0000
0000
0001
0010
0000
0001
0000
1000
0000
0100
0000
,  // measure 6
0010
0000
1000
0000
0001
0000
0100
0000
0000
0100
1000
0000
0001
0000
0010
0000
,  // measure 7
0001
0000
0100
0000
0001
0000
1000
0001
1000
0000
0010
0000
0100
0000
0010
1000
,  // measure 8
0001
1000
0010
0000
0100
0010
0100
0000
0001
0000
0010
0100
0010
0000
0001
0000
,  // measure 9
1000
0000
0010
0001
0000
0010
0100
0000
0001
0000
0100
1000
0000
0100
0010
0000
,  // measure 10
1000
0000
0010
0100
0000
0010
1000
0000
0001
0000
0010
0100
0000
0010
0001
0000
,  // measure 11
0100
0000
0010
1000
0000
0001
0100
0000
0010
0000
1000
0100
0000
0010
0001
0000
,  // measure 12
0100
0000
0010
0100
0010
0000
1000
0000
0001
0000
0011
0000
1001
0000
0011
0000
,  // measure 13
1000
0000
0010
0001
0000
0010
0100
0000
0001
0000
0100
1000
0000
0100
0010
0000
,  // measure 14
1000
0000
0100
0001
0000
0100
1000
0000
0001
0000
0010
1000
0000
0010
0001
0000
,  // measure 15
0100
0000
0010
0100
0000
0001
1000
0000
0010
0000
0100
0010
0000
1000
0001
0000
,  // measure 16
0010
0000
0100
1000
0100
0000
0010
0000
0001
0000
1100
0000
1001
0000
1100
0000
,  // measure 17
0020
0000
0000
0000
0000
0000
0000
0100
,  // measure 18
0200
0000
0030
0000
0301
0100
1000
0010
,  // measure 19
0100
0001
0010
1000
0000
1000
0010
0001
,  // measure 20
0100
1000
0010
0001
0000
0001
0010
1000
,  // measure 21
0001
0000
0000
0001
0010
0000
0000
0010
0100
0000
0000
0100
1000
0000
0000
1000
,  // measure 22
0010
0000
0100
0010
0100
0000
0001
0000
1000
0000
0010
0100
0010
0000
1000
0000
,  // measure 23
0001
1000
0100
0010
0000
0010
0001
0100
,  // measure 24
1000
0100
0001
1001
0000
0010
0100
0010
,  // measure 25
1000
0000
0000
1000
0010
0000
0000
0010
0100
0000
0001
1000
0001
0000
0010
0000
,  // measure 26
0100
1000
0010
0001
0010
0010
0010
0010
,  // measure 27
1000
0000
0100
0000
0010
0000
0100
0000
1000
0001
1000
0001
1000
0000
0010
0000
,  // measure 28
0100
0000
0001
0000
1000
0000
0001
0000
0100
0010
0100
0010
0100
0000
0001
0000
,  // measure 29
0010
0000
0001
0000
1000
0000
0100
0010
0100
0000
1000
0000
0001
0000
0100
0000
,  // measure 30
0010
0000
0100
0010
1000
0000
0001
0010
0100
0000
1000
0100
0010
0000
0001
0000
,  // measure 31
1000
0000
0010
0000
0100
0000
0010
0000
1000
0001
0100
0001
1000
0000
0010
0000
,  // measure 32
0100
0000
0001
0000
1000
0000
0100
0000
0010
0100
1000
0100
0010
0000
0001
0000
,  // measure 33
0011
0000
0000
0001
1000
0000
0000
1000
0010
0000
0100
0000
0001
0000
1000
0000
,  // measure 34
0110
0000
0001
0000
1000
0000
1001
0000
0100
0010
0100
0010
1000
0001
1000
0001
,  // measure 35
0100
0000
0000
0100
0010
0000
0000
0010
1000
0000
0000
1000
0001
0000
0011
0000
,  // measure 36
0000
0000
0100
1000
0100
0000
0010
0000
0001
0000
1000
0010
0100
0000
0010
0000
,  // measure 37
0000
0000
0100
0010
0100
0000
0001
0000
1000
0000
0001
0010
0001
0000
1000
0000
,  // measure 38
0100
0000
1000
0010
1000
0000
0001
0010
0001
0000
1000
0100
1000
0000
0001
0100
,  // measure 39
0010
0000
0000
0010
1000
0000
0000
1000
0100
0000
0000
0100
0001
0000
0000
0001
,  // measure 40
0100
0000
1000
0000
0010
0000
0110
0000
0000
0000
0100
0000
0001
0000
0000
0001
,  // measure 41
0010
0000
0000
0010
1000
0000
0000
1000
0010
0000
0100
0001
0100
0000
0010
0000
,  // measure 42
0001
0000
1001
0000
0000
0000
0110
0000
1000
0010
1000
0010
0100
0001
0100
0001
,  // measure 43
0010
0000
0000
0010
0100
0000
0000
0100
0001
0000
0000
0001
1000
0000
1100
0000
,  // measure 44
0000
0000
0010
0001
0010
0000
0100
0000
1000
0000
0001
0100
0010
0000
0100
0000
,  // measure 45
0000
0000
0010
0100
0010
0000
1000
0000
0001
0000
1000
0100
1000
0000
0001
0000
,  // measure 46
0010
0000
0001
0100
0001
0000
1000
0100
1000
0000
0001
0010
0001
0000
1000
0010
,  // measure 47
0100
0000
0000
0100
0001
0000
0000
0001
0010
0000
0000
0010
1000
0000
0000
1000
,  // measure 48
0010
0000
0001
0100
0010
0000
1010
0000
0000
0000
0101
0000
0100
0000
0010
0000
,  // measure 49
1000
0000
0100
0001
0100
0000
1000
0000
0010
0000
1000
0001
1000
0000
0010
0000
,  // measure 50
0100
0010
0100
0000
0001
0010
0001
0000
1000
0100
1000
0100
0010
0000
0001
0000
,  // measure 51
2000
0010
0000
3100
0010
0001
1000
1010
,  // measure 52
0000
0000
0001
0010
0001
0000
0100
0000
0010
0000
1000
0100
1000
0000
0001
0000
,  // measure 53
0000
0000
0110
0000
0000
0000
1000
0001
1000
0000
0100
0000
0010
0000
0011
0000
,  // measure 54
0000
0000
1000
0100
0010
0000
0100
1000
0001
0000
0100
0000
0110
0000
0010
0000
,  // measure 55
1000
0100
0010
0100
1000
0000
0001
0010
0100
0010
0001
0000
1000
0010
0100
0010
,  // measure 56
1000
0000
0001
0100
0010
0100
0001
0000
0100
0010
1000
0001
0100
0000
0001
0010
,  // measure 57
0002
0000
1000
0000
0000
0000
1003
0010
0100
0000
0010
0000
1000
0000
1100
0000
,  // measure 58
0000
0000
0001
0010
0001
0000
1000
0000
0010
0000
0110
0000
0100
0000
0110
0000
,  // measure 59
0001
1000
0100
1000
0001
0100
0001
1000
0100
0001
0100
1000
0010
0000
0010
0000
,  // measure 60
1000
0001
0010
0001
1000
0010
1000
0001
0010
1000
0010
0001
0100
0000
0100
0000
,  // measure 61
0001
0000
0000
0001
1000
0000
0000
1000
0100
0000
0010
0000
0100
0000
1000
0000
,  // measure 62
0010
0000
0100
0010
0100
0000
0001
0000
1000
0000
1100
0000
0100
0000
0110
0000
,  // measure 63
0001
0010
0100
0010
0100
1000
0001
0100
0010
0100
0001
0010
0100
0000
1000
0000
,  // measure 64
1000
0010
0100
0001
1000
0100
0010
0001
0100
0010
1000
0001
0010
0000
0010
0000
,  // measure 65
0002
0000
0000
0000
0010
0000
0000
0000
1003
0000
0010
0100
0010
0000
0100
0000
,  // measure 66
0001
0000
0010
0100
1000
0000
0001
0000
1001
0000
0110
0000
1001
0000
0110
0000
;
