#TITLE:見えない星の渡り方;
#SUBTITLE:;
#ARTIST:Capchii feat. ことの;
#TITLETRANSLIT:Mienaihoshi no watarikata;
#SUBTITLETRANSLIT:;
#ARTISTTRANSLIT:Capchii feat. Kotono;
#GENRE:;
#CREDIT:;
#BANNER:Mienaihoshi_no_watarikata_banner.png;
#BACKGROUND:Mienaihoshi_no_watarikata.png;
#LYRICSPATH:;
#CDTITLE:;
#MUSIC:Mienaihoshi no watarikata.ogg;
#OFFSET:-0.305000;
#SAMPLESTART:94.510002;
#SAMPLELENGTH:12.000000;
#SELECTABLE:YES;
#BPMS:0.000000=178.000000
;
#STOPS:87.500000=0.169000
;
#BGCHANGES:;
#KEYSOUNDS:;
#ATTACKS:;

//---------------dance-single - ----------------
#NOTES:
     dance-single:
     :
     Easy:
     7:
     0.241598,0.323255,0.065677,0.279128,0.000000,206.000000,198.000000,8.000000,34.000000,0.000000,0.000000,0.241598,0.323255,0.065677,0.279128,0.000000,206.000000,198.000000,8.000000,34.000000,0.000000,0.000000:
0000
0000
0000
0000
,
0100
0000
0001
0000
,
0010
0000
0000
0000
,
0100
0000
1000
0000
,
0010
0000
0000
0000
,
1000
0000
0100
0000
,
0010
0000
0000
0000
,
0001
0000
0100
0000
,
0220
0000
0330
0000
,
1000
0000
0001
0010
,
0001
0000
0100
0000
,
0010
0000
1000
0100
,
1000
0000
0001
0000
,
0010
0000
0100
1000
,
0100
0000
0010
0000
,
0002
0000
0000
0000
0000
0003
0000
0000
,
0200
0000
0000
0000
0000
0300
0000
0000
,
0001
0000
0010
0000
,
0001
0000
2000
0000
,
0000
0000
0000
0000
3000
0000
0000
0200
,
0000
0000
0300
0000
,
0000
0000
0000
0000
,
1000
0000
0000
0000
0010
0000
0000
0100
,
0000
0000
0000
0001
,
0000
0000
0000
0010
0000
0100
0000
0000
,
0000
1000
0001
1000
,
0000
0000
0000
0010
0000
0010
0000
0000
,
0000
0100
0000
0001
,
1000
0000
0100
0000
0000
0010
0000
0000
,
0001
2000
0000
3001
,
0010
0000
0100
0000
0000
1000
0000
0000
,
0010
2000
0000
3001
,
0010
0000
0001
0000
0000
0100
0000
0000
,
0001
0020
0000
0031
,
0000
0000
1000
0000
0000
0010
0000
0000
,
1000
0100
0000
1000
,
0000
0001
0000
0220
,
0000
0000
0000
0330
0000
0000
0002
0000
,
0000
0013
0000
0020
,
0000
0130
0000
0200
,
0000
1300
0000
2000
,
0000
3001
0000
0002
,
0000
1003
0000
2000
,
0000
3010
0000
0020
,
0000
0130
0000
0200
,
0000
0301
0000
0001
,
0000
1000
0000
2002
,
0000
3003
0000
0100
,
0000
0010
0000
0220
,
0000
0330
0000
1000
,
0000
0001
0000
0010
,
0000
0100
0000
1000
,
0010
1000
0000
0001
,
0000
0020
0000
0031
,
0100
0010
0000
1000
,
0100
0010
0000
0001
,
1000
0010
0000
0100
,
0010
1000
0000
0100
,
1000
0001
0000
0010
,
0001
1000
0000
0010
,
0100
0000
0010
0000
0000
1000
0000
0000
,
0100
2000
0000
3001
,
0010
0000
0001
0000
0000
0100
0000
0000
,
0010
0200
0000
0310
,
0000
1000
0000
0000
0000
0100
0000
0000
,
1000
0002
0000
0013
,
0001
1000
0001
1000
,
0010
0100
0000
0001
,
1000
0100
0010
2002
,
0000
0000
0000
3003
0000
0000
0100
0000
,
0001
0010
0001
1000
,
0000
0010
0000
0010
,
0100
0001
1000
0100
,
0000
0010
0000
0100
,
1000
0010
0100
0001
,
0000
0010
0000
0001
,
0100
0010
1000
0100
,
0000
1000
0000
0001
,
1000
0100
0010
0001
,
0000
1001
0000
0100
,
0001
0010
0100
1000
,
0000
0110
0000
0001
,
0100
0000
0010
0000
0000
0010
0000
0000
,
1000
0100
0010
0002
,
0000
2003
0000
3200
,
0000
0310
0000
2002
,
0000
0000
0000
0000
,
0000
0000
3003
0000
;

//---------------dance-single - ----------------
#NOTES:
     dance-single:
     :
     Medium:
     11:
     0.457394,0.468257,0.164193,0.295547,0.008210,390.000000,370.000000,20.000000,36.000000,0.000000,0.000000,0.457394,0.468257,0.164193,0.295547,0.008210,390.000000,370.000000,20.000000,36.000000,0.000000,0.000000:
0000
0000
0000
0000
,
0010
0000
0100
0000
0001
0000
0010
0100
,
0000
0100
0010
0000
2002
0000
3003
0000
,
0100
0000
0010
0000
1000
0000
0001
0100
,
0000
0100
0010
0000
2002
0000
3003
0000
,
0100
0000
0001
0000
0010
0000
0100
1000
,
0000
0001
1000
0000
0100
0000
0010
0000
,
0002
0000
0100
0000
0103
0000
0010
1000
,
0000
0100
0000
0220
0000
0330
0000
0000
,
0100
0000
1000
0001
1000
0000
0010
0000
,
0100
0000
0010
2000
0000
0000
3000
0000
,
0001
0000
0100
0010
0100
0000
0010
0000
,
1000
0000
0100
0010
0001
0000
0000
1000
,
0001
0000
0010
0100
0000
1000
0000
0010
,
0000
0110
0000
0000
0001
0000
1000
0000
,
0200
0000
0310
0000
,
0022
0000
0033
0000
,
1000
0000
0001
0010
0000
0001
0100
0000
,
0000
0000
0010
0100
0000
0010
1000
0000
,
0100
0010
0000
0000
0001
0000
0000
2002
,
0000
0000
0000
3003
,
0000
0010
0000
0100
0010
0100
0000
0000
,
0001
0000
1000
0000
0100
0010
0000
0012
,
0000
1003
0000
0010
,
0100
0000
0001
1000
0000
2002
0000
3003
,
0000
0010
0000
1000
0001
0000
0010
0000
,
0100
0000
1000
0001
0000
1000
0000
0010
,
0000
0100
0000
0001
0010
0000
0001
0000
,
1000
0000
0100
1000
0001
1000
0000
0010
,
0100
0001
0010
0002
,
0203
0000
0320
0000
1030
0001
0000
0010
,
0001
0010
0100
1000
,
0010
0000
0100
0010
0100
0001
0000
1000
,
0001
0100
0001
0010
,
0100
0000
1000
0001
0010
0001
0000
1000
,
0010
0100
0001
1000
,
0001
0000
0010
0100
1000
0100
0000
1000
,
0001
0100
0110
0002
,
0000
1000
1003
0000
0010
0020
0000
0000
,
0030
0000
0100
0200
,
0000
0001
0301
0000
0010
0020
0000
0000
,
0030
0001
1000
0100
,
1000
0001
0000
0010
0000
0001
0000
0000
,
0100
0001
0010
0100
,
1000
0010
0220
0000
,
0330
0000
0000
1001
,
0000
0110
0000
1000
0000
1001
0000
0000
,
0010
0001
1000
1100
,
0001
0010
0000
0001
0000
0202
0000
0000
,
0303
0010
1000
0100
,
1000
0010
1000
0000
0001
0000
0010
0000
,
0001
0100
0001
0000
1000
0000
0100
0000
,
0010
0001
1000
0001
0000
0100
0000
0010
,
0100
0001
0010
0001
,
1000
0100
1000
0001
0000
0100
0000
0001
,
0010
0001
1000
0010
,
1000
0001
0010
0001
0000
0100
0000
0001
,
0010
0000
0100
0000
1000
0000
0010
1000
,
0001
0000
0010
0000
0001
1000
0000
0001
,
1000
0000
0100
0000
0010
0000
0001
1000
,
0001
0000
1000
0010
1000
0001
0000
0010
,
0001
0000
1000
0000
0100
0000
0010
0100
,
1000
0100
0010
0000
0001
0100
0000
0000
,
0010
0000
0100
0000
0001
0000
1000
0001
,
0010
0001
0000
1000
0000
2020
0000
3030
,
0000
0000
0100
0001
0100
0000
0001
0010
,
0100
0010
0000
0001
1000
0010
0000
0100
,
0010
0000
0000
0000
1000
0000
0000
0000
0001
0000
0000
0000
1000
0000
0000
0001
,
0000
0000
1000
0000
0010
0000
0000
0100
0000
0000
0010
0000
0000
0000
0100
0000
,
0001
0010
0110
1000
,
0001
0010
0001
0000
1000
0010
0000
0100
,
0010
0100
0000
0000
0001
0000
1000
0100
,
1000
0000
0010
0000
0100
0001
0000
1000
,
0001
1000
0000
0010
0010
0000
0100
0000
,
0010
0100
0001
0000
0010
0100
0000
1000
,
0001
1000
0000
0000
0010
0000
1000
0100
,
1000
0000
0001
0100
0001
0100
0000
0010
,
0000
0220
0000
0000
0330
0000
0001
0000
,
1000
0010
1000
0000
0001
0010
0000
0001
,
0100
0001
0000
0000
1000
0000
0010
0000
,
0100
0001
0000
1000
0000
2200
0000
3300
,
0000
0000
0001
0000
0100
0000
0010
0100
,
0010
0000
1000
0001
0010
0001
0000
0100
,
0010
0000
1000
0000
0100
0000
0010
0100
,
1000
0000
0001
1000
0010
0000
0100
0001
,
1000
0200
0310
2002
,
0000
0000
0000
0000
,
0000
0000
0000
3003
;

//---------------dance-single - ----------------
#NOTES:
     dance-single:
     :
     Hard:
     15:
     0.689610,0.792436,0.369434,0.336595,0.303757,588.000000,543.000000,45.000000,41.000000,0.000000,0.000000,0.689610,0.792436,0.369434,0.336595,0.303757,588.000000,543.000000,45.000000,41.000000,0.000000,0.000000:
// measure 0
0000
0000
0000
0000
,  // measure 1
1002
0000
0100
0000
1003
0000
0010
1000
,  // measure 2
0100
0001
0100
2000
0000
0010
3010
0000
,  // measure 3
0120
0000
0100
0000
1030
0000
0100
0010
,  // measure 4
0001
1000
0001
0020
0000
0100
0130
0000
,  // measure 5
2100
0000
0001
0000
3100
0000
0010
0001
,  // measure 6
1000
0100
0001
0100
0000
1000
0001
0000
,  // measure 7
0100
0010
1000
0000
0010
1000
0001
0011
,  // measure 8
0000
0110
0000
2200
0000
0000
3300
0000
,  // measure 9
1001
0000
0010
0100
0010
0000
1000
0100
,  // measure 10
0010
0100
0001
0200
0000
1000
1300
0000
,  // measure 11
1001
0000
0100
0010
0100
0000
0010
1000
,  // measure 12
0010
0001
0010
0200
0000
0000
0310
1000
,  // measure 13
0100
0001
0100
1000
0000
1001
0000
0010
,  // measure 14
0100
0001
0010
0000
0001
1000
0100
0000
,  // measure 15
2002
0000
0000
3003
,  // measure 16
0100
1000
0010
0100
0001
1000
0100
0010
,  // measure 17
0002
0000
1003
0020
0000
0130
0002
0000
,  // measure 18
1003
0000
0001
0020
0000
0130
2000
0000
,  // measure 19
3010
0100
0000
0001
1000
0000
0000
0220
,  // measure 20
0000
0000
0000
0000
0330
0000
0000
1000
,  // measure 21
0100
0001
1000
0001
0100
1000
0000
0000
,  // measure 22
0110
0000
0000
0000
0001
0000
1000
0010
1000
0000
0001
0000
0000
0000
0011
0000
,  // measure 23
0000
0000
1000
0000
0100
0000
1000
0000
0001
0000
0100
0001
0100
0000
0000
0000
,  // measure 24
0110
0000
0000
0000
1000
0000
0001
0010
0001
0000
1000
0000
0000
0000
0100
0000
,  // measure 25
0010
0000
0100
0000
1000
0000
0001
0100
0010
0000
0000
0000
1010
0000
0000
0000
,  // measure 26
0101
0000
0000
0000
0010
0000
0100
1000
0001
0000
0100
0000
0000
0000
0100
0000
,  // measure 27
0010
0000
1000
0000
0001
0000
0010
0001
0010
0000
0010
0000
0100
0000
1000
0001
,  // measure 28
1000
0000
0010
0000
0100
0000
0001
0010
0100
0000
1000
0000
0010
0000
0100
0001
,  // measure 29
0100
0000
0000
0000
0000
0000
0010
0000
0000
0000
0000
0000
1000
0000
0000
0100
0000
0000
1000
0000
0000
0000
0000
0000
0002
0000
0000
0000
0000
0000
0000
0000
0000
0000
0000
0000
0013
0000
0000
0000
0000
0000
0000
0000
0010
0000
0000
0000
,  // measure 30
0100
0000
0000
0000
0000
0000
0000
0000
0100
0000
0000
0000
1000
0000
0000
0000
0000
0000
0001
0000
0000
1000
0000
0000
0010
0000
0000
0000
0000
0000
0100
0000
0000
0000
0000
0000
0000
0000
0000
0000
0000
0000
0010
0000
0000
0000
0000
0000
,  // measure 31
1000
0000
0001
0000
0010
0000
0001
1000
0010
0000
0000
0000
0101
0000
0000
0000
,  // measure 32
1000
0010
0000
0001
0010
1000
0000
1000
,  // measure 33
0001
0000
0010
0000
0100
0000
1000
0100
0000
0000
0010
0001
0010
0000
0001
0000
,  // measure 34
1000
0000
0010
0000
0100
0000
0001
1000
0100
0000
0010
0000
0000
0000
0010
0000
,  // measure 35
0001
0000
0100
0000
0001
0000
1000
0010
0000
0000
0100
0001
2000
0000
0000
0000
,  // measure 36
0000
3002
0000
0023
,  // measure 37
0000
0130
0000
2100
,  // measure 38
0000
0001
0001
0000
0010
0020
0000
0000
,  // measure 39
0000
3030
0000
0102
,  // measure 40
0000
1000
1000
0000
0010
0020
0000
0000
,  // measure 41
0033
0000
1000
0000
0100
0000
1000
0010
,  // measure 42
0001
0010
0000
1000
0000
1001
0000
0000
,  // measure 43
0010
0000
0100
1000
0001
0000
1001
0000
,  // measure 44
0100
0010
1000
0000
0022
0000
0000
0000
,  // measure 45
0033
0000
0000
1100
,  // measure 46
0000
0101
0000
0110
0000
1010
0000
0100
,  // measure 47
0100
0000
0100
0010
0100
0000
0011
0000
,  // measure 48
1000
0010
1000
0000
0000
0000
0011
0000
0000
0000
1100
0000
0000
0000
1000
0001
,  // measure 49
1000
0000
0010
0000
0100
0000
0010
0100
0010
0000
0000
0000
2000
0000
0000
0000
,  // measure 50
3100
0002
0100
2003
0010
3002
0100
0003
,  // measure 51
0010
0100
1000
0001
0100
0000
0110
0000
,  // measure 52
1000
0000
0000
0000
0001
0000
1000
0000
0100
0010
0200
0000
0000
0000
0000
0000
,  // measure 53
0000
0000
0000
0000
0000
0000
0000
0000
0300
0000
0000
0000
0010
0000
0001
1000
,  // measure 54
0010
0100
0001
1000
0100
0010
0000
0010
,  // measure 55
0100
0000
1000
0000
0010
0000
0100
0001
0000
1000
0010
0000
1000
0000
0001
0010
,  // measure 56
0001
1000
0100
0010
0001
1000
0000
1000
,  // measure 57
0001
0000
0010
0000
0001
0000
1000
0010
0000
0000
0010
0000
0100
0000
0001
0010
,  // measure 58
0100
0000
1000
0000
0010
0000
0100
0001
0000
1000
0100
0000
0000
0000
0100
0010
,  // measure 59
0100
0000
1000
0000
0001
0000
1000
0010
0000
0010
0100
0000
0001
0000
0000
1100
,  // measure 60
0000
0000
0010
0000
0001
0000
1000
0010
0000
0100
0001
0000
0000
0000
0001
0010
,  // measure 61
0001
0000
1000
0000
0001
0000
0010
0100
1000
0000
0100
0000
1000
0000
0010
0100
,  // measure 62
0010
0000
1000
0000
0001
0000
0010
0001
0000
1000
0001
0000
0000
0000
1000
0010
,  // measure 63
1000
0000
0001
0000
0100
0000
0010
0100
0000
0100
0010
0000
1000
0000
0001
0010
,  // measure 64
0000
0100
1000
0000
0000
0000
1000
0010
1000
0000
0001
0000
0000
0000
0001
0100
,  // measure 65
0001
0000
0010
0000
0100
0000
1000
0100
0000
0010
0001
0000
0100
0000
0001
0010
,  // measure 66
0000
0001
1000
0000
0010
0000
1000
0000
0001
0100
0001
0000
0000
0000
0001
1000
,  // measure 67
0001
0000
0010
0000
0100
0000
1000
0001
0000
0001
1000
0000
0010
0000
0000
0110
,  // measure 68
0000
0000
1000
0000
0001
0000
0010
0100
0000
0100
1000
0000
0000
0000
1000
0010
,  // measure 69
1000
0000
0001
0000
0010
0000
0001
0100
0010
0000
0000
0000
1020
0000
0000
0000
,  // measure 70
0100
0000
1030
0001
0010
0001
0000
0001
,  // measure 71
1000
0000
0001
0000
0010
0100
1000
0000
0010
0000
0000
0000
0201
0000
0000
0000
,  // measure 72
0010
0000
0301
1000
0100
0010
0000
0010
,  // measure 73
0100
0000
1000
0000
0001
0100
0010
0000
1000
0000
0000
0000
0120
0000
0000
0000
,  // measure 74
1000
0000
0000
0000
0130
0000
0001
0000
0010
0000
0100
0000
0000
0000
0100
0010
,  // measure 75
0100
1000
0001
0100
0010
0000
2010
0000
,  // measure 76
3100
0000
0010
0001
1000
1010
0000
0110
,  // measure 77
0000
0102
0000
1000
1003
0000
0100
0001
,  // measure 78
0010
0000
0001
1000
0010
0000
1000
0000
0001
0000
0100
0000
0000
0000
0100
0000
,  // measure 79
0010
0000
1000
0000
0100
0000
1000
0001
0100
0000
0000
0000
0001
0000
0010
0001
,  // measure 80
1000
0000
0010
0000
0000
0000
0110
0000
0000
0000
1001
0000
0000
0000
0010
0100
,  // measure 81
0010
1000
0100
1000
0200
0000
0310
0001
,  // measure 82
1000
0000
0001
0100
0010
0000
1000
0000
0001
0000
0010
0000
0000
0000
0010
0000
,  // measure 83
0100
0000
0010
0000
0001
0000
1000
0010
1000
0000
0000
0000
0010
0000
1000
0000
,  // measure 84
0001
0000
0100
0000
0101
0000
0000
1100
0000
0000
0110
0000
0000
0000
0010
0100
,  // measure 85
1000
0000
0001
0000
1000
0000
0010
0100
0001
0000
0000
0000
2020
0000
0000
0000
,  // measure 86
0000
0000
0000
0000
,  // measure 87
0000
0000
0000
3030
;
