#TITLE:Midnight Lady;
#SUBTITLE:;
#ARTIST:Dirty Androids;
#TITLETRANSLIT:;
#SUBTITLETRANSLIT:;
#ARTISTTRANSLIT:;
#GENRE:NU 80's DISCO FUNK;
#CREDIT:;
#BANNER:Midnight Lady_banner.png;
#BACKGROUND:Midnight Lady.png;
#LYRICSPATH:;
#CDTITLE:;
#MUSIC:Midnight Lady.ogg;
#OFFSET:-0.390000;
#SAMPLESTART:62.259998;
#SAMPLELENGTH:15.000000;
#LASTBEATHINT:264.500000;
#SELECTABLE:YES;
#BPMS:0.000000=128.000000
;
#STOPS:
;
#BGCHANGES:;
#KEYSOUNDS:;
#ATTACKS:;

//---------------dance-single - ----------------
#NOTES:
     dance-single:
     :
     Easy:
     4:
     0.171278,0.203743,0.078363,0.156725,0.000000,153.000000,143.000000,10.000000,20.000000,0.000000,0.000000,0.171278,0.203743,0.078363,0.156725,0.000000,153.000000,143.000000,10.000000,20.000000,0.000000,0.000000:
0000
0000
0000
0000
,
0000
0000
0000
0000
,
0000
0000
0000
0000
,
0000
0000
0000
0000
,
1000
0000
0010
0000
,
2000
0000
3000
0000
,
0001
0000
0010
0000
,
0002
0000
0003
0000
,
0100
0000
0010
0100
,
0010
0000
1000
0000
,
0100
0000
1000
0001
,
1000
0000
0010
0000
,
1000
0000
0001
0010
,
0100
0000
0010
0000
,
0001
0000
1000
0010
,
0100
0000
1001
0000
,
0010
0000
1000
0001
,
0100
0000
0010
0000
,
0100
0000
0001
0010
,
0100
0000
1000
0000
,
0010
0000
1000
0100
,
0010
0000
0001
0000
,
0100
0000
0001
0010
,
0100
0000
1001
0000
,
0200
0000
0310
0000
,
0020
0000
1030
0000
,
2000
0000
3001
0000
,
0002
0000
0103
0000
,
0020
0000
0130
0001
,
0010
0000
0001
0000
,
2000
0000
3010
0100
,
0001
0000
0010
0000
,
0011
0000
1100
0000
,
0100
0000
0010
0100
,
2000
0000
3001
0000
,
0001
0000
1000
0010
,
0100
0000
1001
0000
,
0010
0000
0100
0001
,
0020
0000
0130
0000
,
0010
0000
0001
1000
,
0010
0000
0110
0000
,
1000
0010
1000
0000
,
0001
0100
0001
0000
,
0010
0001
0010
0000
,
0100
1000
0100
0000
,
2000
0000
3010
0100
,
0002
0000
0013
0100
,
1000
0000
0001
0000
,
0220
0000
0330
0000
,
0001
0000
0001
0000
,
0001
0000
0001
0000
,
1000
0000
1000
0000
,
1000
0000
1000
0000
,
0020
0000
0000
0000
0000
0030
0000
0000
,
0200
0000
0000
0000
0000
0300
0000
0000
,
0002
0000
0000
0000
0000
0003
0000
0000
,
2000
0000
0000
0000
0000
3000
0000
0000
,
1010
0000
0001
0010
,
0100
0000
0010
0001
,
1000
0000
0010
0100
,
0001
0000
1100
0000
,
0010
1000
0001
1000
,
0020
0000
0130
0000
,
0001
0010
0100
1000
,
0002
0000
1003
0000
,
0110
0000
0000
0000
;

//---------------dance-single - ----------------
#NOTES:
     dance-single:
     :
     Medium:
     9:
     0.320167,0.384956,0.133216,0.203743,0.062690,286.000000,269.000000,17.000000,26.000000,0.000000,0.000000,0.320167,0.384956,0.133216,0.203743,0.062690,286.000000,269.000000,17.000000,26.000000,0.000000,0.000000:
0000
0000
0000
0000
,
0000
0000
0000
0000
,
0000
0000
0000
0000
,
0000
0000
0000
0000
,
2000
0010
0000
3010
,
0002
0100
0000
0103
,
0120
1000
0000
1030
,
0210
0001
0301
1000
,
0100
1000
0100
0000
1000
0000
0001
0000
,
0100
0001
0022
0033
,
0100
0001
0100
0000
0001
0000
0010
0000
,
0100
1000
2002
3003
,
0010
0100
0001
0000
0010
0000
0100
0000
,
1000
0000
0010
0100
0010
0000
1000
0000
,
0001
1000
0100
0000
0010
0000
0001
0000
,
0100
0010
0100
0000
2002
0000
3003
0000
,
0010
0000
0100
0000
0001
0000
0000
1000
0000
0000
0100
0000
0000
0000
0000
0000
,
1000
0010
0100
0001
,
0010
0000
0001
0000
0100
0000
0000
0010
0000
0000
1000
0000
0000
0000
0000
0000
,
0001
1000
0100
0010
,
0001
0000
1000
0000
0100
0000
0000
1000
0000
0000
0010
0000
0000
0000
0000
0000
,
0100
0010
1000
0001
,
0010
0000
0001
0000
1000
0000
0000
0010
0000
0000
0100
0000
0000
0000
0010
0000
,
1000
0001
0110
0000
,
2000
0100
0000
3010
,
0020
0000
0000
1030
0000
0000
0010
0000
,
0200
0000
0001
0000
0000
0301
0000
0010
,
0001
1000
0100
0010
,
0002
0000
0100
0000
0000
0103
0000
0000
,
0010
1000
0001
0100
,
0002
0000
0010
0000
0000
0103
0000
0000
,
0010
1000
0100
0010
,
1001
1001
1001
0000
,
0010
0000
0100
0000
0010
0000
0000
0000
1000
0000
0000
0100
0000
0000
0010
0000
,
0000
0001
0100
0001
,
0010
0000
0001
0000
0010
0000
0000
0000
0100
0000
0000
1000
0000
0000
0001
0000
,
0000
0100
0220
0330
,
1000
0000
0100
0000
0010
0000
0000
0000
0001
0000
0000
1000
0000
0000
0010
0000
,
0000
0100
0001
0010
,
0100
0000
1000
0000
0001
0000
0000
0000
0100
0000
0000
0010
0000
0000
1000
0000
,
0000
0001
2002
3003
,
0100
0000
0001
0000
0100
0000
0000
0000
0010
0000
0000
1000
0000
0000
0100
0000
,
0000
0000
0010
0000
0001
1000
0001
0000
,
1000
0000
0010
0000
0100
0000
0000
0000
0001
0000
0000
0010
0000
0000
0100
0000
,
0000
0000
1000
0000
0010
0100
0100
0000
,
0001
0000
0010
0000
0100
0000
0000
0000
1000
0000
0000
0010
0000
0000
1000
0000
,
0000
0000
0001
0100
0000
0010
1000
0000
,
0100
0000
1000
0000
0001
0000
0000
0000
0100
0000
0000
0010
0000
0000
0100
0000
,
0000
0001
0010
0000
0001
1000
0100
0010
,
0002
1000
0000
0103
,
0200
0010
0000
0301
,
2000
0100
0000
3001
,
0002
0010
0000
1003
,
0100
0000
0000
0000
0110
0000
0000
0000
0001
0000
0000
1000
0000
0000
0001
0000
,
1000
0000
0000
0000
1100
0000
0000
0000
0001
0000
0000
0100
0000
0000
0001
0000
,
0010
0011
1000
1100
,
0001
1000
0001
1000
0020
0000
0000
0000
,
0130
0000
0001
0000
0100
0000
0000
0000
0010
0000
0000
1000
0000
0000
0100
0000
,
0000
1000
0010
0000
1000
0001
0100
0000
,
0001
0000
0010
0000
0001
0000
0000
0000
1000
0000
0000
0010
0000
0000
0100
0000
,
0000
0010
1000
0000
0001
0010
0001
0000
,
1000
0100
0010
0000
0100
1000
0010
0100
,
0000
0010
0100
0001
0000
0010
0001
0000
,
1000
0100
1000
0000
0001
0100
0001
0000
,
1000
0001
1000
0001
0100
0000
0110
0000
,
2002
0000
3003
0000
;

//---------------dance-single - ----------------
#NOTES:
     dance-single:
     :
     Hard:
     13:
     0.587719,0.593645,0.141053,0.242924,0.466257,525.000000,507.000000,18.000000,31.000000,0.000000,0.000000,0.587719,0.593645,0.141053,0.242924,0.466257,525.000000,507.000000,18.000000,31.000000,0.000000,0.000000:
// measure 0
0000
0000
0000
0000
,  // measure 1
0100
0000
0000
0000
0000
0000
0000
0000
0000
0000
0000
0000
0000
0000
0000
0010
0000
0000
0000
0000
0000
0000
0000
0000
0000
0000
0000
0000
0100
0000
0000
0000
0000
0000
0000
0000
0000
0000
0000
0000
0000
0000
0020
0000
0000
0000
0000
0000
,  // measure 2
0000
0000
0000
0000
0000
0000
0000
0000
0000
0000
0000
1030
0000
0000
0001
0000
,  // measure 3
0000
0010
0000
0001
2000
0000
0000
0000
,  // measure 4
3010
0210
0000
0301
,  // measure 5
1000
0010
0001
0010
,  // measure 6
1000
1002
0000
0013
,  // measure 7
0100
0000
0000
0000
1000
0000
0000
0000
0100
0000
0001
0100
2000
0000
0000
0000
,  // measure 8
3001
0000
0100
0000
0001
0010
0000
0100
1000
0000
0010
0000
1000
0000
0001
0000
,  // measure 9
0010
0000
0001
0000
1000
0100
0000
1000
0100
0000
0010
0100
2000
0000
0000
0000
,  // measure 10
3001
0000
0100
0000
0010
1000
0000
0010
1000
0000
0001
0000
0010
0000
0100
0000
,  // measure 11
0010
0000
0001
0000
1000
0001
0000
0010
0100
0000
1000
0001
0200
0000
0000
0000
,  // measure 12
0310
0000
1000
0000
0010
1000
0000
0100
0010
0000
0001
0000
0100
0000
0001
0000
,  // measure 13
1000
0000
0100
0000
1000
0010
0000
0100
0001
0000
0010
0001
0200
0000
0000
0000
,  // measure 14
0310
0000
1000
0000
0100
1000
0000
0010
1000
0000
0001
0000
0100
0000
0001
0010
,  // measure 15
0001
0000
1000
0000
0001
0010
0000
0010
0100
0000
1000
0100
0010
0000
0010
0000
,  // measure 16
0001
0000
0100
0000
0010
1000
0000
0001
0100
0000
0001
0000
0010
0000
0100
1000
,  // measure 17
0100
0000
0001
0000
0100
0000
1000
0000
0100
0000
0001
0100
2000
0000
0000
0000
,  // measure 18
3010
0000
0100
0000
0001
0010
0000
0001
1000
0000
0010
0000
0100
0000
0010
1000
,  // measure 19
0010
0000
0001
0000
0010
0000
1000
0000
0010
0000
0001
0010
2000
0000
0000
0000
,  // measure 20
3001
0000
0100
0000
0001
0010
0000
0100
1000
0000
0010
0000
1000
0000
0100
0010
,  // measure 21
0001
0000
0100
0000
0001
0000
0010
0000
0100
0000
0001
0000
0100
0000
1000
0010
,  // measure 22
0100
0000
0010
0000
0001
0010
0000
1000
0100
0000
1000
0000
0010
0000
0100
0001
,  // measure 23
0010
0000
0001
0000
0100
0000
0010
0000
1000
0000
0010
0100
0010
0100
0010
0000
,  // measure 24
2000
0000
0100
0000
0001
0000
3100
0010
,  // measure 25
0002
0000
0103
0020
0000
1030
0100
1000
,  // measure 26
0002
0000
0010
0000
1003
0010
0001
0010
,  // measure 27
2000
0000
3100
0001
0100
1000
0010
0100
,  // measure 28
0002
0000
0010
0000
0103
0020
0000
1030
,  // measure 29
0200
0000
0301
0200
0000
1300
0010
0000
,  // measure 30
0120
0000
1000
0000
0031
0020
0000
1030
,  // measure 31
0001
0000
0010
0000
0100
0000
1000
0000
0001
1000
0001
1000
0001
0000
0000
0000
,  // measure 32
1100
0011
1001
0110
,  // measure 33
1000
0000
0001
0000
0010
0100
0010
0100
1000
0000
0001
0010
0000
0001
1000
0000
,  // measure 34
0000
0000
0001
0000
0010
0000
1000
0000
0001
0000
0100
0000
1000
0000
0010
0100
,  // measure 35
0001
0000
1000
0000
0010
0100
0010
0100
0001
0000
1000
0100
0000
0010
0001
0000
,  // measure 36
0000
0000
0100
0000
1000
0000
0100
0000
0001
0000
0010
0100
0000
1000
0010
0000
,  // measure 37
1000
0000
0100
0000
0001
0100
0001
0100
1000
0000
0010
0100
0000
0001
0100
0000
,  // measure 38
0010
0000
1000
0000
0001
0000
0010
0000
1000
0000
0010
0001
0000
1000
0001
0000
,  // measure 39
0100
0000
0001
0000
0010
1000
0010
1000
0010
0000
0001
0100
0000
0010
1000
0000
,  // measure 40
0001
0000
1000
0000
0100
0000
0001
0000
0100
1000
0001
0000
0100
0001
1000
0000
,  // measure 41
0010
0000
1000
0000
0010
0100
0010
0100
0001
0000
0010
0100
0000
1000
0001
0000
,  // measure 42
0000
0000
0011
0000
0000
0000
1100
0000
1000
0000
0001
0100
0000
0010
1000
0000
,  // measure 43
0001
0000
0100
0000
0010
1000
0010
1000
0001
0000
0010
0100
0000
1000
0010
0000
,  // measure 44
0000
0000
1100
0000
0000
0000
0101
0000
0001
0000
0000
0010
0000
0000
0100
0000
,  // measure 45
1000
0000
0010
0000
1000
0100
0010
0100
1000
0000
0001
0100
0000
0001
0020
0000
,  // measure 46
0000
0000
0130
1000
0100
0000
0010
0000
0001
0100
0001
0000
0020
0000
0000
0000
,  // measure 47
0130
0000
1000
0000
0010
1000
0010
1000
0001
0000
0100
0010
0000
0100
0010
0000
,  // measure 48
1000
0000
0001
0000
0100
0001
0100
0001
1000
0000
0100
0010
0000
0001
0100
0000
,  // measure 49
0002
0000
0010
0000
0100
0000
0010
0023
,  // measure 50
0000
0100
0100
0130
0000
1000
1000
0000
,  // measure 51
1001
0000
0000
0000
0100
0000
0001
0000
1000
0000
0100
0010
0000
0001
1000
0000
,  // measure 52
0000
0010
1000
0001
0010
1000
0020
0000
,  // measure 53
0031
0000
0100
0000
0010
1000
0010
0000
0100
0000
0001
0010
0000
0100
1000
0000
,  // measure 54
0000
0000
0010
0000
0100
0000
0010
0000
0100
0001
1000
0001
0100
0000
0000
0000
,  // measure 55
0011
1100
1010
0101
,  // measure 56
0010
0000
0100
0000
0001
0000
1000
0000
0001
1000
0100
0010
0002
0000
0000
0000
,  // measure 57
1003
0000
0100
0000
0001
0100
0001
0100
1000
0000
0010
0100
0000
0001
1000
0000
,  // measure 58
0010
0000
1000
0000
0100
0000
0001
0000
1000
0000
0010
0000
0001
0000
0100
0010
,  // measure 59
1000
0000
0001
0000
0010
0001
0010
0001
0100
0000
0000
0110
0000
0000
2000
0000
,  // measure 60
0000
0000
3100
0000
0010
0000
0100
0000
1000
0001
0100
0001
0100
0000
0000
0000
,  // measure 61
0010
0000
0100
0000
1000
0000
0100
0000
0001
0000
0010
0100
0000
1000
0200
0000
,  // measure 62
0000
0000
0310
0000
0001
0100
0020
0000
0000
0000
1030
0000
0100
0000
0100
0000
,  // measure 63
1000
0000
0001
0000
0010
0000
1000
0000
0010
0000
0001
1000
0000
0010
0100
0000
,  // measure 64
0001
0000
0010
0000
0100
1000
0010
1000
0100
0000
0000
0110
0000
0000
0001
0000
,  // measure 65
0020
0000
0000
0000
0000
0000
0000
0030
;
