#TITLE:メアリー牧場の一日;
#SUBTITLE:;
#ARTIST:Mutsuhiko Izumi;
#TITLETRANSLIT:Mary bokujou no ichinichi;
#SUBTITLETRANSLIT:;
#ARTISTTRANSLIT:;
#GENRE:;
#CREDIT:;
#BANNER:Mary_bokujou_no_ichinichi_banner.png;
#BACKGROUND:Mary_bokujou_no_ichinichi.png;
#LYRICSPATH:;
#CDTITLE:;
#MUSIC:Mary bokujou no ichinichi.ogg;
#OFFSET:0.060000;
#SAMPLESTART:36.740002;
#SAMPLELENGTH:12.000000;
#LASTBEATHINT:272.000000;
#SELECTABLE:YES;
#BPMS:0.000000=150.000000
,245.000000=158.000000
;
#STOPS:
;
#BGCHANGES:;
#KEYSOUNDS:;
#ATTACKS:;

//---------------dance-single - ----------------
#NOTES:
     dance-single:
     :
     Easy:
     5:
     0.224527,0.272336,0.126458,0.225817,0.000000,174.000000,160.000000,14.000000,25.000000,0.000000,0.000000,0.224527,0.272336,0.126458,0.225817,0.000000,174.000000,160.000000,14.000000,25.000000,0.000000,0.000000:
0000
0000
0000
0000
,
1000
0001
0010
0000
,
0100
0010
0001
0000
,
0100
0010
1000
0000
,
0010
0100
0001
0000
,
2002
0000
3003
0000
,
0010
0200
0300
0000
,
0001
0001
0000
1000
,
0010
0010
0000
0100
,
1000
1000
0000
0001
,
0100
0220
0330
0000
,
1000
1000
0000
0100
,
0010
0010
0000
0001
,
1001
0000
1010
0000
,
0001
1000
0022
0033
,
1000
0100
0010
0000
,
0001
0010
0100
0000
,
1000
0001
0100
0000
,
0001
1000
0100
0000
,
0010
0001
0100
0000
,
0010
1000
0100
0000
,
1000
0100
0010
0001
,
2000
0000
3000
0000
,
0010
0010
0000
0100
,
0001
0001
0000
0010
,
0100
0100
0000
1000
,
0001
2002
3003
0000
,
0100
0100
0000
0010
,
1000
1000
0000
0001
,
0010
0000
0100
0000
,
0220
0000
0330
0000
,
0010
0001
0010
0000
,
0100
1000
0100
0000
,
1000
0010
1000
0000
,
0001
0010
0001
0000
,
0100
0010
1000
0000
,
0100
0010
0001
0000
,
0001
0100
0010
1000
,
0100
0010
0002
0000
,
0000
0003
0000
0000
0000
0000
0000
0000
,
0000
0000
0000
0000
,
0000
0000
0000
0000
,
0200
0000
0310
0000
,
0002
0000
0013
0000
,
2000
0000
3100
0000
,
0002
0000
0103
0000
,
0010
1000
0010
0000
,
0100
0001
0100
0000
,
0001
0010
0100
1000
,
2002
0000
3003
0000
,
0100
0100
0000
0010
,
1000
1000
0000
0100
,
0010
0010
0000
0001
,
0100
0220
0330
0000
,
1000
1000
0000
0001
,
0010
0010
0000
0100
,
1100
0000
0101
0000
,
0020
0000
1030
0000
,
1001
0000
0200
0000
,
0000
0000
0000
0000
,
0300
0000
0000
0000
,
0000
0000
0001
0000
,
0001
0000
0010
0100
,
1000
0000
0010
0000
,
0010
0000
1000
0000
,
0010
0220
0330
0000
,
0000
0000
1000
0001
,
1001
0000
0000
0000
;

//---------------dance-single - ----------------
#NOTES:
     dance-single:
     :
     Medium:
     8:
     0.363888,0.394841,0.207752,0.144523,0.000000,282.000000,259.000000,23.000000,16.000000,0.000000,0.000000,0.363888,0.394841,0.207752,0.144523,0.000000,282.000000,259.000000,23.000000,16.000000,0.000000,0.000000:
0000
0000
0000
0000
,
1000
0000
0001
0000
0010
0001
0100
0010
,
1000
0000
0010
0000
0100
0001
1000
0100
,
0010
0000
0100
0000
1000
0001
0100
0010
,
1000
0001
0010
0110
,
2002
0000
0000
0000
0000
3003
0000
0000
,
0110
0110
0000
0000
,
1000
1000
1000
0000
0000
0001
0010
0000
,
0001
0001
0001
0000
0000
0100
0010
0000
,
0100
0100
0100
0000
0000
0010
1000
0000
,
0001
0001
0001
0000
0020
0000
0130
0000
,
1000
1000
1000
0000
0010
0000
0100
0000
,
0001
0001
0001
0000
0010
0000
0001
0000
,
1001
0000
0110
0000
,
1000
0001
1001
0000
,
0100
0000
0010
0100
0000
0010
0100
0000
,
0001
0000
0010
0001
1000
0000
0001
0000
,
1000
0000
0010
1000
0000
0010
1000
0000
,
0001
0000
0010
0100
0010
0000
0001
0000
,
1000
0000
0010
0100
0000
0010
1000
0000
,
0100
0000
1000
0001
0010
0000
0100
0000
,
0010
0001
1000
0010
,
0220
0000
0000
0000
0000
0330
0000
0000
,
0001
0001
0001
0000
0000
1000
0100
0000
,
0010
0010
0010
0000
0000
0100
1000
0000
,
0010
0010
0010
0000
0000
0100
0001
0000
,
1000
1000
1000
0000
0001
0000
1000
0000
,
0001
0001
0001
0000
0010
0000
0100
0000
,
1000
1000
1000
0000
0010
0000
0100
0000
,
0110
0000
1001
0000
,
0001
1000
2002
3003
,
0010
0000
0001
0000
0100
0001
0100
0000
,
0010
0000
1000
0000
0100
1000
0100
0000
,
1000
0000
0001
0000
1000
0100
1000
0000
,
0010
0100
0001
0011
,
0010
0000
0001
0000
1000
0010
1000
0000
,
0001
0000
0100
0000
0010
1000
0100
0000
,
0000
1000
0000
0010
0000
0100
0000
0001
,
0000
0010
0000
0100
2000
0000
0000
0000
,
0000
0000
3000
0000
,
0000
0000
0000
0000
,
0000
0000
0000
0000
,
0110
0000
0001
1000
0000
0001
1000
0000
,
1000
0000
0100
0010
0001
0000
1000
0000
,
0001
0000
0100
0010
0000
0100
0010
0000
,
1000
0000
0010
1000
0001
0000
1000
0000
,
0100
0000
0010
0100
0000
1000
0100
0000
,
0010
0000
0001
0100
0010
0000
0100
0000
,
0001
0010
0100
1000
,
2002
0000
3003
0000
,
0100
0100
0100
0000
0010
0000
0100
0000
,
0001
0001
0001
0000
0010
0000
0100
0000
,
1000
1000
1000
0000
0001
0000
0100
0000
,
0010
0010
0010
0000
1000
0000
1001
0000
,
0001
0001
0001
0000
1000
0000
0100
0000
,
1000
1000
1000
0000
0010
0000
0100
0000
,
1010
0000
0101
0000
,
0011
0000
1100
0000
,
1001
0000
0220
0000
,
0000
0000
0000
0000
,
0330
0000
0000
0000
,
0000
0000
0001
1000
,
0100
1000
0010
0100
,
0001
0010
0100
0000
1000
0000
0010
0000
,
0100
0001
0010
0100
,
1000
0001
0100
0000
0220
0000
0000
0000
,
0000
0330
1000
0001
,
2002
3003
0000
0000
;

//---------------dance-single - ----------------
#NOTES:
     dance-single:
     :
     Hard:
     13:
     0.624546,0.699864,0.587125,0.243883,0.207752,484.000000,419.000000,65.000000,27.000000,0.000000,0.000000,0.624546,0.699864,0.587125,0.243883,0.207752,484.000000,419.000000,65.000000,27.000000,0.000000,0.000000:
// measure 0
0000
0000
0000
0000
,  // measure 1
0010
0000
1000
0100
1000
0000
0001
0000
0010
0000
0001
0100
0010
0000
1000
0000
,  // measure 2
0001
0000
1000
0100
0010
0000
0001
0000
0010
0100
1000
0000
0010
0100
0001
0000
,  // measure 3
0010
0000
0001
1000
0100
0000
0010
0000
0100
0000
1000
0010
0100
0000
0001
0000
,  // measure 4
1000
0000
0010
0100
0001
0000
1000
0000
1010
0000
0000
0000
0011
0000
0000
0000
,  // measure 5
2002
3003
0220
0330
,  // measure 6
1100
0000
0101
0000
0000
0010
0100
0001
,  // measure 7
0010
0001
1001
0000
0000
0100
0010
1000
,  // measure 8
0100
1000
1010
0000
0000
0100
0001
0010
,  // measure 9
0100
1000
1001
0000
0000
0010
0001
1000
,  // measure 10
0010
0100
0110
0000
1100
0000
0101
0000
,  // measure 11
0010
0001
1100
0000
1000
0010
0100
0001
,  // measure 12
0010
0000
0100
0000
1001
0000
0000
0000
0100
0000
0010
0000
1000
0001
0100
0000
,  // measure 13
0010
0000
1000
0000
0001
0010
0100
0000
1000
0000
0010
0000
1000
0001
0100
0000
,  // measure 14
0101
1100
0220
0330
,  // measure 15
1010
0000
0100
0001
0000
0001
1000
0100
,  // measure 16
0010
0100
1000
0001
0011
0000
1100
0000
,  // measure 17
0010
1000
0001
0100
0010
1000
0100
0010
,  // measure 18
0001
1000
0010
0100
0101
0000
1100
0000
,  // measure 19
0010
1000
0001
0100
0000
0100
0010
1000
,  // measure 20
0001
0010
0100
1000
1010
0000
0011
0000
,  // measure 21
1000
0001
0101
0000
0010
0100
1100
0000
,  // measure 22
2002
0000
0000
0000
3003
0010
0010
0000
,  // measure 23
0100
0001
1001
0000
0100
1000
0100
0001
,  // measure 24
0010
0001
1001
0000
0010
1000
0001
0010
,  // measure 25
0100
1000
1010
0000
0100
0001
0100
1000
,  // measure 26
0100
0001
0011
0000
1100
0000
0101
0000
,  // measure 27
1000
0010
1010
0000
0001
0010
0100
1000
,  // measure 28
0010
0000
0100
0000
0101
0000
0000
0000
1000
0000
0001
0000
0100
0010
1000
0000
,  // measure 29
0001
0000
0010
0000
0010
0000
0001
1000
0100
0000
1000
0000
1000
0000
0010
0100
,  // measure 30
0001
1001
0220
0330
,  // measure 31
0001
0000
0000
0001
0010
0000
0100
0000
1000
0010
0100
0000
0001
0000
1000
0000
,  // measure 32
0100
0000
0000
0100
0010
0000
0100
0000
1000
0001
0100
0000
0010
0000
1000
0000
,  // measure 33
0001
0000
0000
0100
0010
0000
1000
0000
0100
1000
0010
0000
0100
0000
0001
0000
,  // measure 34
0010
0000
0000
0001
0100
0000
0010
0000
1000
0001
0100
0000
0020
0000
0000
0000
,  // measure 35
1030
0000
0000
1000
0100
0000
0010
0000
0001
1000
0001
0000
0010
0000
0100
0000
,  // measure 36
1000
0000
0000
1000
0001
0000
0100
0000
0010
1000
0010
0000
0100
0000
0001
0000
,  // measure 37
0010
0001
0010
0100
1000
0001
0100
0010
,  // measure 38
0100
1000
0010
0001
0220
0000
0000
0000
,  // measure 39
0000
0000
0000
0000
,  // measure 40
0000
0000
0000
0000
,  // measure 41
0000
0000
0330
0000
,  // measure 42
0101
0000
0010
1000
0000
1000
0100
0010
,  // measure 43
0001
0000
1000
0010
0100
0000
1001
0000
,  // measure 44
0011
0000
1000
0001
0000
0001
0010
0001
,  // measure 45
1000
0010
0100
0001
0011
0000
1100
0000
,  // measure 46
1010
0000
0100
0001
0000
0001
1000
0010
,  // measure 47
0100
0001
0100
1000
1100
0000
0101
0000
,  // measure 48
0011
0110
1100
1001
,  // measure 49
0220
0000
0330
0000
,  // measure 50
1000
0000
0010
0000
1010
0000
0000
0000
0100
0001
1000
0000
0100
0000
0010
0000
,  // measure 51
0001
0000
1000
0000
1001
0000
0000
0000
0010
0100
1000
0000
0001
0000
0100
0000
,  // measure 52
0010
0000
0100
0000
0101
0000
0000
0000
1000
0001
0010
0000
0001
0000
0100
0000
,  // measure 53
0010
1000
1100
0000
1010
0000
0011
0000
,  // measure 54
1000
0000
0001
0000
0100
0010
1000
0000
0001
0000
0010
0000
0100
1000
0001
0000
,  // measure 55
1000
0000
0001
0000
0010
0100
1000
0000
0010
0000
1000
0000
0001
0100
0010
0000
,  // measure 56
0110
0000
0000
0000
1000
0000
0100
1000
0002
0000
0000
0000
0013
0000
0100
1000
,  // measure 57
0020
0000
0000
0000
0130
0000
0010
1000
0002
0000
0000
0000
0103
0000
0001
0100
,  // measure 58
2000
0000
0000
0000
3100
0000
0001
0010
2000
0000
0000
0000
0000
0000
0000
0000
,  // measure 59
0000
0000
0000
0000
,  // measure 60
0020
0000
0000
0000
,  // measure 61
3000
0000
0000
0000
0031
0000
0000
0000
0001
0000
1000
0010
1000
0000
0001
0000
,  // measure 62
0100
0000
0010
1000
0100
0000
0010
0000
0001
0000
1000
0010
0100
0000
0001
0000
,  // measure 63
1000
0010
1000
0000
0001
0010
0001
0000
0100
0000
0001
0010
0100
0000
1000
0000
,  // measure 64
0010
0000
1000
0001
0100
0000
0010
0000
1000
0000
0001
1000
0100
0000
0010
0000
,  // measure 65
0011
1100
2002
3003
,  // measure 66
0220
0330
1010
0101
,  // measure 67
0220
0000
0000
0330
0000
0000
0000
0000
;
