#TITLE:Majestic Fire;
#SUBTITLE:;
#ARTIST:下村陽子;
#TITLETRANSLIT:;
#SUBTITLETRANSLIT:;
#ARTISTTRANSLIT:Yoko Shimomura;
#GENRE:格ゲー;
#CREDIT:;
#BANNER:Majestic_Fire_banner.png;
#BACKGROUND:Majestic_Fire.png;
#LYRICSPATH:;
#CDTITLE:;
#MUSIC:Majestic Fire.ogg;
#OFFSET:-0.305000;
#SAMPLESTART:10.970000;
#SAMPLELENGTH:12.000000;
#LASTBEATHINT:353.500000;
#SELECTABLE:YES;
#BPMS:0.000000=180.000000
;
#STOPS:
;
#BGCHANGES:;
#KEYSOUNDS:;
#ATTACKS:;

//---------------dance-single - ----------------
#NOTES:
     dance-single:
     :
     Easy:
     6:
     0.225563,0.291402,0.066134,0.281068,0.000000,191.000000,183.000000,8.000000,34.000000,0.000000,0.000000,0.225563,0.291402,0.066134,0.281068,0.000000,191.000000,183.000000,8.000000,34.000000,0.000000,0.000000:
0000
0000
0000
0000
,
0000
0000
0000
0000
,
0000
0000
0000
0000
,
0000
0000
0000
0000
,
1000
0000
0010
0000
,
0100
0000
0001
0000
,
0010
0000
0100
0000
,
2002
0000
3003
0000
,
0100
0000
0010
0100
,
0001
0000
0010
0100
,
1000
0000
0001
0000
,
0100
0000
0110
0000
,
1000
0000
0001
0010
,
0100
0000
0100
0010
,
0001
0000
1000
0000
,
0100
0000
0010
0000
,
0002
0000
0103
0000
,
2000
0000
3010
0000
,
0200
0000
0310
0000
,
0020
0000
1030
0000
,
1000
0001
0100
0000
,
0001
1000
0100
0000
,
0010
0000
0001
0100
,
0001
0000
1000
0000
,
0010
0000
1000
0100
,
1000
0000
0001
0000
,
0100
0010
1000
0000
,
0100
0010
0001
0000
,
2000
0000
3001
0000
,
0020
0000
0130
0000
,
0002
0000
0013
0000
,
2000
0000
3100
0000
,
0010
0000
0100
1000
,
0001
0000
0100
0010
,
1000
0000
0001
0000
,
2002
0000
3003
0000
,
0200
0000
0310
0000
,
0002
0000
0013
0000
,
2000
0000
3100
0000
,
0020
0000
0130
0000
,
0010
0000
0001
1000
,
0100
0000
1000
0010
,
0100
0000
0001
0000
,
0022
0000
0033
0000
,
1000
0000
0001
0000
,
0100
0000
0010
0000
,
0010
1000
0100
0000
,
0100
0010
0001
0000
,
1000
0000
0100
0000
,
1000
0000
0001
0000
,
0100
0000
0010
0100
,
0002
0000
0000
0000
0000
0003
0000
0000
,
1000
0000
1000
0000
,
1000
0100
0010
0000
,
0001
0000
0001
0000
,
0001
0100
0010
0000
,
1000
0001
0010
0000
,
0001
1000
0010
0000
,
0110
0000
1000
0000
,
2002
0000
3003
0000
,
0010
0000
0001
0000
,
0002
0000
0003
0000
,
1000
0000
1000
0000
,
0200
0000
0300
0000
,
1000
0000
0001
0000
,
0010
0001
1000
0000
,
0002
0000
1003
0000
,
0200
0000
0310
0000
,
0020
0000
0031
0000
,
0002
0000
1003
0000
,
1000
0100
1000
0000
,
0001
0100
0001
0000
,
0010
0000
0001
0000
,
1000
0000
0010
0000
,
1000
0000
0001
0000
,
0100
0000
0001
0000
,
2000
0000
3010
0000
,
0020
0000
0130
0000
,
0002
0000
0013
0000
,
0220
0000
0330
0000
,
1000
0000
0001
0100
,
0010
0000
0010
0000
,
1000
0000
0001
0010
,
0100
0000
0000
0000
0010
0000
0000
0001
,
0000
0000
0000
0000
0000
0000
0000
1000
,
0000
0000
0000
0000
0000
0000
0000
0220
,
0000
0000
0330
0000
,
0000
0000
0000
0000
,
1000
0001
0000
0000
0000
0000
0000
0000
;

//---------------dance-single - ----------------
#NOTES:
     dance-single:
     :
     Medium:
     10:
     0.382631,0.437103,0.115734,0.396802,0.004133,324.000000,310.000000,14.000000,48.000000,0.000000,0.000000,0.382631,0.437103,0.115734,0.396802,0.004133,324.000000,310.000000,14.000000,48.000000,0.000000,0.000000:
0000
0000
0000
0000
,
0000
0000
0000
0000
,
0000
0000
0000
0000
,
0000
0000
0000
0000
,
0010
0000
0001
0000
1000
0000
0010
0100
,
0000
0000
0010
0000
1000
0000
0001
0010
,
0000
0001
1000
0010
,
0220
0000
0000
0000
0000
0330
0000
0000
,
1000
0000
0001
0000
0010
0001
1000
0100
,
0000
0000
0010
0000
0100
1000
0001
0100
,
0000
0000
0010
0000
1000
0000
0001
0100
,
0000
0001
0010
0100
,
1000
0000
0001
0000
1000
0001
0010
0001
,
0000
0000
1000
0000
0001
1000
0010
1000
,
0000
0001
0010
0100
,
0220
0000
0000
0000
0330
0000
0000
0000
1000
0000
0000
0001
0000
0000
1000
0000
,
0010
0000
1000
0100
0000
0010
0000
0002
,
0000
0103
0010
0100
,
0001
0000
0010
0100
0000
1000
0000
0002
,
0000
1003
0010
0100
,
0010
0000
1000
0100
0000
0000
1000
0000
,
0001
0100
0000
0200
0000
0000
0310
0000
,
0010
0000
1000
0001
0000
0010
0000
0200
,
0000
1300
0010
1000
,
0001
0000
1000
0100
0000
0010
0000
0002
,
0000
0103
0010
0100
,
0001
0000
1000
0001
0000
0000
0010
0000
,
0001
0000
0010
0100
0000
0000
1000
0000
,
0020
0000
0000
0000
1030
0000
0100
1000
,
0000
0001
0100
0010
,
1000
0000
0001
0000
0010
0000
0001
0100
,
0000
0000
0001
0000
1000
0000
0010
0100
,
0000
0000
0010
0000
1000
0000
0100
0010
,
0000
0100
1000
0001
,
2002
0000
0000
3003
0000
0010
0000
0010
,
0100
0000
0000
1001
0000
0000
0010
0000
,
1000
0000
0100
0000
1000
0010
0000
0100
,
0000
0001
0010
0001
,
1000
0000
0001
0010
0000
0100
0000
2000
,
0000
0000
3010
0000
0100
0000
0001
0010
,
0000
0000
0001
0000
1000
0000
0010
1000
,
0000
0000
0100
0000
1000
0000
0001
0100
,
0000
0001
0010
0001
,
0100
0010
2020
3030
,
0200
0000
0320
0000
,
2030
0000
3001
0010
,
0001
0000
0100
0000
0001
0000
1000
0010
,
0000
0010
1000
0000
0002
0000
0000
0000
,
0203
0010
0320
1000
,
1030
0001
0010
0100
,
1000
0001
0100
0010
,
0220
0000
0330
0000
,
0001
0000
0010
0001
0000
0000
0010
0000
,
0001
0000
1000
0100
0000
0000
1000
0000
,
0020
0000
0230
0000
,
0301
0010
0100
1000
,
0010
0000
1000
0100
1000
0000
0001
0000
,
0100
0000
0001
0010
0001
0000
1000
0000
,
0001
0000
1000
0001
1000
0000
0100
0000
,
0220
0000
0330
0000
,
0010
0000
0000
0001
0000
1000
0000
2002
,
0000
3003
0100
0010
,
0100
0000
0000
0001
0000
1000
0000
2020
,
0000
3030
0100
0001
,
0010
0000
0001
1000
0000
0000
0100
0000
,
1000
0001
0000
0202
0000
0000
0303
0000
,
0010
0000
1000
0001
0000
0010
0000
0200
,
0000
1300
0010
1000
,
0100
0000
1000
0010
0000
0100
0000
0002
,
0000
0013
0001
1000
,
0010
0000
0100
0010
0000
0000
1000
0000
,
0001
0000
0010
0001
0000
0000
0100
0000
,
0020
0000
0000
0000
1030
0001
0000
0020
,
0000
0031
1000
0001
,
0100
0000
0001
0010
0000
0100
0000
2000
,
0000
0000
3010
0000
0100
0000
0010
0100
,
0000
0000
0001
0000
0010
0000
0001
1000
,
0000
0100
0010
0001
,
2002
0000
0000
3003
0000
0100
0010
0100
,
0001
0000
0000
1001
0000
0000
1000
0000
,
0010
0000
0000
0000
1000
0100
0000
2000
,
0000
3001
0100
0010
,
0100
0000
0001
0010
0000
0001
0000
1000
,
0000
0001
0010
0100
1000
0000
0000
0202
,
0000
0000
0303
0000
0000
0000
0000
2200
,
0000
0000
3300
0000
0000
0000
0000
0010
,
0000
0000
0002
0000
,
2003
0000
3002
0000
,
0103
0100
0000
0000
0000
0000
0000
0000
;

//---------------dance-single - ----------------
#NOTES:
     dance-single:
     :
     Hard:
     13:
     0.629451,0.619229,0.363736,0.355469,0.045467,533.000000,489.000000,44.000000,43.000000,0.000000,0.000000,0.629451,0.619229,0.363736,0.355469,0.045467,533.000000,489.000000,44.000000,43.000000,0.000000,0.000000:
// measure 0
0000
0000
0000
0000
,  // measure 1
0000
0000
0000
0000
,  // measure 2
0000
0000
0000
0000
,  // measure 3
0000
0000
0000
0000
,  // measure 4
0010
0000
1001
0000
0100
0001
0010
0100
,  // measure 5
0000
0100
1000
0010
0100
0000
0001
0010
,  // measure 6
0000
0010
0001
1000
0010
0100
0001
1000
,  // measure 7
2002
0000
0000
0000
0000
3003
0000
0000
,  // measure 8
0110
0000
1000
0000
0010
1000
0100
0001
,  // measure 9
0000
0001
0100
1000
0010
1000
0010
0001
,  // measure 10
0000
0001
0010
0100
0001
1000
0100
0010
,  // measure 11
0000
0000
0010
0000
0100
0000
1000
0000
0001
0000
0000
1001
0000
0000
0100
0000
,  // measure 12
0010
1000
0100
0000
0010
1000
0010
0001
,  // measure 13
0000
0001
0100
1000
0100
0001
0010
0001
,  // measure 14
0000
0001
1000
0100
0010
0000
1001
0000
,  // measure 15
0010
0000
0100
0000
0010
0000
0100
0000
0001
0000
0000
1100
0000
0000
0010
0000
,  // measure 16
1000
0001
0100
0001
0000
0010
0100
1000
,  // measure 17
0000
0010
1000
0100
0010
0000
1100
0000
,  // measure 18
0010
0100
0001
0010
0000
0100
0001
0100
,  // measure 19
0000
0010
0001
0100
0010
0000
0110
0000
,  // measure 20
0001
1000
0010
1000
0000
0100
1000
0001
,  // measure 21
0100
0100
0000
0110
0000
0010
1000
0100
,  // measure 22
0010
0100
1000
0001
0000
1000
0010
0001
,  // measure 23
0000
0001
0010
1000
0001
0000
1001
0000
,  // measure 24
0100
0010
0001
0010
0000
1000
0100
0001
,  // measure 25
0000
0001
0100
1000
0010
0000
0110
0000
,  // measure 26
0001
0010
1000
0020
0000
0031
0100
1000
,  // measure 27
0100
0001
0010
0200
0000
1300
0010
1000
,  // measure 28
0002
0000
1003
0100
0000
0010
0000
0011
,  // measure 29
0000
0001
1000
0010
0001
0010
1000
0001
,  // measure 30
0000
0001
1000
0100
0001
0100
1000
0010
,  // measure 31
0000
0010
1000
0001
0010
0001
0100
0020
,  // measure 32
0000
1030
2000
0000
3001
0010
0100
1000
,  // measure 33
0000
0001
1000
0000
1000
0100
0010
0000
,  // measure 34
1001
0000
0010
0000
1000
0001
0010
0100
,  // measure 35
0110
0000
0000
1001
0000
0000
0110
0000
,  // measure 36
0002
0000
1003
0010
0100
0010
0000
1100
,  // measure 37
0000
1000
0001
0010
0001
0100
0010
0100
,  // measure 38
0001
0010
1000
0010
0000
0001
1000
0010
,  // measure 39
0000
0010
0001
0010
1000
0001
1000
0100
,  // measure 40
0000
0010
0100
0000
1000
0001
1000
0010
,  // measure 41
0000
0010
0100
0000
0001
0010
0100
1000
,  // measure 42
0000
0001
1000
0001
0010
0100
0010
0000
,  // measure 43
1001
0000
0000
0110
0000
0000
1001
0000
,  // measure 44
0020
0001
0230
1000
,  // measure 45
0310
0000
0000
0100
0000
0000
0001
0000
1000
0000
0100
0000
0010
0000
0100
0000
,  // measure 46
0000
0010
0100
1000
0001
0100
0010
1000
,  // measure 47
0001
0010
0100
1000
0001
0000
1000
0020
,  // measure 48
0000
0000
1030
0100
0010
0100
1000
0001
,  // measure 49
0000
0001
0100
0010
0100
0001
2000
0000
,  // measure 50
3001
0010
0100
1000
0010
0100
0001
2002
,  // measure 51
0000
3003
0010
0110
,  // measure 52
1000
0000
0100
1000
0000
0000
0001
0000
0010
0000
0001
0100
0000
0000
0010
0000
,  // measure 53
1000
0000
0001
0010
0000
0000
0100
0000
1000
0000
0010
0000
0100
0000
0002
0000
,  // measure 54
0000
0013
0100
1000
0100
0001
0100
1000
,  // measure 55
0010
0000
0001
0000
0010
0000
1000
0000
0001
0000
0000
0000
0001
0000
0010
0100
,  // measure 56
0020
0000
0000
0000
0000
0000
0031
1000
0002
0000
0000
0000
0000
0000
0103
0010
,  // measure 57
0200
0000
0000
0000
0000
0000
0310
1000
0020
0000
0000
0000
0000
0000
1030
0000
,  // measure 58
0001
1000
0100
0010
0001
0100
0010
0000
,  // measure 59
2002
0000
0000
0000
3003
0000
0000
0000
0010
0000
0000
0110
0000
0000
1000
0000
,  // measure 60
0001
0010
1000
0010
0000
0011
0000
2200
,  // measure 61
0000
3300
0000
0000
1000
0000
1001
0000
,  // measure 62
0001
0100
1000
0100
0000
0101
0000
2020
,  // measure 63
0000
3030
0000
0000
1000
0001
0001
0000
,  // measure 64
0010
0100
1000
0100
0000
0010
0100
1000
,  // measure 65
0010
0100
0000
0102
0000
0010
0013
0000
,  // measure 66
0001
0100
1000
0100
0000
0010
0100
0002
,  // measure 67
0000
1003
0100
0010
0100
0000
1100
0000
,  // measure 68
0001
1000
0010
0001
0000
0001
0010
2000
,  // measure 69
0000
3001
0100
0010
0100
0000
0101
0000
,  // measure 70
0010
1000
0100
0001
0000
0001
0100
1000
,  // measure 71
0001
0010
1000
0010
0000
0010
0001
0000
,  // measure 72
0101
0000
0010
0100
0000
0001
0000
1001
,  // measure 73
0000
1000
0010
1000
0001
1000
0100
0010
,  // measure 74
0100
1000
0001
0100
0000
0010
1000
0001
,  // measure 75
0000
0000
1001
0000
0000
0100
0010
0002
,  // measure 76
0000
0000
0010
0000
2003
0000
3010
0100
,  // measure 77
0000
0001
0010
0001
1000
0000
1100
0000
,  // measure 78
0010
1000
0001
0000
0010
0001
1000
0001
,  // measure 79
0101
0000
0000
1100
0000
0000
1010
0000
,  // measure 80
0002
0000
0013
0000
0100
1000
0000
1010
,  // measure 81
0000
0010
1000
0001
0010
0001
0100
0000
,  // measure 82
1020
0000
0130
0000
0001
1000
0100
0010
,  // measure 83
0000
0001
0010
0100
1000
0001
0000
0210
,  // measure 84
0000
0000
0320
0000
0130
0001
0000
1002
,  // measure 85
0000
0000
2003
0000
3001
0010
0100
0020
,  // measure 86
0000
0230
0320
0230
,  // measure 87
0320
0230
0020
0330
,  // measure 88
0001
1001
0000
0000
0000
0000
0000
0000
;
