#TITLE:マッハマンの歌;
#SUBTITLE:;
#ARTIST:あさきのくりむ童話;
#TITLETRANSLIT:Machman no uta;
#SUBTITLETRANSLIT:;
#ARTISTTRANSLIT:Asaki no crimm douwa;
#GENRE:;
#CREDIT:;
#BANNER:Machman_no_uta_banner.png;
#BACKGROUND:Machman_no_uta.png;
#LYRICSPATH:;
#CDTITLE:;
#MUSIC:Machman no uta.ogg;
#OFFSET:-0.500000;
#SAMPLESTART:59.750000;
#SAMPLELENGTH:11.900000;
#SELECTABLE:YES;
#BPMS:0.000000=161.000000
;
#STOPS:
;
#BGCHANGES:;
#KEYSOUNDS:;
#ATTACKS:;

//---------------dance-single - ----------------
#NOTES:
     dance-single:
     :
     Easy:
     6:
     0.237929,0.321745,0.090846,0.272537,0.000000,165.000000,156.000000,9.000000,27.000000,0.000000,0.000000,0.237929,0.321745,0.090846,0.272537,0.000000,165.000000,156.000000,9.000000,27.000000,0.000000,0.000000:
0000
0000
0000
0000
,
0000
0000
0000
0000
,
0000
0000
0000
0000
,
2002
0000
3003
0000
,
0010
0100
0010
0000
,
0100
0010
0100
0000
,
0010
0100
0010
0000
,
0100
0010
0100
0000
,
0001
1000
0001
0000
,
1000
0001
1000
0000
,
0001
0010
0100
1000
,
2002
0000
0000
0000
0000
3003
0000
0000
,
0100
0001
0010
0000
,
0002
0000
0103
0000
,
1000
0010
0100
0000
,
0020
0000
1030
0000
,
0100
1000
0001
0000
,
0010
0001
1000
0000
,
0020
0000
0130
0001
,
0010
0000
0001
0000
,
0100
0100
0100
0000
,
0010
0010
0010
0000
,
0100
0100
0100
0000
,
2002
0000
3003
0000
,
0100
0010
1000
0000
,
0001
0000
0200
0300
,
0010
1000
0001
0000
,
1000
0001
0100
0000
,
0001
0010
0001
0000
,
1000
0000
0200
0300
,
1000
0001
0010
0000
,
0001
1000
0010
0000
,
0200
0000
0310
0000
,
0002
0000
0013
0000
,
2000
0000
3010
0000
,
0220
0000
0330
0000
,
0001
0000
0001
1000
,
0100
0000
0010
1000
,
0001
0000
0100
0000
,
0220
0000
0330
0000
,
1000
0100
1000
0000
,
0001
0010
0001
0000
,
1000
0001
0100
0000
,
0010
1000
0002
0003
,
0010
0000
0001
0000
,
0100
1000
0100
0000
,
0010
0000
1000
0000
,
0001
0010
0001
0000
,
1000
0100
0010
0000
,
0100
0010
0001
0000
,
0100
0010
0100
0000
,
0001
1000
1001
0000
,
0200
0000
0310
0000
,
2000
0000
3100
0000
,
0202
0000
0303
0000
,
2020
0000
3030
0000
,
0001
0000
0001
0000
,
0010
0000
0010
0000
,
0100
0000
0100
0000
,
1000
0000
1000
0000
,
0010
0010
0100
0100
,
0001
0001
1000
1000
,
0001
0010
0100
1000
,
0100
0010
2002
3003
;

//---------------dance-single - ----------------
#NOTES:
     dance-single:
     :
     Medium:
     9:
     0.441251,0.514793,0.191786,0.262443,0.000000,306.000000,287.000000,19.000000,26.000000,0.000000,0.000000,0.441251,0.514793,0.191786,0.262443,0.000000,306.000000,287.000000,19.000000,26.000000,0.000000,0.000000:
0000
0000
0000
0000
,
0000
0000
0000
0000
,
0000
0000
0000
0000
,
2002
0000
0000
3003
,
0010
0001
1000
0000
0010
0000
1000
0001
,
1000
0010
1000
0000
0001
0000
0010
0001
,
0100
0001
1000
0000
0100
0000
1000
0001
,
0100
0001
1000
0000
0001
0000
1000
0100
,
1000
0010
1000
0000
0001
0000
0010
0001
,
0100
0010
0100
0000
0001
0000
1000
0100
,
1000
0001
0100
0000
0000
0010
0000
0010
,
0200
0000
0000
0300
,
1001
0000
0010
0100
0010
0000
1000
0000
,
0001
0000
0010
0001
2000
0000
0000
0000
,
3010
0000
0100
0001
1000
0000
0010
0000
,
1000
0000
0100
0010
0001
0000
0010
0000
,
0001
0000
1000
0010
1000
0000
0100
0000
,
1000
0001
0010
0001
0100
0000
0010
0000
,
2000
0000
3100
0000
0000
0010
0001
0000
,
0200
0010
0320
0000
,
1030
0001
1001
0000
,
0010
1000
1001
0000
,
0010
0001
1001
0000
,
0100
0010
1000
0001
0010
0000
0000
0000
,
0001
0000
0100
0010
1000
0000
0010
0000
,
1000
0000
0001
1000
0200
0000
0310
0000
,
0010
0100
1000
0000
0001
0100
0010
0000
,
1000
0010
2200
3300
,
0010
0000
0100
0010
1000
0000
0010
0000
,
0100
0000
0001
0010
0100
0000
1001
0000
,
1000
0000
0010
0100
0001
0000
0010
0000
,
0001
1000
0100
0000
1001
0000
0000
0000
,
0010
0000
0100
0010
0100
0000
0001
0000
,
0010
0000
0001
0100
0001
0000
1000
0000
,
0010
0000
1000
0100
1000
0100
0010
0000
,
0001
1000
2002
3003
,
0100
0000
0010
1000
0100
0000
0010
0000
,
0001
0000
1000
0010
0100
0000
0001
0000
,
0022
0000
0033
0000
0000
1000
0100
1000
,
0020
0000
0000
0030
,
1000
0000
0001
0010
0001
1000
0000
0010
,
0000
0010
0000
0100
0001
1000
0000
0000
,
0100
0000
1100
0000
1000
0010
0100
0000
,
0001
0010
0100
1000
0020
0000
0030
0000
,
1000
0000
0010
1000
0100
0000
0010
0000
,
0001
0100
0220
0330
,
1000
0000
0010
0000
1000
0001
0100
0010
,
1000
0000
0100
1000
0002
0000
0013
0000
,
0001
0000
1000
0100
1000
0010
0000
0010
,
0000
0100
0001
0010
0001
0100
0000
0000
,
0001
0000
1001
0000
0100
0010
1000
0000
,
0100
1100
0202
0303
,
0010
0000
1000
0001
0100
0000
0001
0000
,
0010
0000
0100
1000
0001
0000
1000
0000
,
2020
0000
3030
0000
0000
0100
0000
0010
,
1000
0001
0020
0000
0030
0000
0001
0000
,
1000
0100
1000
0000
0010
0000
0100
0010
,
1000
0001
0010
0000
0001
0000
0100
0001
,
0010
0001
1000
0000
0010
0000
1000
0100
,
1000
0001
0010
0000
0001
0100
0010
0000
,
1000
0100
1000
0000
0001
0100
0001
0000
,
1000
0010
1000
0000
0001
0010
0001
0000
,
1000
0001
1000
0001
1000
0001
1000
0000
,
0110
1001
0220
0330
;

//---------------dance-single - ----------------
#NOTES:
     dance-single:
     :
     Hard:
     13:
     0.670528,0.709228,0.423947,0.211973,0.227114,465.000000,423.000000,42.000000,21.000000,0.000000,0.000000,0.670528,0.709228,0.423947,0.211973,0.227114,465.000000,423.000000,42.000000,21.000000,0.000000,0.000000:
// measure 0
0000
0000
0000
0000
,  // measure 1
0000
0000
0000
0000
,  // measure 2
0000
0000
0000
0000
,  // measure 3
0220
0000
0000
0330
,  // measure 4
1000
0010
0010
0001
0010
1000
0010
0001
,  // measure 5
0010
1000
1000
0010
0001
0010
1000
1000
,  // measure 6
0001
0010
0010
1000
0010
0001
0010
0010
,  // measure 7
0001
0010
0010
1000
0010
0001
1000
1000
,  // measure 8
0001
0100
0100
1000
0100
0010
0100
0100
,  // measure 9
0001
1000
1000
0100
0010
0100
1000
1000
,  // measure 10
0010
0000
0000
0100
0010
0000
0000
0000
0000
0000
1001
0000
0000
0000
0100
0000
,  // measure 11
0010
0100
0010
0100
0010
0100
0010
0100
0010
0000
0000
0000
0000
0000
0000
0000
,  // measure 12
1000
0000
0001
0000
0010
0000
0001
0100
0010
0000
1000
0000
0100
0000
1000
0000
,  // measure 13
0010
0000
0100
0000
0010
0000
1000
0001
0020
0000
0000
0000
0130
0000
0000
0000
,  // measure 14
1000
0000
0001
0000
0010
0000
0001
0100
0010
0000
1000
0000
0100
0000
0010
0100
,  // measure 15
1000
0001
0100
0010
1000
0000
0101
0000
,  // measure 16
0010
0000
1000
0000
0001
0000
0010
0001
0100
0000
0010
0000
1000
0000
0100
0000
,  // measure 17
0010
0001
0010
1000
0010
0000
1100
0000
,  // measure 18
0010
0100
0001
1000
0000
1000
0010
0100
,  // measure 19
0001
0000
0010
0000
0001
0000
1000
0001
0010
0000
0100
0000
1100
0000
0000
0000
,  // measure 20
0110
1001
0220
0330
,  // measure 21
1001
0110
2002
3003
,  // measure 22
0110
1001
0220
0330
,  // measure 23
1000
0001
1000
0001
1000
0001
1000
0001
1000
0000
0000
0000
0000
0000
0000
0000
,  // measure 24
0100
0000
0000
0100
1000
0000
0001
0000
0010
0000
0000
0010
0001
0000
1000
0000
,  // measure 25
0010
0000
0000
0100
0001
0000
1000
0000
0001
0000
0000
0000
0110
0000
0000
0000
,  // measure 26
1000
0000
0000
1000
0010
0000
0001
0000
0010
0000
0000
0010
0100
0000
0001
0000
,  // measure 27
0010
0100
1000
0000
0101
0000
0110
0000
,  // measure 28
1000
0000
0000
1000
0010
0000
0100
0000
0001
0000
0000
0010
0001
0000
1000
0000
,  // measure 29
0010
0100
0001
0010
0100
0000
1001
0000
,  // measure 30
0100
0000
0000
0100
0010
0000
1000
0000
0001
0000
0000
0010
0001
0000
0100
0000
,  // measure 31
0010
0100
1000
0000
1001
0000
0010
0100
,  // measure 32
2000
0000
3010
0100
0020
0000
1030
0000
,  // measure 33
0102
0000
0013
0100
2000
0000
3010
0000
,  // measure 34
0200
0000
0310
1000
0001
0010
0100
1000
,  // measure 35
0001
0000
1000
0000
0001
0000
0010
0000
0001
0000
0100
0010
1000
0000
0000
0000
,  // measure 36
1000
0000
0000
0010
0100
0000
0001
0000
0010
0000
0001
0100
0001
0000
0010
0000
,  // measure 37
0001
0000
0000
0001
1000
0000
0010
0000
0100
0000
0010
1000
0010
0000
0100
0000
,  // measure 38
0001
0010
0001
1000
0100
0010
0010
0010
,  // measure 39
0100
0010
0100
0010
0100
0010
0100
0010
0200
0000
0000
0000
0300
0000
0000
0000
,  // measure 40
1000
0000
0000
1000
0001
0000
0010
0000
0100
0000
1000
0000
0000
0000
0110
0000
,  // measure 41
0000
0000
0001
0000
0100
0000
0001
0000
1000
0000
0010
0000
0000
0000
0100
0001
,  // measure 42
1000
0000
1100
0000
0010
0100
0010
1000
,  // measure 43
0001
0010
1000
0010
0001
0000
0110
0000
,  // measure 44
1000
0000
0001
0100
0010
1000
0100
1000
,  // measure 45
0010
0000
0100
0000
0001
0000
0000
0000
1100
0000
0000
0000
0010
0000
1000
0001
,  // measure 46
0200
0000
0310
1000
0001
0010
0001
1000
,  // measure 47
0100
0000
0010
0000
0010
0000
0100
0000
1000
0001
0100
0000
0020
0000
0000
0000
,  // measure 48
1030
0100
0001
0100
1000
1001
0000
0110
,  // measure 49
0000
0000
0010
1000
0001
0000
0010
0000
0100
0000
0110
0000
0000
0000
1000
0001
,  // measure 50
0100
0000
1001
0000
0010
0100
0001
1000
,  // measure 51
0100
0000
0010
0100
0110
0000
1001
0000
,  // measure 52
0200
0000
0310
1000
0001
0010
0001
1000
,  // measure 53
0100
0010
0100
0001
0100
0000
0011
0000
,  // measure 54
1020
0000
0100
0000
0000
1030
0000
1001
,  // measure 55
0010
0100
0000
0001
0000
0000
0010
0000
0001
0000
1000
0100
0010
0000
0100
0000
,  // measure 56
1000
0001
0001
1000
0001
1000
0001
0001
,  // measure 57
0010
0000
0100
0000
0100
0000
0010
0000
0100
0000
0010
0000
0100
0000
0100
1000
,  // measure 58
0010
0100
0100
0001
0100
0010
0100
0100
,  // measure 59
0001
0000
0010
0001
0100
0000
0010
0000
1000
0001
0100
0000
0010
0000
1000
0000
,  // measure 60
0100
1000
1001
0000
0010
0100
1001
0000
,  // measure 61
0010
0001
1100
0000
0010
0100
0011
0000
,  // measure 62
1000
0001
0011
1000
0010
0100
0101
0001
,  // measure 63
1001
0000
0110
0000
0022
0000
0000
0033
;

//---------------dance-single - ----------------
#NOTES:
     dance-single:
     :
     Challenge:
     14:
     0.697926,0.709228,0.323007,0.161504,0.292725,484.000000,452.000000,32.000000,16.000000,44.000000,0.000000,0.697926,0.709228,0.323007,0.161504,0.292725,484.000000,452.000000,32.000000,16.000000,44.000000,0.000000:
// measure 0
0000
0000
0000
0000
,  // measure 1
0000
0000
0000
0000
,  // measure 2
MMMM
0000
MMMM
0000
,  // measure 3
2002
0000
0000
3003
,  // measure 4
0100
0010
0010
0100
0001
0100
0010
0010
,  // measure 5
1000
0100
0100
1000
0010
1000
0100
0100
,  // measure 6
0010
0100
0100
1000
0001
1000
0010
0010
,  // measure 7
0100
0001
0001
0100
1000
0100
0010
0010
,  // measure 8
1000
0000
0001
0010
0100
0000
1000
0000
0001
0000
0100
0000
0010
0000
1000
0000
,  // measure 9
0001
0000
1000
0100
0010
0000
0001
0000
1000
0000
0010
0000
0100
0000
0010
0000
,  // measure 10
1000
0000
0001
1000
0100
0000
0010
0000
0000
0000
0110
0000
0000
0000
1000
0000
,  // measure 11
0001
1000
0001
1000
0001
1000
0001
1000
0001
0000
0000
0000
MMMM
0000
0000
0000
,  // measure 12
0100
0000
0001
0000
0010
0000
0001
1000
0010
0000
0100
0000
0010
0000
1000
0000
,  // measure 13
0100
0000
0010
0000
0100
0000
1000
0001
0200
0000
0000
0000
0310
0000
0000
0000
,  // measure 14
0010
0000
1000
0000
0100
0000
1000
0001
0010
0000
0001
0000
0100
0000
0010
1000
,  // measure 15
0001
0000
0010
0000
0100
0000
1000
0010
0100
0000
0000
0000
0110
0000
0000
0000
,  // measure 16
0001
0000
1000
0000
0100
0000
1000
0001
0010
0000
0001
0000
1000
0000
0010
0000
,  // measure 17
1000
0100
0001
0100
2000
0000
3010
0100
,  // measure 18
0001
0000
0010
0000
0001
0000
1000
0010
0100
0000
0001
0000
0010
0000
0001
0000
,  // measure 19
1000
0000
0010
0000
0010
0100
0010
0000
0100
0000
0001
1000
0001
0000
0000
0000
,  // measure 20
0110
1001
0110
MMMM
,  // measure 21
1001
0110
1001
MMMM
,  // measure 22
0110
1001
0110
MMMM
,  // measure 23
1000
0010
1000
0010
0100
0001
0100
0001
0020
0000
0000
0000
0000
0000
0000
0000
,  // measure 24
0031
0000
0000
0100
0001
0000
1000
0000
0010
0000
0000
1000
0100
0000
0010
0000
,  // measure 25
0001
0000
0000
0001
1000
0000
0001
0000
0010
0000
0000
0000
MMMM
0000
0000
0000
,  // measure 26
0100
0000
0000
0010
1000
0000
0001
0000
0010
0000
0000
0100
0010
0000
0001
0000
,  // measure 27
1000
0001
0010
0000
0101
0000
0110
0000
,  // measure 28
1000
0000
0010
0100
0001
0000
0010
0000
1000
0000
0010
0001
0100
0000
0010
0000
,  // measure 29
1000
0001
1000
0010
0100
0000
1001
0000
,  // measure 30
0010
0000
0000
0001
0010
0000
0100
0000
1000
0000
0000
0010
0100
0000
0010
0000
,  // measure 31
1000
0001
0010
0000
1100
0000
0010
0100
,  // measure 32
0001
0000
0000
0001
0010
0000
0100
0000
2000
0000
0010
0000
3010
0000
0000
0000
,  // measure 33
0210
0000
0001
0001
0002
0000
0303
0000
,  // measure 34
0010
0001
0100
0010
1000
0001
0010
0100
,  // measure 35
1000
0000
0010
0000
1000
0000
0010
0000
0100
0000
0001
0010
0001
0000
0000
0000
,  // measure 36
1001
0000
0000
0001
0100
0000
0010
0000
1000
0000
0100
1000
0001
0000
0000
0000
,  // measure 37
0010
0000
0000
0100
0010
0000
1000
0000
0001
0000
1000
0010
0100
0000
0001
0000
,  // measure 38
0020
0100
0100
0130
0001
1000
1000
1000
,  // measure 39
1000
0001
1000
0001
1000
0001
1000
0001
1000
0000
0000
0000
MMMM
0000
0000
0000
,  // measure 40
0010
0000
0100
0000
0010
0000
1000
0100
0010
0000
0001
0000
0000
0000
0110
0000
,  // measure 41
0000
0000
1000
0000
0001
0000
0010
0001
1000
0000
0010
0000
0000
0000
0100
0010
,  // measure 42
1000
0000
0101
0000
0010
1000
0001
1000
,  // measure 43
0100
0001
0100
1000
0020
0100
0130
0000
,  // measure 44
0011
0000
0000
0000
1000
0000
0001
0000
0010
0000
0001
0100
0010
0000
1000
0000
,  // measure 45
0100
0000
1000
0000
0010
0000
0000
0000
0110
0000
0000
0000
0001
0000
0010
0100
,  // measure 46
2000
0010
3010
0100
0001
0010
0001
1000
,  // measure 47
0010
0000
0100
0000
0100
0000
0001
0000
1000
0001
1000
0000
0010
0000
0100
0000
,  // measure 48
0001
0010
0100
1000
0001
1000
MMMM
0001
,  // measure 49
1000
0000
0010
1000
0100
0000
0010
0000
0001
0000
0110
0000
0100
0000
0010
1000
,  // measure 50
0001
0000
0000
1000
0001
0000
0010
0000
0100
0000
0010
0000
0001
0000
1000
0000
,  // measure 51
0010
0000
1001
0100
0010
0100
1001
0000
,  // measure 52
0010
0000
1000
0000
0100
0000
1000
0001
0010
0000
0100
0000
1000
0000
0010
0000
,  // measure 53
0200
0000
0301
0010
0002
0000
0013
0100
,  // measure 54
2000
0010
0010
0000
0001
0001
0000
3001
,  // measure 55
0010
0100
0000
1000
0000
0000
0010
0000
0100
0000
0001
1000
0010
0000
0100
0000
,  // measure 56
0001
0010
0010
0100
0001
0100
1000
1000
,  // measure 57
0010
0000
0100
0000
0100
0000
1000
0000
0100
0000
0001
0000
0010
0000
0010
0100
,  // measure 58
1000
1000
0001
1000
0100
0010
0100
0100
,  // measure 59
0010
0000
0001
0010
0001
0000
1000
0000
0010
0100
0001
0000
0100
0000
0001
0000
,  // measure 60
1000
0001
1100
0000
0001
1000
0101
0000
,  // measure 61
0001
0100
1010
0000
1000
0100
0011
0000
,  // measure 62
1000
0000
0001
0010
0100
0000
1000
0000
0010
0100
0001
1000
0010
0000
0010
0000
,  // measure 63
1001
MMMM
0110
MMMM
2002
0000
0000
3003
;
