#TITLE:MY GIFTS;
#SUBTITLE:;
#ARTIST:D-crew;
#TITLETRANSLIT:;
#SUBTITLETRANSLIT:;
#ARTISTTRANSLIT:;
#GENRE:UK HIT CHART;
#CREDIT:;
#BANNER:MY GIFTS_banner.png;
#BACKGROUND:MY_GIFTS.png;
#LYRICSPATH:;
#CDTITLE:;
#MUSIC:MY GIFTS.ogg;
#OFFSET:-0.422000;
#SAMPLESTART:44.529999;
#SAMPLELENGTH:15.000000;
#LASTBEATHINT:368.500000;
#SELECTABLE:YES;
#BPMS:0.000000=185.000000
;
#STOPS:
;
#BGCHANGES:;
#KEYSOUNDS:;
#ATTACKS:;

//---------------dance-single - ----------------
#NOTES:
     dance-single:
     :
     Easy:
     7:
     0.299296,0.340142,0.098592,0.213616,0.000000,255.000000,243.000000,12.000000,26.000000,0.000000,0.000000,0.299296,0.340142,0.098592,0.213616,0.000000,255.000000,243.000000,12.000000,26.000000,0.000000,0.000000:
0000
0000
0000
0000
,
0000
0000
0000
0000
,
0000
0000
0000
0000
,
0000
0000
0000
0000
,
0100
0000
0010
0000
,
0100
0000
0010
0000
,
1000
0000
0001
0000
,
1000
0000
0001
0000
,
0020
0000
0031
0000
,
1000
0000
0020
0000
,
1030
0000
0200
0000
,
1300
0000
0001
0000
,
0200
0000
0310
0000
,
0010
0000
1000
0000
,
0001
0000
0010
0000
,
0100
0000
0110
0000
,
1000
0100
1000
0001
,
1000
0100
1000
0000
,
0001
0010
0001
1000
,
0001
0010
0001
0000
,
0100
0001
0100
0010
,
0100
0001
0100
0000
,
0010
1000
0100
1000
,
0010
1000
0100
0000
,
0010
0000
0011
0000
,
1000
0001
0010
0100
,
1000
0000
1010
0000
,
0100
0010
1000
0001
,
2000
0001
3001
0000
,
0002
1000
1003
0000
,
0100
0010
0100
0000
,
0001
0010
0001
0000
,
1000
0000
0001
0010
,
0100
0010
0001
0000
,
2200
0000
0000
3300
,
0000
0000
0010
0000
,
0010
0000
0200
0000
,
0320
0000
1030
0000
,
2002
0000
3003
0000
,
0010
0000
0001
0000
,
0202
0000
0303
0000
,
0010
0100
0010
0000
,
1000
0100
1000
0010
,
0100
0000
0001
0000
,
0010
0001
0100
0010
,
1000
0100
1000
0000
,
0001
1000
0001
0010
,
0001
1000
0001
0000
,
1000
0010
1000
0001
,
1000
0010
1000
0000
,
0001
0100
0100
0000
,
0010
1000
1000
0000
,
0100
0010
0001
0010
,
0100
1000
0001
0000
,
2002
0000
3003
0000
,
0100
0000
0100
0000
,
0010
0000
0010
0000
,
1000
0100
1000
0000
,
0001
0000
0010
0000
,
0001
0010
0001
0100
,
0001
0000
1000
0100
,
0020
0000
0230
0000
,
1300
0000
0001
0000
,
1000
0100
0010
0001
,
0100
0000
0010
0000
,
0100
0001
0010
0100
,
1000
0000
0110
0000
,
1000
0010
0100
0001
,
0010
0100
0100
0000
,
1000
0001
0001
0000
,
0100
0001
0100
0001
,
1000
0010
0100
0000
,
0022
0000
0000
0000
,
0033
0000
1000
0000
,
0100
0000
2000
0000
,
3002
0000
0103
0000
,
0220
0000
0330
0000
,
0101
0000
1000
0000
,
0100
1000
0100
0000
,
0010
0001
0010
0000
,
0001
0100
0001
1000
,
0010
1000
0100
0000
,
1000
0010
1000
0001
,
0100
0010
0100
0000
,
0010
0100
0001
0100
,
0010
1000
0100
0000
,
0010
0100
1000
0100
,
0010
0001
1000
0000
,
0010
0100
1000
0100
,
0010
0100
0001
0000
,
0010
0100
0100
0010
,
0001
1000
0001
2002
,
3003
0000
0000
0000
;

//---------------dance-single - ----------------
#NOTES:
     dance-single:
     :
     Medium:
     10:
     0.464790,0.490648,0.123240,0.361503,0.000000,396.000000,381.000000,15.000000,44.000000,0.000000,0.000000,0.464790,0.490648,0.123240,0.361503,0.000000,396.000000,381.000000,15.000000,44.000000,0.000000,0.000000:
0000
0000
0000
0000
,
0000
0000
0000
0000
,
0000
0000
0000
0000
,
0000
0000
0000
0000
,
0100
0000
0000
0010
0000
0000
1000
0000
,
0001
0000
0000
0010
0000
0000
0001
0000
,
1000
0000
0000
2002
0000
0000
3003
0000
,
0010
0000
0000
0220
0000
0000
0330
0000
,
0002
0000
0000
0013
0000
0000
0100
0000
,
2000
0000
0000
3010
0000
0000
0100
0000
,
0020
0000
0000
1030
0000
0000
0100
0000
,
2000
0000
0000
3001
0000
0000
0010
0000
,
0002
0000
0000
0103
0000
0000
0110
0000
,
2000
0000
0000
3100
0000
0000
1001
0000
,
0010
0100
1000
0001
,
0100
0010
0100
0000
0001
1000
0001
0000
,
1000
0000
0010
0100
0000
0001
0010
0000
,
0001
0000
1000
0100
1000
0000
0010
0000
,
0100
0000
0001
1000
0000
0010
1000
0000
,
0100
0000
1000
0100
0000
1000
0010
0000
,
0100
0000
0001
0000
0010
0001
1000
0000
,
0010
0000
1000
0100
0000
0010
0001
0000
,
0100
0000
0010
1000
0000
0001
0100
0000
,
0001
1000
2200
3300
,
0002
0013
2000
3010
,
0100
0010
0100
0000
0001
0000
0010
0000
,
0002
0103
2000
3100
,
0010
0100
0010
0000
0001
0000
1000
0000
,
0200
0301
0200
1300
,
0010
0100
0010
0000
1000
0000
0001
0000
,
0020
0031
0020
1030
,
0010
0001
0100
0000
1000
0000
0100
0000
,
0010
1000
0010
0000
0100
0000
0001
0000
,
0010
0100
2002
3003
,
0220
0000
0000
0330
,
0001
0000
1001
0000
,
0100
0000
0010
0000
1000
0100
1000
0000
,
0001
0000
0010
0000
0001
0100
0001
0000
,
2000
3100
0002
0103
,
1000
0010
1000
0000
0001
0000
0010
0000
,
0001
0000
0100
0010
0000
0100
0010
0000
,
1000
0001
0000
1000
0001
0000
1000
0000
,
0001
0000
0010
0000
0001
0100
0001
0000
,
1000
0000
0010
0000
0100
0010
1000
0000
,
0100
0010
0001
1000
,
0001
0010
0100
0000
1000
0000
0001
0000
,
0100
0000
0010
0100
0000
0010
0100
0000
,
0001
0000
0010
0001
0000
1000
0001
0000
,
1000
0000
0010
0000
1000
0100
0010
0000
,
0001
0000
0100
0001
0000
1000
0001
0000
,
1000
0000
0001
0000
0010
0100
1000
0000
,
0001
0000
1000
0000
0100
0010
0001
0000
,
0100
0000
0001
1000
0000
0001
1000
0000
,
0100
0010
0000
0100
0010
0000
0100
0000
,
2000
0000
3020
0000
,
0030
0100
0010
0100
0001
0000
0010
0000
,
0001
1000
0001
0000
1000
0000
0100
0000
,
0010
0001
1000
0000
0001
0000
0100
0000
,
0010
0000
1000
0100
0000
1000
0010
0000
,
1000
0100
0000
1000
0001
0000
0010
0000
,
0001
0000
0100
0001
0000
0010
0001
0000
,
0100
0001
0000
1000
0001
0000
1001
0000
,
0200
0301
0020
0031
,
1000
0100
0010
0000
0100
0010
0001
0000
,
2000
3010
0200
0310
,
1000
0001
0010
0000
0010
0100
1000
0000
,
0020
0130
0002
1003
,
1000
0001
0100
0000
0010
0000
0100
0000
,
0001
0000
0010
0000
0001
0100
0001
0000
,
1000
0000
0010
0000
1000
0100
1000
0000
,
0010
0000
1000
0001
1000
0000
0010
0000
,
0100
0001
1001
0000
,
0202
0000
0000
0303
,
0010
0000
0010
0000
,
1100
0000
0002
1003
,
2000
3010
0020
0130
,
2002
0000
0000
3003
,
0020
0000
0031
0000
,
1100
0000
0001
0010
0000
0001
1000
0000
,
0010
1000
0000
0100
1000
0000
0010
0000
,
0100
0000
0001
0000
0010
0001
1000
0000
,
0010
0000
1000
0000
0100
1000
0001
0000
,
0010
0000
0001
0000
1000
0100
1000
0000
,
0001
0010
0001
0000
2002
0000
3003
0000
,
0010
0000
0001
0100
0000
0001
1000
0000
,
0010
0000
1000
0100
1000
0000
0010
0000
,
0100
0000
0001
0010
0000
0100
1000
0000
,
0001
0000
1000
0100
0000
0010
0001
0000
,
1000
0000
0001
0010
0100
0010
0001
0000
,
1000
0000
0010
1000
0100
0010
0100
0000
,
1000
0000
0001
0100
0000
1000
0100
0000
,
0010
1000
0000
0010
0001
0010
0100
0001
;

//---------------dance-single - ----------------
#NOTES:
     dance-single:
     :
     Hard:
     14:
     0.719485,0.717101,0.353287,0.336855,0.078052,613.000000,570.000000,43.000000,41.000000,0.000000,0.000000,0.719485,0.717101,0.353287,0.336855,0.078052,613.000000,570.000000,43.000000,41.000000,0.000000,0.000000:
// measure 0
0000
0000
0000
0000
,  // measure 1
0000
0000
0000
0000
,  // measure 2
0000
0000
0000
0000
,  // measure 3
0000
0000
0000
0000
,  // measure 4
1000
0000
0010
0000
1000
0100
0000
0000
1000
0010
0100
0000
0010
0000
0100
0000
,  // measure 5
0001
0010
0100
0010
0001
0000
0110
0000
,  // measure 6
1001
0000
0000
2200
0000
0000
3300
0000
,  // measure 7
0101
0000
0000
0011
0000
0000
1001
0000
,  // measure 8
0200
0000
0000
0010
0000
0000
0001
0000
,  // measure 9
0302
0000
0000
1003
0100
1000
0010
0000
,  // measure 10
0120
0000
0000
1000
0000
0000
1030
0000
,  // measure 11
2100
0000
0000
0001
0000
0000
3010
0000
,  // measure 12
0102
0000
0000
1003
0000
0000
1010
0000
,  // measure 13
2001
0000
0000
3010
0100
0010
1000
0000
,  // measure 14
0001
0100
1000
0000
1000
0100
0001
0000
,  // measure 15
0010
0000
0100
0000
0010
0000
0100
0000
1000
0010
0100
0000
0001
0000
0010
0000
,  // measure 16
0001
0100
0010
0100
0001
0010
0100
1000
,  // measure 17
0001
1000
0010
1000
0001
0010
0001
0000
,  // measure 18
1100
0000
0001
0010
0000
0001
0010
0000
,  // measure 19
1100
0000
0010
0100
0001
1000
0100
0000
,  // measure 20
0010
0100
1000
0001
1000
0010
0100
0001
,  // measure 21
0010
0100
1000
0010
0001
1000
0001
0000
,  // measure 22
0110
0000
0001
0010
0000
1000
0010
1000
,  // measure 23
0001
0100
1000
0100
0001
0000
1001
0000
,  // measure 24
1020
0130
2010
3001
,  // measure 25
0010
0100
0001
0010
0100
1000
0001
0000
,  // measure 26
0201
0310
0120
1030
,  // measure 27
0010
0100
0001
1000
0100
0010
0001
0000
,  // measure 28
0101
0000
0010
1000
0001
0010
0200
1000
,  // measure 29
0000
1300
0010
0100
0001
0010
0100
0000
,  // measure 30
0010
0000
0001
0000
1000
0000
0001
0000
0010
0100
1000
0000
0001
0000
1000
0000
,  // measure 31
0020
0000
1000
0000
0030
0000
1000
0000
0001
1000
0100
0000
0010
0000
0001
0000
,  // measure 32
0100
0001
0010
0100
1000
0010
1000
0001
,  // measure 33
0010
0100
0110
0000
2002
0000
3003
0000
,  // measure 34
0100
1000
0001
0100
1000
0001
1000
0100
,  // measure 35
0001
0010
1000
0010
0001
0010
1000
0010
,  // measure 36
0100
0010
0001
0000
1002
0000
0103
0000
,  // measure 37
2001
3100
2020
3030
,  // measure 38
0001
0000
0010
0000
0001
0000
0100
0000
0001
0010
0100
0000
1000
0000
0010
0000
,  // measure 39
1000
0000
0100
0000
0010
0000
0100
0000
1000
0010
0100
0000
0010
0000
1000
0000
,  // measure 40
0001
0000
0010
0011
0000
1000
1100
0000
,  // measure 41
0010
0000
0110
0000
0000
0000
0100
0000
0001
1000
0001
0000
0010
0000
0100
0000
,  // measure 42
1000
0010
0001
1000
0100
0001
1000
0001
,  // measure 43
0010
1000
0001
0100
1000
0001
0010
1000
,  // measure 44
0010
0001
0100
0010
0100
0001
0100
1000
,  // measure 45
0100
0000
0001
0000
0010
0000
0001
0000
1000
0010
0100
0000
0001
0000
0010
0000
,  // measure 46
0001
1000
0020
0100
0000
0130
0001
1000
,  // measure 47
0100
1000
0002
0010
0000
0013
0100
1000
,  // measure 48
0001
1000
0010
0110
0000
0100
1000
0100
,  // measure 49
0001
0010
1000
1010
0000
0010
0001
0100
,  // measure 50
0010
0000
0001
0000
0010
0000
0100
0000
0010
1000
0100
0000
0010
0000
0001
0000
,  // measure 51
1000
0000
0100
0000
0010
0000
0100
0000
1000
0001
0100
0000
0010
0000
0100
0000
,  // measure 52
1000
0100
0001
1000
0010
0001
0010
1000
,  // measure 53
0001
0100
1000
0001
0010
1000
0100
0001
,  // measure 54
0200
0000
2000
0300
,  // measure 55
0000
3010
0100
0001
0010
1000
0010
0001
,  // measure 56
1000
0010
0100
0001
0010
0100
1000
0001
,  // measure 57
1000
0100
0001
0100
1000
0001
0100
0010
,  // measure 58
2000
0000
3010
0010
0100
0001
0010
0010
,  // measure 59
1000
0010
0010
0100
0010
0010
1000
0010
,  // measure 60
0100
0100
0001
0100
0100
1000
0100
0010
,  // measure 61
0100
0000
0001
0000
1000
0000
0100
0000
0010
0001
1000
0000
0001
0000
0010
0000
,  // measure 62
0001
1002
0103
0120
,  // measure 63
1030
0001
0010
0100
1000
0001
1000
0100
,  // measure 64
1000
0102
0013
2100
,  // measure 65
3010
0100
0001
1000
0100
0010
0001
0100
,  // measure 66
0001
0000
2000
0010
0000
3010
0100
0001
,  // measure 67
0010
0100
0010
0001
0010
1000
0010
0000
,  // measure 68
0011
0000
0000
0000
1000
0000
0001
0000
0010
0100
1000
0000
0010
0000
1000
0000
,  // measure 69
0001
0000
0001
0000
1000
0000
0001
0000
1000
0010
0100
0000
0001
0000
1000
0000
,  // measure 70
0100
0100
1000
0010
0100
0100
0001
0100
,  // measure 71
1000
0100
0010
0100
0220
0000
0330
0000
,  // measure 72
2200
0000
0000
3300
,  // measure 73
0202
0000
0000
0303
,  // measure 74
0011
0000
1010
0000
,  // measure 75
0100
0000
0001
0000
,  // measure 76
2200
0000
0000
3300
,  // measure 77
0011
0000
0100
0000
,  // measure 78
0110
0000
0001
0100
1000
0100
0001
1000
,  // measure 79
0001
0000
0010
0000
0100
0000
1000
0000
0010
0100
0010
0000
1000
0000
0100
0000
,  // measure 80
1000
0010
0001
1000
0100
0001
0010
1000
,  // measure 81
0001
0100
1000
0001
1000
0010
0001
0010
,  // measure 82
1000
0001
0010
0010
0001
1000
0100
0100
,  // measure 83
1000
0000
0010
0000
0100
0000
0010
0000
1000
0001
0010
0000
0001
0000
0100
0000
,  // measure 84
0010
0100
0020
0001
0000
0031
0010
1000
,  // measure 85
0100
0001
0200
1000
0000
1300
0010
0100
,  // measure 86
0001
0010
0002
1000
0000
1003
0010
0100
,  // measure 87
0010
0000
1000
0000
0100
0000
0010
0000
0001
1000
0001
0000
0010
0000
0100
0000
,  // measure 88
1000
0000
0001
0000
0010
0000
0001
0000
1000
0100
0010
0000
0001
0000
0100
0000
,  // measure 89
0010
0000
1000
0000
0001
0000
1000
0000
0100
0010
0001
0000
1000
0000
0010
0000
,  // measure 90
0100
0001
0100
1000
0100
0010
1000
0010
,  // measure 91
0001
0010
1000
0001
0010
1000
0100
0001
;
