#TITLE:MIRACLE MEETS;
#SUBTITLE:;
#ARTIST:Lucky Vacuum;
#TITLETRANSLIT:;
#SUBTITLETRANSLIT:;
#ARTISTTRANSLIT:;
#GENRE:BUCHIAGE TRANCE;
#CREDIT:;
#BANNER:MIRACLE_MEETS_banner.png;
#BACKGROUND:MIRACLE_MEETS.png;
#LYRICSPATH:;
#CDTITLE:;
#MUSIC:MIRCLE MEETS.ogg;
#OFFSET:-0.437000;
#SAMPLESTART:14.660000;
#SAMPLELENGTH:12.800000;
#SELECTABLE:YES;
#BPMS:0.000000=160.000000
;
#STOPS:
;
#BGCHANGES:;
#KEYSOUNDS:;
#ATTACKS:;

//---------------dance-single - ----------------
#NOTES:
     dance-single:
     :
     Easy:
     6:
     0.230442,0.305898,0.118031,0.503600,0.000000,205.000000,190.000000,15.000000,64.000000,0.000000,0.000000,0.230442,0.305898,0.118031,0.503600,0.000000,205.000000,190.000000,15.000000,64.000000,0.000000,0.000000:
0000
0000
0000
0000
,
0000
0000
0000
0000
,
0000
0000
0000
0000
,
0000
0000
0000
0000
,
1000
0001
0010
0001
,
0200
0000
0300
0000
,
0010
1000
0100
1000
,
0001
0100
0010
1000
,
2002
0000
0000
0000
,
3003
0000
0000
0000
,
0001
0010
0001
1000
,
0001
0100
0020
0030
,
1000
0100
1000
0001
,
1000
0010
0200
0300
,
0010
1000
0100
1000
,
0010
0100
0002
0003
,
0010
0001
0100
0010
,
2000
3000
0002
0003
,
0200
0010
0000
0010
,
0000
0001
0301
0000
,
0002
1000
0000
1000
,
0000
0010
0013
0000
,
2000
0100
0000
0100
,
0000
0001
3001
0000
,
0100
0010
1000
0001
,
1010
0000
0101
0000
,
2002
0000
0000
0000
,
0000
0000
0000
3003
,
0220
0000
0000
0000
,
0000
0000
0330
0000
,
2020
0000
0000
0000
,
0000
0000
0000
3030
,
0202
0000
0000
0000
,
0000
0303
0000
1100
,
2000
0010
0000
0010
,
3002
0100
0000
0103
,
1020
0100
0000
0100
,
0230
0301
0010
0010
,
0002
0100
0000
0100
,
2003
0010
0000
3010
,
0200
0301
0020
1030
,
2002
3003
0220
0330
,
1000
0001
0100
0001
,
0020
0000
0030
0000
,
0001
0100
0010
0100
,
0020
0030
2000
3000
,
0001
0100
0001
1000
,
0020
0000
0030
0000
,
1000
0001
0010
0100
,
1000
0100
0010
0001
,
2000
3000
0002
0003
,
2000
3000
0002
0003
,
0200
0300
0020
0030
,
0200
0300
0020
0030
,
2000
3100
0002
0103
,
2000
3010
0002
0013
,
0001
0001
1000
1000
,
0010
0010
0100
0100
,
2002
0000
0000
0000
,
0000
0000
0000
3003
0000
0000
0000
0000
,
1000
0010
0100
0001
,
0020
0000
0230
0000
,
0310
0001
1000
0100
,
2000
0000
3020
0000
,
0130
0001
0010
0001
,
2000
0000
3200
0000
,
0310
0001
0100
0010
,
2000
0000
3100
0000
,
0010
0001
1000
0100
,
0020
0000
0032
0000
,
0103
0010
1000
0100
,
2000
0000
3002
0000
,
0023
0001
0000
0031
,
0200
1000
0000
1300
,
1010
0000
0101
0000
,
0001
0010
0100
1000
,
2002
0000
0000
0000
,
0000
0000
0000
3003
;

//---------------dance-single - ----------------
#NOTES:
     dance-single:
     :
     Medium:
     9:
     0.352970,0.429634,0.314750,0.385569,0.000000,314.000000,274.000000,40.000000,49.000000,0.000000,0.000000,0.352970,0.429634,0.314750,0.385569,0.000000,314.000000,274.000000,40.000000,49.000000,0.000000,0.000000:
0000
0000
0000
0000
,
0000
0000
0000
0000
,
0000
0000
0000
0000
,
0000
0000
0000
0000
,
0100
0001
0010
0000
0100
1000
0010
0000
,
2002
0000
3003
0100
,
0010
0000
1000
0010
0000
0100
0000
0001
,
0000
0001
0010
0000
0100
0000
0010
0000
,
2002
0000
0000
0000
,
3003
0000
0000
0000
0000
0010
0001
0020
,
0000
0001
0000
0100
,
0000
0000
0001
0000
0031
0100
1000
0200
,
0000
0010
0000
1000
,
0000
0000
0010
0000
0301
0010
0001
2000
,
0000
0001
0000
0100
,
0000
0000
0010
0000
3100
0001
0010
0002
,
0000
1000
0000
0100
,
0000
0000
1000
0000
1003
0010
1000
0200
,
0000
0001
0000
0010
,
0000
0000
0001
0000
0310
0001
1000
0020
,
0000
0100
0000
1000
,
0000
0000
0100
0000
0130
0001
0010
0200
,
0000
1000
0000
0010
,
0000
0000
1000
0000
1300
0001
1000
0020
,
0000
0001
0000
0100
,
0000
0001
0030
0001
,
1002
1000
1000
1000
,
1000
1000
1003
0110
,
2001
0001
0001
0001
,
0001
3001
0110
1001
,
0120
0100
0100
0100
,
0100
0100
0130
1001
,
0210
0010
0010
0010
,
0310
1001
0000
1010
,
0201
0010
0000
0001
,
0000
0010
0310
1001
,
0021
0100
0000
0001
,
0000
0130
0011
1100
,
2010
0010
0000
0100
,
0000
0010
3100
1001
,
0012
0010
0000
1000
,
0000
0000
0103
0000
1000
0010
0100
0000
,
0001
0000
0100
0000
0010
1000
0100
0000
,
2000
0000
0000
3001
,
0010
0000
0001
0000
0100
0010
0100
0000
,
0001
0000
0010
0100
0000
0000
1000
0000
,
0001
0000
0100
0000
0001
0010
0001
0000
,
0200
0000
0000
0310
,
1000
0000
0100
0000
1000
0010
0000
0100
,
0000
0100
0001
0000
0010
0000
0001
0000
,
2000
0000
3002
0000
0103
0010
0100
0000
,
0002
0000
2003
0000
3010
0100
0010
0000
,
2000
0000
3020
0000
0130
0001
0100
0000
,
0002
0000
0023
0000
0130
1000
0100
0000
,
0010
0001
0010
0000
0001
0100
0001
0000
,
1000
0010
1000
0000
0001
0100
0001
0000
,
1001
0000
0110
0000
,
1001
1001
0110
0110
,
2002
0000
0000
3003
,
0100
0000
0010
0000
0100
0010
0100
0000
,
0001
0000
0010
0000
0001
1000
0010
0000
,
0220
0000
0000
0330
0000
0100
0010
0000
,
1000
0000
1100
0000
0001
0010
0001
0000
,
0100
0000
0010
1000
0000
0000
0101
0000
,
1000
0000
0011
0000
1000
0010
0100
0000
,
0202
0000
0000
0303
0000
1000
0010
0000
,
1000
0000
0001
0100
0000
0110
0000
1001
,
0000
1000
0001
0000
0100
0000
0101
0000
,
0020
0000
2030
0000
3001
0010
0100
0000
,
2200
0000
0000
3300
0000
0001
0100
0000
,
0020
0000
2030
0000
3001
0100
0010
0000
,
1000
0000
0010
1000
0000
0001
0100
0000
,
0002
0000
0023
0000
0031
0100
0010
0000
,
2020
0000
0000
3030
0000
0100
0001
0000
,
0011
0000
0000
0000
1010
0000
0000
0100
,
0000
0010
0100
0000
0002
0000
1003
0000
,
2002
0000
0000
0000
,
0000
0000
0000
0000
,
3003
0000
0000
0000
;

//---------------dance-single - ----------------
#NOTES:
     dance-single:
     :
     Hard:
     13:
     0.555309,0.583074,0.173112,0.519337,0.051147,494.000000,472.000000,22.000000,66.000000,0.000000,0.000000,0.555309,0.583074,0.173112,0.519337,0.051147,494.000000,472.000000,22.000000,66.000000,0.000000,0.000000:
// measure 0
0000
0000
0000
0000
,  // measure 1
0000
0000
0000
0000
,  // measure 2
0000
0000
0000
0000
,  // measure 3
0000
0000
0000
0000
,  // measure 4
0001
0010
0100
0010
0001
1000
0100
0010
,  // measure 5
0200
0000
1000
0000
0310
0001
0100
0010
,  // measure 6
1000
0000
1000
0001
0000
0110
0000
1000
,  // measure 7
0010
1000
0001
0010
0100
0000
0110
0000
,  // measure 8
1002
0100
0100
0100
,  // measure 9
2003
0000
0010
0000
3010
0100
0001
0010
,  // measure 10
0001
0100
0010
2000
0000
3001
0010
0200
,  // measure 11
0000
1300
0010
0100
0001
0010
0100
0010
,  // measure 12
0001
1000
0100
0020
0000
0031
0100
0020
,  // measure 13
0000
1030
0100
1000
0010
0100
0001
0010
,  // measure 14
0001
0100
0010
2000
0000
3100
1000
0002
,  // measure 15
0000
0013
0001
1000
0010
0100
1000
0200
,  // measure 16
0001
0000
0001
0000
0010
0000
0010
0010
,  // measure 17
0000
0000
1000
0000
1300
0100
0001
0010
,  // measure 18
0001
1000
0100
0020
0000
0130
0010
0002
,  // measure 19
0000
1003
0001
0010
0100
1000
0001
1000
,  // measure 20
0010
0100
0010
2000
0000
3100
1000
0020
,  // measure 21
0000
0130
0010
1000
0001
0010
0100
1000
,  // measure 22
0010
0100
0010
0002
0000
0013
1000
0200
,  // measure 23
0000
0310
0001
0010
0100
1000
0100
0020
,  // measure 24
0001
0000
0001
0000
0100
0000
0100
0100
,  // measure 25
0000
0100
0000
1000
0000
1000
1030
0000
,  // measure 26
1200
0000
1000
0000
0000
0010
0000
0010
,  // measure 27
0000
0001
0000
0001
0301
0000
1001
0000
,  // measure 28
1020
0000
1000
0000
0000
0100
0000
0100
,  // measure 29
0000
0001
0030
0010
0110
0000
1001
0000
,  // measure 30
0012
0000
0010
0000
0000
1000
0000
1000
,  // measure 31
0000
0100
0000
0100
0013
0000
1010
0000
,  // measure 32
2100
0000
0100
0000
0000
0001
0000
0001
,  // measure 33
0000
0010
3010
0000
0100
0010
0110
0000
,  // measure 34
0001
0010
1000
0020
0000
0031
0100
2000
,  // measure 35
0000
3100
0001
0010
0001
0100
0020
0000
,  // measure 36
1030
0100
0001
0200
0000
1300
0010
0002
,  // measure 37
0000
0013
1000
0010
0100
0000
1010
0000
,  // measure 38
0100
0001
0010
0002
0000
0013
0100
2000
,  // measure 39
0000
3010
0100
0010
1000
0100
0110
0000
,  // measure 40
0010
0001
0100
0020
0000
0130
0001
2000
,  // measure 41
0000
3001
0010
0100
1000
0001
1000
0000
,  // measure 42
1000
0000
0001
0000
0100
0000
0001
0000
0010
0000
0100
1000
0100
0000
1000
0000
,  // measure 43
0002
0000
0100
0000
0103
0010
1000
0010
,  // measure 44
0100
0000
0001
0000
0010
0000
0100
0000
1000
0000
0001
0010
0001
0000
0100
0000
,  // measure 45
0020
0000
1030
0020
0000
0130
0001
0010
,  // measure 46
0001
0000
0100
0000
0010
0000
0100
0000
0010
0000
1000
0100
1000
0000
0100
0000
,  // measure 47
2000
0000
0010
0000
3010
0100
0001
0010
,  // measure 48
0001
0000
0100
0010
0000
0110
0000
0020
,  // measure 49
0000
1030
0001
0100
0110
0000
1001
0000
,  // measure 50
0002
0000
0010
0000
0203
0000
1000
0000
0301
0000
0010
0001
0010
0000
0100
0000
,  // measure 51
2000
0000
0010
0000
3200
0000
0001
0000
1300
0000
0010
0100
0010
0000
0100
0000
,  // measure 52
0002
0000
1000
0000
0023
0000
0100
0000
0031
0000
0010
0100
0010
0000
0100
0000
,  // measure 53
2000
0000
0010
0000
3200
0000
0001
0000
0310
0000
0001
0010
0001
0000
1000
0000
,  // measure 54
0001
0010
0001
0100
0010
1000
0010
0100
,  // measure 55
0010
0100
1000
0100
0001
0010
0100
1000
,  // measure 56
0020
0130
0200
0310
0020
0130
0200
0310
,  // measure 57
1000
1000
1000
1000
0001
0001
0001
0001
,  // measure 58
2001
0000
0001
0000
0010
0000
0010
0010
,  // measure 59
0000
0100
0000
3100
0010
0001
0100
0010
,  // measure 60
1000
0000
0100
0000
0010
0000
0100
0000
1000
0000
0001
0100
0001
0000
0010
0000
,  // measure 61
0002
0000
0100
0000
1003
0010
0100
0010
,  // measure 62
1000
0000
0001
0000
0010
0000
0100
0000
0010
0000
0001
0010
0001
0000
1000
0000
,  // measure 63
0020
0000
0130
0020
0000
0130
0001
0010
,  // measure 64
0100
0000
1000
0000
0100
0000
0010
0000
0001
0000
1000
0100
1000
0000
0010
0000
,  // measure 65
0200
0000
0001
0000
0310
1000
0100
1000
,  // measure 66
0001
0000
0100
0110
0000
1010
0000
0002
,  // measure 67
0000
0010
0013
0001
2000
0100
3020
0001
,  // measure 68
0230
0000
0010
0000
2300
0000
0100
0000
3010
0000
0001
1000
0001
0000
0100
0000
,  // measure 69
0020
0000
1000
0000
0130
0001
0010
0001
,  // measure 70
0100
0000
0010
0000
1000
0000
0100
0000
1000
0000
0010
0100
0010
0000
0100
0000
,  // measure 71
0001
0010
0100
2000
0000
3010
0100
0001
,  // measure 72
0020
0000
0001
0000
2030
0000
0100
0000
3010
0000
0001
0100
0001
0000
1000
0000
,  // measure 73
0020
0000
0100
0000
0031
0010
0100
0010
,  // measure 74
1000
0000
0001
0100
0000
0110
0000
1001
,  // measure 75
0000
0001
0010
0100
2000
0010
3200
0302
,  // measure 76
0020
0000
0000
0000
,  // measure 77
0000
0000
0000
0000
,  // measure 78
0033
0000
0000
0000
;

//---------------dance-single - ----------------
#NOTES:
     dance-single:
     :
     Challenge:
     15:
     0.649734,0.675139,0.369831,0.629500,0.141637,578.000000,531.000000,47.000000,80.000000,0.000000,0.000000,0.649734,0.675139,0.369831,0.629500,0.141637,578.000000,531.000000,47.000000,80.000000,0.000000,0.000000:
0000
0000
0000
0000
,
0000
0000
0000
0000
,
0000
0000
0000
0000
,
0000
0000
0000
0000
,
0010
0000
0100
0000
0001
0000
1000
0000
0100
0000
0010
0100
1000
0000
0001
0000
,
0200
0010
0010
0000
0301
1000
0010
0001
,
0010
0000
1000
0000
0100
0000
1000
0000
0001
0000
0010
0100
0001
0000
0100
0000
,
1000
0000
0001
0010
0100
0000
1000
0010
0100
0000
0001
0000
0011
0000
0000
0000
,
2200
0000
0000
3300
,
0101
0000
0000
0000
0010
1000
0001
1000
0010
0100
0010
0100
0010
0000
2000
0000
,
0001
3020
0001
0230
0310
0100
1000
0100
,
0001
0010
0001
1000
0100
0001
0100
2000
,
0010
3100
0002
0013
0001
1000
0100
0020
,
0031
0100
0002
1000
0013
0100
1000
0200
,
0001
0310
0120
0000
0031
1000
0010
0012
,
0003
2010
3000
0100
1000
0010
0001
0020
,
1000
1000
1000
0000
0001
0000
0001
0031
,
0000
1010
0000
0100
0001
0010
0100
1000
,
0020
0100
0032
0010
0103
1000
0010
0110
,
0000
0000
1100
0000
0100
0000
1000
0000
0001
0000
0100
0010
1000
0000
0100
0000
,
0020
0100
2030
0100
3010
0100
1000
1001
,
0000
0000
0010
1000
0001
0000
0010
0000
0001
0000
1000
0000
0010
0000
0100
0000
,
0002
0000
0010
0000
0203
0000
1000
0000
0310
0000
1000
0001
0010
0000
0001
0000
,
0000
0000
1000
0010
0100
0000
0001
0000
0010
0000
0100
0000
0001
0000
0100
0000
,
2000
0010
0010
0000
0001
0000
3001
1001
,
0000
0000
0110
0000
0000
0000
1000
0000
0001
0000
0010
0100
1000
0000
0001
0000
,
0020
1000
1000
0000
0001
0001
0000
1000
,
0000
0000
0001
0000
0000
0000
1030
0000
0010
0001
1000
0001
0100
0000
0000
0000
,
0210
0000
1000
0000
0001
0001
0000
1000
,
0000
0000
0001
0000
0000
0000
1300
0000
0100
0000
0010
0000
2002
3003
0000
0000
,
0021
0000
1000
0000
0001
0001
0000
1000
,
0000
0000
0001
0000
0000
0000
1030
0000
0010
0001
1000
0100
1000
0000
0000
0000
,
0201
0000
1000
0000
0001
0001
0000
1000
,
0000
0301
0101
0000
1000
0010
1010
0000
,
0001
0010
0210
1300
0010
0100
0201
0301
,
0010
0100
1200
1300
0010
0100
0101
0000
,
0012
0013
0100
1000
2001
3001
0010
0100
,
1200
1300
0010
0100
0110
0000
1001
0000
,
0120
0130
0001
0010
0120
0130
1000
0010
,
0120
0130
0001
0010
0110
0000
1001
0000
,
0210
0310
1000
0100
0210
0310
0001
0100
,
0210
0000
0310
0000
1000
0000
0001
0000
0010
0100
1000
0001
0200
0000
0000
0000
,
0310
0000
1000
0000
0001
0000
0010
0000
0001
0000
1000
0100
1000
0000
0010
0000
,
0200
0000
0001
0000
1300
0100
0010
1000
,
0001
0000
0010
0000
0100
0000
1000
0000
0010
0000
1000
0001
1000
0000
0010
0000
,
0100
1000
0100
0002
0000
0013
1000
0010
,
0001
0000
1000
0000
0100
0000
0010
0000
0100
0000
1000
0001
0100
0000
0010
0000
,
2000
0000
0100
0000
3010
0001
0010
1000
,
0001
0010
0100
1000
0010
0100
0001
1001
,
0000
0010
1000
0001
0012
0003
2010
3000
,
0020
0000
0031
0000
0020
0000
1030
0000
0100
0000
0010
0100
1000
0000
0001
0000
,
0200
0000
1300
0000
0200
0000
0301
0000
0010
0000
0100
1000
0010
0000
0100
0000
,
0020
0000
1030
0000
0020
0000
0031
0000
0010
0000
1000
0001
1000
0000
0010
0000
,
0200
0000
1300
0000
0200
0000
0301
0000
0100
0000
0001
0010
0100
0000
1000
0000
,
0010
0000
1000
0100
1000
0000
0010
0000
0100
0000
0001
0010
0001
0000
1000
0000
,
0010
0000
0100
0001
0100
0000
0010
0000
1000
0000
0100
0010
0100
0000
0010
0000
,
0002
1000
2003
0001
3002
1000
2003
3001
,
0200
0310
0200
0310
0020
0130
0020
0130
,
0120
0000
1000
0000
0100
0000
0001
0001
,
0000
1000
0000
0031
0010
1000
0100
0001
,
0100
0000
1000
0000
0010
0000
0100
0000
0001
0000
0010
0001
1000
0000
0010
0000
,
0200
0000
0001
0000
1300
0100
0001
0010
,
0100
0000
1000
0000
0010
0000
1000
0000
0001
0000
0010
0100
1000
0000
0010
0000
,
0110
0000
1000
1001
0000
0010
0100
0001
,
1000
0000
0100
0000
0010
0000
0001
0000
1000
0000
0010
0100
0001
0000
1000
0000
,
0020
0000
1000
0000
0031
0010
0100
0001
,
0010
0001
1000
0010
1000
0100
1000
1010
,
0000
0100
0100
0100
0002
0013
0200
1300
,
0020
0000
0100
0000
0032
0000
0010
0000
0103
0000
1000
0010
0100
0000
0001
0000
,
0020
0000
1000
0000
0031
0010
1000
0010
,
0001
0000
1000
0000
0010
0000
0100
0000
0001
0000
1000
0010
1000
0000
0100
0000
,
2100
0000
3001
0012
0000
0103
1000
0100
,
0002
0000
0010
0000
0203
0000
1000
0000
0310
0000
0100
0001
1000
0000
0100
0000
,
2100
0000
0000
0000
3001
0010
0001
0100
,
0110
0000
1000
0001
0100
0010
0001
0011
,
0000
1000
0010
1000
0200
0302
0023
2030
,
0200
0000
0000
0000
,
0000
0000
0000
0000
,
3300
0000
0000
0000
;
