#TITLE:MEGALOVANIA;
#SUBTITLE:;
#ARTIST:Toby Fox(Arranged by BEMANI Sound Team "Yvya");
#TITLETRANSLIT:;
#SUBTITLETRANSLIT:;
#ARTISTTRANSLIT:;
#GENRE:;
#CREDIT:;
#BANNER:MEGALOVANIA_banner.png;
#BACKGROUND:MEGALOVANIA.png;
#LYRICSPATH:;
#CDTITLE:;
#MUSIC:MEGALOVANIA.ogg;
#OFFSET:-0.090000;
#SAMPLESTART:16.090000;
#SAMPLELENGTH:16.000000;
#SELECTABLE:YES;
#BPMS:0.000000=120.000000
,32.000000=240.000000
,288.000000=120.000000
,320.000000=240.000000
,384.000000=120.000000
;
#STOPS:
;
#BGCHANGES:;
#KEYSOUNDS:;
#ATTACKS:;

//---------------dance-single - ----------------
#NOTES:
     dance-single:
     :
     Challenge:
     19:
     0.950259,1.273654,1.118228,0.189112,0.501558,809.000000,673.000000,136.000000,23.000000,444.000000,0.000000,0.950259,1.273654,1.118228,0.189112,0.501558,809.000000,673.000000,136.000000,23.000000,444.000000,0.000000:
// measure 0
0000
0000
0000
0000
,  // measure 1
0000
0000
0000
0000
,  // measure 2
MMMM
MMMM
MMMM
MMMM
,  // measure 3
MMMM
MMMM
MMMM
MMMM
,  // measure 4
0001
0010
0001
0000
0100
0010
0000
0110
0000
1001
0000
0110
0000
0100
1000
0001
,  // measure 5
0100
0010
1000
0000
0100
1000
0000
1100
0000
0110
0000
0011
0000
0001
1000
0010
,  // measure 6
0100
0001
1000
0000
0010
0100
0000
1001
0000
0110
0000
1001
0000
1000
0001
1000
,  // measure 7
0010
0100
0001
0000
1000
0100
0000
0011
0000
0110
0000
1100
0000
1000
0001
0010
,  // measure 8
0100
1000
0001
0000
0011
0000
MMMM
1001
,  // measure 9
MMMM
1010
MMMM
0101
MMMM
0010
1000
0001
,  // measure 10
0100
0001
0010
0000
1100
0000
MMMM
0011
,  // measure 11
MMMM
1001
MMMM
1100
MMMM
0010
0100
0010
,  // measure 12
1000
0001
0010
0000
1100
0000
MMMM
1001
,  // measure 13
MMMM
1100
MMMM
0011
MMMM
0100
0010
1000
,  // measure 14
0001
0100
1000
0000
0101
0000
MMMM
1010
,  // measure 15
MMMM
0011
MMMM
1100
MMMM
1000
0010
0001
,  // measure 16
0010
1000
0100
0010
0001
0100
0010
1000
,  // measure 17
0001
0000
0010
0100
1000
0000
0001
0000
0010
0000
1000
0000
0001
0000
0100
0000
,  // measure 18
1000
0010
0001
1000
0100
0001
1000
0010
,  // measure 19
0100
0000
0001
1000
0100
0000
0010
0000
0001
0000
1000
0000
0010
0000
0100
0000
,  // measure 20
0001
1000
1010
0000
0102
0000
0013
1001
,  // measure 21
MMMM
1010
MMMM
0101
MMMM
0010
1000
0100
,  // measure 22
0010
0001
1000
0010
0100
0001
1000
1100
,  // measure 23
MMMM
0011
MMMM
1001
MMMM
0010
0100
0010
,  // measure 24
1000
0001
1000
0010
MMMM
0110
MMMM
1001
,  // measure 25
MMMM
1010
MMMM
0102
0000
1000
1003
0000
,  // measure 26
1010
0000
0100
0001
MMMM
0011
MMMM
1100
,  // measure 27
MMMM
1000
0010
0001
0010
1000
0100
0000
,  // measure 28
1100
0000
0001
0010
MMMM
0101
MMMM
1010
,  // measure 29
MMMM
1001
MMMM
0011
0000
1020
0000
0130
,  // measure 30
0110
0000
1001
0000
0010
0001
0100
2000
,  // measure 31
0000
0010
0010
0010
3010
MMMM
0101
0000
,  // measure 32
0011
0000
1000
0010
0000
0110
MMMM
1010
,  // measure 33
MMMM
0101
MMMM
0011
MMMM
1000
0001
0000
,  // measure 34
0110
0000
0010
1000
MMMM
1001
MMMM
0110
,  // measure 35
MMMM
0010
1000
0010
0001
0010
0200
0000
,  // measure 36
0301
0010
0100
0010
0001
1000
0100
0010
,  // measure 37
0100
1000
0001
0010
0100
1000
0010
0100
,  // measure 38
0001
1000
0010
0100
0010
1000
0000
1002
,  // measure 39
0000
0100
0100
0100
0103
MMMM
1010
0000
,  // measure 40
0001
0100
0010
1000
0100
1000
0010
0001
,  // measure 41
0010
1000
0100
0001
0100
1000
0010
0100
,  // measure 42
0010
0100
0010
0100
0020
0000
0000
0000
1030
0000
0001
0000
1000
0000
0001
0000
,  // measure 43
0200
0010
0010
0310
0020
0100
0100
0130
,  // measure 44
0001
0000
1001
1000
0010
0100
0010
1000
,  // measure 45
0001
0010
1100
0000
1000
0010
0101
0000
,  // measure 46
1001
0000
0110
0000
0010
1000
0001
0020
,  // measure 47
0000
0001
0001
0001
0000
0100
0130
0000
,  // measure 48
1100
MMMM
0110
MMMM
0011
MMMM
1001
MMMM
,  // measure 49
0110
MMMM
1010
MMMM
0011
MMMM
0110
MMMM
,  // measure 50
1100
MMMM
0110
MMMM
0101
MMMM
1001
MMMM
,  // measure 51
1010
MMMM
0011
MMMM
1001
MMMM
1100
MMMM
,  // measure 52
0012
0000
1000
0000
1003
MMMM
0110
0000
,  // measure 53
0010
1000
0100
1000
0001
0010
0001
0100
,  // measure 54
0020
0000
1000
0000
0100
0000
1030
MMMM
,  // measure 55
0001
0010
0001
1001
0000
1000
0100
0000
,  // measure 56
1000
0010
0100
0010
1000
0001
0100
1000
,  // measure 57
0100
0010
0001
0010
1000
0010
0100
0001
,  // measure 58
1000
0100
1000
0100
2000
0000
0000
0000
3001
0000
0010
0000
0001
0000
0100
0000
,  // measure 59
0002
1000
1000
1003
2000
0001
3001
0001
,  // measure 60
0101
0000
1000
0100
0010
0100
1000
0001
,  // measure 61
0100
0010
0100
0001
1000
0000
1001
MMMM
,  // measure 62
1010
MMMM
0101
MMMM
0100
0001
0010
2000
,  // measure 63
0000
0001
0001
0001
0001
0000
3001
0000
,  // measure 64
0110
MMMM
1001
MMMM
0110
MMMM
1010
MMMM
,  // measure 65
0101
MMMM
0011
MMMM
1100
MMMM
1010
MMMM
,  // measure 66
0101
MMMM
0011
MMMM
1001
MMMM
1100
MMMM
,  // measure 67
0110
MMMM
1001
MMMM
0110
MMMM
0101
MMMM
,  // measure 68
2001
0000
0010
0010
0010
0000
3001
0000
,  // measure 69
0010
0001
0100
0010
1000
0100
0001
0100
,  // measure 70
2000
0000
0001
0001
3001
0000
0110
0000
,  // measure 71
0001
0100
0010
0001
1000
0100
0010
0000
,  // measure 72
1000
0010
0100
0000
0001
0010
0000
0001
0100
1000
0000
1000
0100
0001
0010
0000
,  // measure 73
0001
0100
0001
0000
1000
0010
0000
1000
0100
0010
0000
0001
0010
0100
1000
0000
,  // measure 74
0010
0100
0010
0000
1000
0100
0000
0010
0100
1000
0000
0001
0010
0100
0010
0000
,  // measure 75
0001
1000
0100
0000
1000
0010
0000
0100
0001
1000
0000
0010
0100
0010
1000
0000
,  // measure 76
0001
0010
0100
0000
0010
0100
0000
0100
1000
0001
0000
0100
0010
1000
0001
0000
,  // measure 77
1000
0001
0100
0000
0010
1000
0000
0100
0010
0100
0000
0100
1000
0001
0010
0000
,  // measure 78
0001
0000
1100
MMMM
0101
MMMM
0000
0010
MMMM
1001
MMMM
0100
0000
0010
0100
0010
,  // measure 79
1000
0100
1000
0100
0010
0000
0001
0000
0010
0000
0000
0001
1000
0001
1000
0000
0010
0000
0010
0000
0100
0000
0000
0000
0001
0000
0100
0000
0010
0000
1000
0000
,  // measure 80
0001
1000
0020
1030
0001
0020
0000
0031
,  // measure 81
0000
1010
0000
0100
0001
0010
0100
1000
,  // measure 82
0010
0100
0010
1000
0100
0001
0100
1000
,  // measure 83
0001
0010
1000
0020
0001
0130
0001
1000
,  // measure 84
0010
0100
0010
0000
1100
0000
0001
0101
,  // measure 85
MMMM
0011
MMMM
1010
MMMM
1000
0001
0100
,  // measure 86
0010
1000
0001
0000
1100
0000
0010
0110
,  // measure 87
MMMM
1001
MMMM
0001
1000
0010
0001
0100
,  // measure 88
1000
0001
0010
0100
1000
0010
0100
0001
,  // measure 89
1000
0100
0001
0100
0010
1000
0001
0100
,  // measure 90
0010
1000
0001
0100
0010
0001
0100
1000
,  // measure 91
0010
0000
0001
0000
1000
0000
0010
0000
1000
0001
1000
0001
1000
0000
0000
0000
,  // measure 92
0220
0000
0000
0000
,  // measure 93
0330
0000
0000
0000
0000
0000
0000
0000
0100
0010
0100
0010
0000
0000
0000
0000
,  // measure 94
1000
0001
0100
0010
1000
0000
0000
0000
0001
0010
0100
0010
0001
0000
0000
0000
,  // measure 95
0100
0010
1000
0001
0010
0100
1000
0001
0010
0100
1000
0010
0100
0000
0000
0000
,  // measure 96
0001
0001
0010
0000
1100
0000
MMMM
0011
MMMM
1001
MMMM
1010
MMMM
0100
0010
0000
,  // measure 97
1000
1000
0100
0000
0011
0000
MMMM
1010
MMMM
1001
MMMM
0101
MMMM
0010
0100
0000
,  // measure 98
0010
0010
1000
0000
0101
0000
MMMM
0011
MMMM
1100
MMMM
0011
MMMM
1000
1000
0000
,  // measure 99
0100
0100
0010
0000
0011
0000
MMMM
1100
MMMM
1001
MMMM
0101
0000
0010
0100
0001
;
