#TITLE:MARENOL;
#SUBTITLE:;
#ARTIST:LeaF;
#TITLETRANSLIT:;
#SUBTITLETRANSLIT:;
#ARTISTTRANSLIT:;
#GENRE:;
#CREDIT:;
#BANNER:MARENOL_banner.png;
#BACKGROUND:MARENOL.png;
#LYRICSPATH:;
#CDTITLE:;
#MUSIC:MARENOL.ogg;
#OFFSET:-0.605000;
#SAMPLESTART:17.740000;
#SAMPLELENGTH:12.000000;
#LASTBEATHINT:323.250244;
#SELECTABLE:YES;
#DISPLAYBPM:140.000000;
#BPMS:0.000000=280.000000
,8.000000=140.000000
,40.000000=35.000000
,40.250000=70.000000
,40.500000=140.000000
,41.000000=560.000000
,43.000000=140.000000
,43.500000=70.000000
,44.000000=140.000000
,75.000000=280.000000
,77.000000=70.000000
,85.000000=140.000000
,93.000000=280.000000
,101.000000=35.000000
,102.000000=140.000000
,117.500000=280.000000
,118.000000=70.000000
,118.500000=140.000000
,119.000000=280.000000
,120.000000=140.000000
,120.500000=70.000000
,120.750000=35.000000
,121.000000=70.000000
,121.500000=140.000000
,122.000000=280.000000
,123.000000=140.000000
,123.500000=70.000000
,123.750000=35.000000
,124.000000=70.000000
,124.500000=140.000000
,125.000000=280.000000
,126.000000=140.000000
,126.500000=70.000000
,126.750000=35.000000
,127.000000=70.000000
,127.500000=140.000000
,128.000000=280.000000
,129.000000=140.000000
,129.500000=70.000000
,129.750000=35.000000
,130.000000=140.000000
,145.500000=280.000000
,146.000000=70.000000
,146.500000=140.000000
,147.000000=560.000000
,149.000000=140.000000
,149.500000=70.000000
,149.750000=35.000000
,150.000000=70.000000
,150.500000=140.000000
,151.000000=560.000000
,153.000000=140.000000
,153.500000=70.000000
,153.750000=35.000000
,154.000000=70.000000
,154.500000=140.000000
,155.000000=560.000000
,157.000000=140.000000
,157.500000=70.000000
,157.750000=35.000000
,158.000000=70.000000
,158.500000=140.000000
,159.000000=560.000000
,161.000000=140.000000
,161.500000=70.000000
,161.750000=35.000000
,162.000000=140.000000
,190.000000=70.000000
,191.750000=140.000000
,216.000000=35.000000
,217.000000=280.000000
,225.000000=140.000000
,321.000000=35.000000
;
#STOPS:117.500000=0.107000,
145.500000=0.107000,
191.750000=0.107000
;
#BGCHANGES:;
#KEYSOUNDS:;
#ATTACKS:;

//---------------dance-single - ----------------
#NOTES:
     dance-single:
     :
     Easy:
     7:
     0.200859,0.244869,0.060837,0.216310,0.000000,208.000000,199.000000,9.000000,32.000000,0.000000,0.000000,0.200859,0.244869,0.060837,0.216310,0.000000,208.000000,199.000000,9.000000,32.000000,0.000000,0.000000:
0000
0000
0000
0000
,
0000
0000
0000
0000
,
0000
0000
0000
0000
,
0001
0010
0001
0000
,
1000
0010
1000
0000
,
0001
0100
0001
0000
,
1000
0100
1000
0000
,
0001
0100
0010
0000
,
1000
0100
0010
0000
,
0100
1000
0010
0100
,
0002
0003
0000
0000
,
0100
0010
0100
0000
,
0001
0010
0001
0000
,
1000
0100
1000
0000
,
0020
0230
0301
1000
,
0100
1000
0010
0000
,
0100
0001
0010
0000
,
0001
0100
0010
1000
,
0020
0000
0130
0000
,
0000
0010
1000
0100
,
0001
0010
0001
0100
,
1000
0020
0000
0130
,
0000
0200
0000
0310
,
0000
2002
0000
0000
,
0000
0000
3003
0000
,
0000
0100
0010
0000
,
1000
0000
0001
0000
,
0010
0000
0001
0000
,
1000
0000
0100
0000
,
1000
0000
0010
0000
,
0010
0100
0000
0100
,
0001
0000
0001
1000
,
0000
1000
0002
0000
,
0013
0000
2000
0000
,
3010
0000
0100
0000
,
0010
0000
2000
3200
,
0320
0031
0001
0000
,
0000
1000
0010
0000
,
0000
0100
0001
0000
,
0000
0010
0001
0000
,
0000
1000
0100
0000
,
1000
0000
0010
0000
,
0100
0000
0001
0010
,
0100
0000
1000
0010
,
0100
0000
0001
0000
,
1001
0000
1000
0000
,
1001
0000
0010
0000
,
0110
0000
0200
0310
,
1000
0100
1000
0000
,
0001
0100
0001
0000
,
1000
0010
1000
0000
,
0001
0000
0101
0000
,
2000
0000
3010
1000
,
0002
0000
0013
0001
,
0100
0100
0200
0000
0000
0000
0000
0000
,
0000
0000
0300
0000
,
0000
0010
0100
0001
,
0000
1000
0100
0010
,
0000
0001
0100
0010
,
0000
1000
0000
1100
,
0000
0010
1000
0001
,
0000
0010
0001
0100
,
0000
0001
1000
0100
,
0000
1000
0100
0001
,
0100
2000
0000
3010
,
0100
0002
0000
0013
,
0100
2000
0000
3001
,
0100
0001
0010
0100
,
0000
2100
0000
3010
,
0000
0102
0000
0013
,
0000
0001
0010
0100
,
0000
1000
0010
0001
,
0010
2000
0000
3002
,
0000
0023
0000
0230
,
0000
1300
0000
0001
,
0000
0010
0000
0100
,
0000
0020
0000
0032
,
0000
0203
0000
2300
,
0000
3010
0000
1000
,
0000
0100
0000
0001
,
0010
2002
3003
0000
;

//---------------dance-single - ----------------
#NOTES:
     dance-single:
     :
     Medium:
     12:
     0.416203,0.435999,0.209550,0.358263,0.064217,431.000000,400.000000,31.000000,53.000000,0.000000,0.000000,0.416203,0.435999,0.209550,0.358263,0.064217,431.000000,400.000000,31.000000,53.000000,0.000000,0.000000:
0000
0000
0000
0000
,
0000
0000
0000
0000
,
0010
0000
0000
0000
0100
0000
0000
0000
0001
1000
0000
1000
0001
0000
0100
0000
,
0010
0100
0001
0000
1000
0100
0010
0000
,
0100
1000
0001
0000
0100
0010
1000
0000
,
0001
0010
0100
1000
0010
0100
0001
0000
,
1000
0100
1000
0010
0100
0001
0010
0000
,
0001
0100
0010
1000
0001
0010
0100
0000
,
1000
0001
0010
0001
1000
0010
0100
0000
,
2002
0000
3003
0000
0100
0010
0100
0010
,
2000
0000
3000
0000
,
0001
0000
0000
0100
0010
0000
0100
0000
0001
0000
1000
0000
0100
0000
0000
0000
,
1000
0000
0000
0010
1000
0000
0001
0000
0010
0000
0100
0000
1000
0000
0000
0000
,
0010
0000
0000
0100
0010
0000
1000
0000
0002
0000
0000
0000
2003
0000
0000
0000
,
3100
0000
0000
0100
1000
0000
0000
1000
0010
0000
0000
0010
0200
0000
0000
0000
,
0301
0010
0001
1000
0001
0010
0001
0000
,
1000
0100
1000
0010
1000
0100
1000
0000
,
0010
1000
0001
0010
0100
1000
0010
0000
,
0100
0000
0000
0100
0001
0000
0000
0001
1000
0000
0010
0000
0200
0000
0000
0000
,
0000
0000
0301
0010
0001
0000
1000
0010
,
1000
0000
0001
1000
0100
1000
0010
0100
,
2002
3003
0110
0000
0000
0000
0001
0000
,
0010
0100
1000
0010
,
0100
0001
1000
0001
,
1000
0002
0000
2003
,
0000
0000
0000
0000
3010
0000
0100
0100
0200
0000
0000
0000
0000
0000
0000
0000
,
0301
0010
0100
0000
1000
0000
0010
0000
,
1000
0001
0100
0000
0011
0000
1000
0000
,
0010
1000
0100
0000
1000
0000
0001
0000
,
0110
0000
1001
0000
0200
0310
0000
0000
,
0110
0000
0002
0013
0000
0000
1001
0000
,
2000
3010
0000
0000
0110
0000
0002
0013
,
0000
1100
0002
1003
,
1000
0100
0010
0000
0002
0000
0013
0000
,
0001
0100
0010
0000
2000
0000
3100
0000
,
1000
0001
0100
0000
0020
0000
0032
0000
,
0203
0000
1300
0000
0220
0000
0000
0330
,
0000
0000
1001
0000
0100
0010
0000
0000
,
0000
0000
1001
0000
1000
0100
0000
0000
,
0000
0000
1010
0000
0001
0010
0000
0000
,
0000
0101
0010
1000
,
0100
0000
0000
1000
0000
0000
0001
0000
0000
0000
0000
0000
0100
0000
0000
0000
0000
0000
0001
0000
0010
0000
0100
0000
,
1000
0000
0010
0000
1000
0000
0100
1000
,
0001
0000
0000
0100
0000
0000
0001
0000
0010
0001
0000
0000
,
1000
0000
0000
0000
0010
0000
1000
0000
0000
0000
0000
0000
0001
0000
0000
0000
0000
0000
0100
0000
0000
0010
0000
0000
,
0200
0000
0302
0000
0013
0000
0100
1000
,
0020
0000
0000
2030
0000
0000
3001
0000
0001
0010
0000
0000
,
0100
0000
0000
0000
0100
0000
1000
0000
0000
0000
0000
0000
0001
0000
0000
1000
0000
0000
0220
0000
0000
0330
0000
0000
,
1000
0000
0100
1000
0010
0000
1000
0000
,
0001
0000
0010
0001
0100
0000
0010
0000
,
1000
0100
0001
0000
0001
0100
1000
0000
,
0001
0010
0100
1000
,
1001
0000
0100
0010
1000
0000
0001
0000
,
0011
0000
1000
0010
0100
0000
0001
0000
,
0200
2300
3020
0032
0103
0000
0000
0000
0010
0000
0000
0000
0100
0000
0000
0000
,
0010
0100
0000
1001
,
0000
0000
0020
0000
0130
0001
0010
0000
,
0001
0000
2000
0000
3010
0100
0001
0000
,
1000
0000
0100
1000
0100
0000
0010
0001
,
0010
0001
1000
0100
,
0010
0000
0001
0100
0010
0000
0100
0010
,
1000
0000
0100
1000
0010
0000
0100
0001
,
0010
0000
0001
0010
1000
0000
1000
0010
,
0001
2000
3001
0110
,
1001
0000
0200
0000
0301
0010
0100
0010
,
0001
0000
1001
0000
0010
0100
1000
0100
,
0010
0000
1000
0010
0001
0000
0001
0010
,
1000
0001
0010
0100
,
1000
0000
0020
0000
1030
0100
0010
0100
,
1000
0000
1001
0000
0100
0010
0001
0010
,
0100
0000
0001
0100
1000
0000
1000
0100
,
0001
1000
0100
0010
,
0001
0000
2002
0000
0003
0000
3010
0100
,
0001
0000
0022
0000
0003
0000
0130
1000
,
0001
0000
0202
0000
0003
0000
0310
1000
,
0100
2100
3010
0102
,
0013
0000
0022
0000
0003
0000
0130
1000
,
0010
0000
0220
0000
0030
0000
0301
1000
,
0100
0000
1000
0001
0010
0000
0001
0010
,
1000
0010
0001
0000
0100
0000
1000
0000
,
0010
0000
2002
0000
0000
3003
0000
0000
;

//---------------dance-single - ----------------
#NOTES:
     dance-single:
     :
     Hard:
     16:
     0.709766,0.818133,0.452899,0.256868,0.503596,735.000000,668.000000,67.000000,38.000000,0.000000,0.000000,0.709766,0.818133,0.452899,0.256868,0.503596,735.000000,668.000000,67.000000,38.000000,0.000000,0.000000:
// measure 0
0000
0000
0000
0000
,  // measure 1
0000
0000
0000
0000
,  // measure 2
2000
0000
0000
0000
3100
0000
0001
0000
0100
1000
0000
0001
0100
0000
0010
0000
,  // measure 3
0100
0000
0001
0000
0010
0000
0100
1000
0010
0000
0100
0000
1000
0000
0100
0000
,  // measure 4
0001
0000
0010
0000
0100
0000
0010
0001
1000
0000
0010
0000
0001
0000
1000
0000
,  // measure 5
0100
0000
0001
0000
0010
0000
0100
1000
0001
0000
0100
0000
0010
0000
1000
0000
,  // measure 6
0100
0000
1000
0000
0100
0000
0001
0100
1000
0000
0010
0000
1000
0000
0010
0001
,  // measure 7
0010
0000
1000
0000
0001
0000
0010
0100
1000
0000
0001
0000
1000
0000
0100
0010
,  // measure 8
0001
0000
0100
0000
0010
0000
1000
0001
0010
0000
0001
0000
1001
0000
0000
0000
,  // measure 9
0100
0010
0100
0010
0100
0010
0100
0010
0100
0000
1000
0000
0100
0000
0001
0010
,  // measure 10
0200
0000
0000
0000
0300
0000
0000
1001
,  // measure 11
0100
0000
0000
0010
1000
0000
0001
0000
1000
0100
0010
0000
0100
0000
1000
0001
,  // measure 12
0100
0000
0000
0001
1000
0000
0010
0000
1000
0001
0010
0000
0001
0000
1000
0001
,  // measure 13
0010
0000
0000
0010
0100
0000
1000
0000
0100
0010
0001
0010
0100
0000
1000
0000
,  // measure 14
0010
0000
0000
0010
0001
0000
0000
0001
0100
0000
0000
0100
1000
0000
0010
0000
,  // measure 15
0110
0000
0000
1000
0100
0000
0010
0000
0001
1000
0010
1000
0001
0000
0100
0000
,  // measure 16
0010
0000
0000
1000
0100
0000
0010
0000
0100
1000
0100
0010
0100
0000
1000
0000
,  // measure 17
0001
0000
0000
0100
0010
0000
0100
0000
0001
0010
0100
0010
0001
0000
1000
0000
,  // measure 18
0010
0000
0100
0010
0100
0000
0001
0010
0001
0000
1000
0100
1000
0000
0000
0000
,  // measure 19
0000
0000
0000
0000
0000
0000
0000
0000
1001
0000
0000
0000
0100
0000
0000
0000
0010
0000
0000
0000
0100
0000
0001
0000
0010
0000
0100
0000
1000
0000
0010
0100
,  // measure 20
0010
1000
0001
0000
1100
0000
0010
0100
0001
0010
0100
1000
0100
0001
0100
0000
,  // measure 21
1000
0010
0001
0010
0200
0000
0000
0000
0320
0000
0000
0000
1030
0000
0100
0000
,  // measure 22
0001
0100
2000
0000
3020
0000
0031
0010
,  // measure 23
1000
0000
0010
0000
1000
0000
0001
0000
1000
0000
0001
0000
1000
0000
0001
0010
,  // measure 24
0100
0000
1000
0000
0010
0000
0100
0000
0010
0000
0100
0000
0001
1000
0001
1000
,  // measure 25
0001
0000
0010
0000
0200
2300
3020
0032
0013
0000
0000
0000
0010
0000
1000
0000
,  // measure 26
1100
0000
0011
0000
0100
0001
0010
0100
,  // measure 27
1000
0100
0001
0100
1000
0000
1001
0000
,  // measure 28
0010
1000
0100
1000
0001
0010
0100
0010
,  // measure 29
0001
0000
0100
0000
0010
0000
2000
0000
3001
0010
0100
0000
0000
0000
0000
0000
,  // measure 30
1100
0000
0000
0000
0000
0000
1000
0000
0000
0010
0100
0010
1000
0000
0000
0000
0000
0000
0001
0000
0000
0000
0000
0000
0010
0000
0000
0000
0000
0000
0000
0000
0000
0000
0000
0000
0110
0000
0000
0000
0000
0000
0100
0000
0000
1001
0000
0000
,  // measure 31
0001
0000
0000
0000
0000
0000
0000
0000
0000
0000
0000
0000
0100
0000
0000
0000
0000
0000
0000
0000
0000
0000
0000
0000
0010
0000
0000
0000
0000
0000
0000
0000
0000
0000
0000
0000
0000
0000
0000
0000
0000
0000
0000
0000
0000
0000
0000
0000
0100
0000
0000
0000
0000
0000
0000
0000
0000
0000
0000
0000
0000
0000
0000
0000
0000
0000
0000
0000
0000
0000
0000
0000
0000
0000
0000
0000
0000
0000
0000
0000
0000
0000
0000
0000
0000
0000
0000
0000
0000
0000
0000
0000
0000
0000
0000
0000
1001
0000
0000
0000
0000
0000
0000
0000
0000
0000
0000
0000
0000
0000
0000
0000
0000
0000
0000
0000
0000
0000
0000
0000
0001
0000
0000
0000
0000
0000
0000
0000
0000
0000
0000
0000
0010
0000
0000
0000
0000
0000
0100
0000
0000
0000
0000
0000
2000
0000
0000
0000
0000
0000
0000
0000
0000
0000
0000
0000
0000
0000
0000
0000
0000
0000
0000
0000
0000
0000
0000
0000
3010
0000
0000
0000
0000
0000
0000
0000
0000
0000
0000
0000
0000
0000
0000
0000
0010
0000
0000
0000
0000
0000
0000
0000
,  // measure 32
0000
0000
0000
0000
0010
0000
0000
0000
0000
0000
0000
0000
0110
0000
0000
0000
0000
0000
1000
0000
0000
1001
0000
0000
0010
0000
0000
0000
0000
0000
0100
0000
0000
0000
0000
0000
1000
0000
0000
0000
0000
0000
0010
0000
0000
0000
0000
0000
,  // measure 33
1000
0000
0000
0100
0000
0000
0010
0000
0000
0000
0000
0000
0100
0000
0000
0000
1000
0000
0000
0000
0001
0000
0000
0000
0100
0000
0000
0000
0000
0000
0010
0000
0000
0000
0000
0000
0100
0000
0000
0000
0001
0000
0000
0000
0010
0000
0000
0000
,  // measure 34
0110
0010
0011
0000
2200
0000
3300
0000
,  // measure 35
0001
0000
0010
0000
1000
0000
0010
0000
0001
0000
1000
0100
0010
0000
0100
1000
,  // measure 36
0001
0000
0100
0010
0002
0000
0003
0000
0110
0000
1000
0000
0200
0000
0000
0000
,  // measure 37
0300
0000
0000
0000
0011
0000
0100
1000
1001
0000
0010
0000
0200
0000
0000
0000
,  // measure 38
0300
0000
0000
0000
1100
0000
0100
0001
0011
0000
1000
0000
0020
0000
0000
0000
,  // measure 39
0030
0000
0000
0000
0011
0000
1000
0100
1010
0000
0100
0000
0002
0000
0000
0000
,  // measure 40
0003
0000
0000
0000
1001
0000
0100
0110
1001
0000
0000
0000
0100
0000
0010
1000
,  // measure 41
0100
0000
0000
0001
0000
0000
0100
0000
0000
0000
0000
0000
1010
0000
0000
0000
0000
0000
0001
0000
0010
0000
0100
0000
,  // measure 42
1000
0000
0000
0000
0000
0000
0010
0000
0000
0000
0000
0000
0110
0000
0000
0000
0000
0000
0000
0000
0001
0000
0000
0000
0010
0000
0000
0000
0000
0000
0000
0000
0000
0000
0000
0000
0100
0000
0000
1000
0000
0000
0001
0000
0000
0010
0000
0000
,  // measure 43
0100
0000
0000
0000
0000
0000
1000
0000
0000
0000
0000
0000
1000
0000
0000
0010
0000
0000
0000
0000
0000
0100
0000
0000
0010
0000
0000
0000
0000
0000
0000
0000
0000
1000
0000
0000
0001
0000
0000
0000
0010
0000
0000
0000
1000
0000
0000
0000
,  // measure 44
0001
0000
0100
0000
1000
0000
0000
0000
1001
0000
0000
0000
0100
0010
0100
0010
,  // measure 45
1000
0000
0100
0000
0110
0000
0001
0000
0011
0000
0000
1000
0010
0100
0010
0100
,  // measure 46
0001
0000
0010
0000
0110
0000
0000
0000
1100
0000
1000
0000
0001
0010
0100
1000
,  // measure 47
0010
0000
0000
0000
0100
0000
0000
0000
0001
0000
0000
0000
1000
0000
0010
0000
0100
0000
0001
0000
1000
0000
0001
0010
0100
0000
0000
0000
2002
0000
3003
0000
,  // measure 48
0110
0000
0100
0000
0010
0000
1000
0100
0010
0000
0100
0000
1000
0000
0000
0000
,  // measure 49
1001
0000
0001
0000
0100
0000
0010
1000
0001
0000
0010
0000
0100
0000
0000
0000
,  // measure 50
1100
0100
0010
0100
1000
0100
0001
0100
,  // measure 51
1000
0000
0010
0100
0001
0000
0010
0100
1000
0000
0001
1000
0010
0000
0000
0000
,  // measure 52
0110
0000
0100
0000
0001
0000
0010
0001
0100
0000
0010
0000
1000
0000
0000
0000
,  // measure 53
1001
0000
0001
0000
0100
0000
0010
0100
1000
0000
0100
0000
0010
0000
1000
0000
,  // measure 54
0002
0203
2300
3002
0023
2030
3200
0320
0031
0000
0000
0000
1000
0000
0000
0000
0001
0000
0000
0000
1000
0000
0000
0000
0001
0000
0000
0000
1000
0000
0000
0000
,  // measure 55
0001
1000
0010
0100
0010
0100
0010
0000
,  // measure 56
0000
0000
0000
0000
0011
0000
0001
0000
0100
0000
0010
1000
0100
0000
0010
0000
,  // measure 57
0100
0000
1000
0000
1001
0000
0001
0000
0010
0000
0001
1000
0100
0000
0010
0000
,  // measure 58
0001
0100
0001
0010
1000
0010
0001
1000
,  // measure 59
0010
0000
0001
0000
0010
0000
1000
0100
0010
0000
0001
0010
0100
0000
1000
0010
,  // measure 60
0100
0000
0000
0000
0101
0000
0001
0000
1000
0000
0100
0010
0001
0000
0100
0000
,  // measure 61
0001
0000
1000
0000
1010
0000
0010
0000
0100
0000
0001
1000
0100
0000
0010
0000
,  // measure 62
0001
0100
0001
0010
1000
0001
0100
1000
,  // measure 63
0100
0000
0010
0000
0001
0000
1000
0010
0100
0000
0001
0010
0100
0000
0001
0100
,  // measure 64
1000
0000
0000
0000
0000
0000
1100
0000
0000
0000
0101
0000
0000
0000
0000
0000
0110
0000
0000
0000
0000
0011
0000
0000
,  // measure 65
0000
0000
1100
0000
0000
0000
1010
0000
0000
0010
0000
0000
0110
0000
0000
0000
0000
0000
0110
0000
0000
0100
0000
0000
,  // measure 66
0101
0000
0000
0000
0001
0000
0010
0100
1000
0000
0010
0000
1000
0000
0100
0010
,  // measure 67
0001
0000
1000
0000
0001
0000
0010
0100
0010
0000
0001
0000
1000
0010
0100
0010
,  // measure 68
1000
0000
0000
0001
0000
0000
0110
0000
0000
0100
0000
0000
0101
0000
0000
0000
0011
0000
0000
0000
0000
1100
0000
0000
,  // measure 69
0000
0000
0000
0000
1010
0000
0000
0000
0000
0000
0000
0000
0110
0000
0000
0000
0000
0000
0010
0000
0000
0000
0000
0000
1000
0000
0000
0000
0000
0000
0100
0000
0000
0010
0000
0000
0100
0000
0000
0000
0000
0000
1000
0000
0000
0000
0000
0000
,  // measure 70
1001
0000
0000
0000
0001
0100
0010
0100
0001
0000
1000
0000
0010
1000
0100
1000
,  // measure 71
0010
0000
0100
0000
0001
0000
0010
0100
1000
0000
0010
1000
0100
0000
1000
0010
,  // measure 72
0100
0000
0102
0000
0013
0000
0001
0010
,  // measure 73
1000
0000
0000
0000
1020
0000
0000
0000
0031
0000
0100
0000
0001
0000
0010
0100
,  // measure 74
1000
0000
1020
0000
0130
0000
1000
0100
,  // measure 75
0010
0000
0001
0000
0100
0000
0001
1000
0010
0000
1000
0001
0100
0000
0010
1000
,  // measure 76
0001
0000
1002
0000
0100
0000
1003
0100
,  // measure 77
0001
0000
0000
0000
0201
0000
0000
0000
1300
0000
0010
0000
1000
0000
0001
0010
,  // measure 78
0100
0000
2020
0000
3030
0000
0100
1000
,  // measure 79
0010
0000
0001
0000
0010
0000
0100
0001
0010
0000
0100
1000
0010
0000
0100
0010
,  // measure 80
0001
0000
0000
0000
2002
0000
0000
0000
0000
0000
0000
3003
0000
0000
0000
0000
;
