#TITLE:Lovesick Lovetune;
#SUBTITLE:;
#ARTIST:VALLEYSTONE feat. 紫崎 雪;
#TITLETRANSLIT:;
#SUBTITLETRANSLIT:;
#ARTISTTRANSLIT:VALLEYSTONE feat. Yuki Shizaki;
#GENRE:;
#CREDIT:;
#BANNER:Lovesick_Lovetune_banner.png;
#BACKGROUND:Lovesick_Lovetune.png;
#LYRICSPATH:;
#CDTITLE:;
#MUSIC:Lovesick Lovetune.ogg;
#OFFSET:-0.570000;
#SAMPLESTART:61.035000;
#SAMPLELENGTH:14.230000;
#LASTBEATHINT:233.000000;
#SELECTABLE:YES;
#BPMS:0.000000=135.000000
;
#STOPS:
;
#BGCHANGES:;
#KEYSOUNDS:;
#ATTACKS:;

//---------------dance-single - ----------------
#NOTES:
     dance-single:
     :
     Easy:
     3:
     0.161553,0.189725,0.112153,0.121499,0.000000,121.000000,109.000000,12.000000,13.000000,0.000000,0.000000,0.161553,0.189725,0.112153,0.121499,0.000000,121.000000,109.000000,12.000000,13.000000,0.000000,0.000000:
0000
0000
0000
0000
,
0000
0000
0000
0000
,
0110
0000
0001
0000
,
2000
0000
3000
0000
,
0100
0000
1000
0000
,
0002
0000
0003
0000
,
0100
0000
0010
0000
,
1000
0000
0001
0000
,
0010
0000
0001
0000
,
2002
0000
0000
0000
0000
3003
0000
0000
,
0100
0000
0010
0000
,
1000
0000
0001
0000
,
0010
0000
0100
0000
,
1000
0000
0110
0000
,
1000
0000
0001
0000
,
0010
0000
0100
0000
,
1000
0000
0010
0000
,
0100
0000
1001
0000
,
0010
0000
0010
0000
,
0200
0000
0300
0000
,
0001
0000
1000
0000
,
2000
0000
3000
0000
,
0100
0000
1000
0000
,
0001
0000
0100
0000
,
0010
0000
1000
0000
,
0002
0000
0003
0000
,
0010
0001
0010
0000
,
0100
1000
0100
0000
,
1000
0000
0001
0000
,
2002
0000
3003
0000
,
0010
0000
0100
0000
,
0001
0000
1000
0000
,
0100
0000
0010
0000
,
1001
0000
0000
0000
,
0010
0100
0010
0000
,
1000
0100
1000
0000
,
0001
0000
0010
0000
,
0100
1000
0100
0000
,
1000
0000
0010
0000
,
0100
0001
0100
0000
,
0010
0000
1000
0000
,
0220
0000
0330
0000
,
0100
0000
0001
0000
,
0010
0000
0001
0000
,
1000
0000
0010
0000
,
0100
0000
1001
0000
,
0010
0000
0001
0000
,
1000
0000
0010
0000
,
0100
0000
0001
0000
,
2002
0000
3003
0000
,
1000
0000
0100
0000
,
0010
0000
0001
0000
,
0100
0000
0010
0000
,
1000
0000
1001
0000
,
0100
0000
0010
0000
,
1000
0000
0001
0000
,
0010
0000
0100
0000
,
1000
0000
0110
0000
,
1001
0000
0000
0000
;

//---------------dance-single - ----------------
#NOTES:
     dance-single:
     :
     Medium:
     8:
     0.343134,0.352346,0.158883,0.420573,0.000000,257.000000,240.000000,17.000000,45.000000,0.000000,0.000000,0.343134,0.352346,0.158883,0.420573,0.000000,257.000000,240.000000,17.000000,45.000000,0.000000,0.000000:
// measure 0
0000
0000
0000
0000
,  // measure 1
0000
0000
0000
0000
,  // measure 2
1001
0000
0010
0000
0100
0000
0010
0100
,  // measure 3
0002
0000
0003
0000
1000
0100
1000
0000
,  // measure 4
0010
0000
0100
0000
0001
1000
0100
0000
,  // measure 5
2000
3002
0023
0031
,  // measure 6
0100
0000
0010
0000
1000
0000
0100
1000
,  // measure 7
0002
0003
0100
0010
,  // measure 8
0220
0330
2002
3003
,  // measure 9
0100
0000
0010
0100
0020
0000
0030
0000
,  // measure 10
1000
0000
0100
0000
1000
0100
1000
0000
,  // measure 11
0001
0000
0100
0000
0001
0100
0001
0000
,  // measure 12
0010
0000
0001
0000
0010
0001
0010
0000
,  // measure 13
0200
2300
3020
0130
,  // measure 14
0010
0000
1000
0000
0010
1000
0010
0000
,  // measure 15
0100
0000
0001
0000
0100
0001
0100
0000
,  // measure 16
0010
0000
0100
0000
0010
0100
0010
0000
,  // measure 17
2000
3001
0022
0033
,  // measure 18
2000
0000
3100
0010
,  // measure 19
0001
0100
0010
1000
,  // measure 20
0002
0103
2000
3100
,  // measure 21
0220
0000
0000
0000
0000
0330
0000
0000
,  // measure 22
0001
0010
0100
1000
,  // measure 23
0010
1000
0100
0010
,  // measure 24
0001
1000
0100
0000
1000
0001
0100
0000
,  // measure 25
2002
0000
0000
0000
0000
3003
0000
0000
,  // measure 26
0100
0000
0010
0000
1000
0100
1000
0000
,  // measure 27
0001
0000
0010
0000
0001
1000
0001
0000
,  // measure 28
0100
0001
0010
0100
,  // measure 29
1000
0001
1000
0000
0010
0000
0100
0000
,  // measure 30
0001
0000
0010
0000
0100
1000
0100
0000
,  // measure 31
1000
0000
0010
0000
0100
0001
0100
0000
,  // measure 32
0001
0000
1000
0000
0100
0010
0100
0000
,  // measure 33
1000
0001
0220
0330
,  // measure 34
0001
0000
0011
0000
1000
0010
1000
0000
,  // measure 35
0001
0000
1000
0000
0100
1000
0001
0000
,  // measure 36
0010
0001
0100
0001
,  // measure 37
0010
0001
0010
0000
0100
1000
0100
0000
,  // measure 38
1000
0000
1010
0000
0100
0010
0100
0000
,  // measure 39
0001
0000
1000
0000
0001
0100
0001
0000
,  // measure 40
0220
0330
2002
3003
,  // measure 41
0100
0010
0100
0000
0220
0000
0330
0000
,  // measure 42
1000
0000
0001
0000
0010
0001
1000
0000
,  // measure 43
2002
3003
0100
0100
,  // measure 44
0010
1000
0010
0000
0100
0001
0100
0000
,  // measure 45
0002
0023
0230
1300
,  // measure 46
0010
0000
1000
0000
0100
1000
0001
0000
,  // measure 47
0220
0330
1000
1000
,  // measure 48
0001
0010
0001
1000
,  // measure 49
0010
0100
0220
0330
,  // measure 50
1000
0000
0100
0000
1000
0100
1000
0000
,  // measure 51
0001
0000
0010
0000
0001
0100
0001
0000
,  // measure 52
0010
0000
0100
0000
0010
0100
0010
0000
,  // measure 53
0200
2300
3002
0103
,  // measure 54
0010
0000
0100
0000
0010
0100
0010
0000
,  // measure 55
1000
0000
0010
0000
1000
0010
1000
0000
,  // measure 56
0001
0000
0010
0000
0001
0010
0001
0000
,  // measure 57
0010
0100
2002
3003
,  // measure 58
0110
0000
0000
0000
;

//---------------dance-single - ----------------
#NOTES:
     dance-single:
     :
     Hard:
     13:
     0.576785,0.514968,0.130845,0.224305,0.401880,432.000000,418.000000,14.000000,24.000000,0.000000,0.000000,0.576785,0.514968,0.130845,0.224305,0.401880,432.000000,418.000000,14.000000,24.000000,0.000000,0.000000:
// measure 0
0000
0000
0000
0000
,  // measure 1
0000
0000
0000
0000
0000
0000
0000
0000
0000
0000
0000
0000
0000
0000
0001
0010
,  // measure 2
0001
0000
0000
1000
0000
0000
1000
0000
0010
0000
0000
0100
0000
0000
0010
0000
,  // measure 3
0220
0000
0000
0000
0330
0000
1000
0100
1000
0000
0100
0000
0001
0000
0100
0000
,  // measure 4
1000
0000
0010
0100
0000
0000
0001
0000
1000
0000
0001
0010
0000
0000
0001
0000
,  // measure 5
1000
0010
0001
1000
0100
0001
0200
0000
,  // measure 6
0301
0000
0010
0100
0000
0000
1000
0000
0010
0000
0100
0010
0000
0000
0010
0000
,  // measure 7
2000
0000
0000
0000
3100
0000
1000
0010
0100
0000
0001
0000
0010
0000
0001
0000
,  // measure 8
2002
0000
0000
0000
3003
0000
0100
0010
1000
0000
0100
1000
0000
0000
0001
0000
,  // measure 9
0010
0000
0100
0010
0000
0100
0010
0000
0001
0000
0000
0000
1001
0000
0000
0000
,  // measure 10
0100
0000
0010
0000
0010
0000
1000
0001
0000
0010
0000
0100
1000
0000
0001
0000
,  // measure 11
1000
0000
0010
0000
0010
0000
0100
0001
0000
1000
0000
0100
0010
0000
0001
0000
,  // measure 12
1000
0000
0100
0000
0100
0000
0010
0001
0000
1000
0000
0001
0010
0000
0100
0000
,  // measure 13
1000
0000
0100
0000
0001
0000
0100
0000
1000
0001
0000
0100
0000
0010
0000
0000
,  // measure 14
1000
0000
0010
0000
0010
0000
1000
0001
0000
1000
0000
0100
0010
0000
0001
0000
,  // measure 15
0100
0000
0010
0000
0010
0000
0100
0001
0000
0010
0000
0100
1000
0000
0001
0000
,  // measure 16
1000
0000
0100
0000
0100
0000
0010
0100
0000
1000
0000
0001
0100
0000
0010
0000
,  // measure 17
0100
1000
0010
0001
0100
0000
1001
0000
,  // measure 18
0020
0000
0031
0100
0020
0000
1030
0100
,  // measure 19
1000
0010
0001
0100
0001
0010
1000
0001
,  // measure 20
0020
0000
0230
0000
1300
0001
0010
0001
,  // measure 21
2000
3002
0023
0130
,  // measure 22
0200
0000
1300
0010
0200
0000
0301
0010
,  // measure 23
1000
0100
1000
0010
1000
0100
0001
1000
,  // measure 24
0010
0000
0011
0000
1000
0000
0001
0100
,  // measure 25
0020
0000
0000
0030
,  // measure 26
1100
0000
0001
0010
0100
0010
0001
1000
,  // measure 27
0010
0001
1000
0100
0002
0000
1003
0010
,  // measure 28
1000
0001
0010
0000
0001
1000
0010
0100
,  // measure 29
0002
0000
1000
1003
,  // measure 30
0110
0000
1000
0001
0100
0000
0001
1000
,  // measure 31
0100
0001
1000
0010
0002
0000
1003
0010
,  // measure 32
0100
0001
0100
1000
0100
0010
1000
0100
,  // measure 33
0010
0000
0000
0011
0000
0000
1000
0000
0001
0000
1000
0001
1000
0000
0000
0000
,  // measure 34
0010
0000
0000
0010
0100
0000
0000
0100
0001
0000
1000
0100
0000
0000
0100
0000
,  // measure 35
1000
0000
0001
0000
0010
0000
1000
0000
0010
0000
0001
1000
0000
0000
0100
0000
,  // measure 36
0010
0001
1000
0001
0100
0010
1000
0100
,  // measure 37
0010
0000
0100
0010
0000
0000
0001
1000
0001
0000
0100
0000
0110
0000
0000
0000
,  // measure 38
0001
0000
0000
0001
1000
0000
0000
1000
0100
0000
0010
0001
0000
0000
1000
0000
,  // measure 39
0010
0000
0001
0000
1000
0000
0100
0000
0001
0000
0010
0100
0000
0000
1000
0001
,  // measure 40
1000
0000
0000
1000
0010
0000
0000
0010
0100
0000
0000
0100
0001
0000
0000
0001
,  // measure 41
0010
0000
0100
1000
0000
0000
0001
1000
0001
0000
0000
0000
0110
0000
0000
0000
,  // measure 42
1000
0000
0010
0100
0000
0000
0001
0000
0010
0000
0100
1000
0000
0000
0001
0000
,  // measure 43
2002
0000
0000
0000
3003
0000
0100
0010
1000
0000
0001
0000
1000
0000
0100
0000
,  // measure 44
0010
0000
0001
1000
0000
0000
0001
0000
0010
0000
0100
1000
0000
0000
0010
0000
,  // measure 45
1000
0100
0001
1000
0010
0001
0200
0000
,  // measure 46
0301
0000
0010
0001
0000
0000
0010
0000
0100
0000
1000
0010
0000
0000
1000
0000
,  // measure 47
0200
0000
0000
0000
1300
0000
0001
0010
0100
0000
0010
0000
0001
0000
1000
0000
,  // measure 48
0020
0000
0000
0000
0130
0000
0001
1000
0001
0000
0010
0100
0000
0000
0100
0000
,  // measure 49
0010
0000
0001
0010
0000
0100
1000
0000
0001
0000
0000
0000
0110
0000
0000
0000
,  // measure 50
0010
0000
0100
0000
0100
0000
0001
1000
0000
0100
0000
0010
0001
0000
1000
0000
,  // measure 51
0001
0000
0100
0000
0100
0000
0010
1000
0000
0001
0000
0010
0100
0000
1000
0000
,  // measure 52
0001
0000
0010
0000
0010
0000
0100
1000
0000
0001
0000
1000
0100
0000
0010
0000
,  // measure 53
0001
0000
0010
0000
1000
0000
0010
0000
0001
1000
0000
0010
0000
0100
0000
0000
,  // measure 54
0001
0000
0100
0000
0100
0000
0001
1000
0000
0001
0000
0010
0100
0000
1000
0000
,  // measure 55
0010
0000
0100
0000
0100
0000
0010
1000
0000
0100
0000
0010
0001
0000
1000
0000
,  // measure 56
0001
0000
0010
0000
0010
0000
0100
0010
0000
0001
0000
1000
0010
0000
0100
0000
,  // measure 57
0010
0001
0100
1000
0010
0000
1001
0000
,  // measure 58
0110
0000
0000
0000
;
