#TITLE:Lovely Howdy Cowboy!!;
#SUBTITLE:;
#ARTIST:まろん feat. キャサリン;
#TITLETRANSLIT:;
#SUBTITLETRANSLIT:;
#ARTISTTRANSLIT:MARON feat. Catherine;
#GENRE:HAPPY COUNTRY CORE;
#CREDIT:;
#BANNER:Lovely Howdy Cowboy!!_banner.png;
#BACKGROUND:Lovely Howdy Cowboy!!.png;
#LYRICSPATH:;
#CDTITLE:;
#MUSIC:Lovely Howdy Cowboy!!.ogg;
#OFFSET:-0.340000;
#SAMPLESTART:61.160000;
#SAMPLELENGTH:10.680000;
#LASTBEATHINT:345.000000;
#SELECTABLE:YES;
#BPMS:0.000000=180.000000
;
#STOPS:
;
#BGCHANGES:;
#KEYSOUNDS:;
#ATTACKS:;

//---------------dance-single - ----------------
#NOTES:
     dance-single:
     :
     Easy:
     7:
     0.324390,0.353258,0.230364,0.304409,0.000000,276.000000,248.000000,28.000000,37.000000,0.000000,0.000000,0.324390,0.353258,0.230364,0.304409,0.000000,276.000000,248.000000,28.000000,37.000000,0.000000,0.000000:
0000
0000
0000
0000
,
0000
0000
0000
0000
,
1000
1000
0001
0001
,
0100
0100
0010
0010
,
1000
0001
1000
0001
,
0220
0000
0000
0330
,
0001
0010
0100
0010
,
0001
1000
0010
0000
,
0100
0001
0100
1000
,
0100
0010
1000
0000
,
0100
0010
1000
0001
,
1000
0010
0100
0000
,
0010
1000
0001
1000
,
0010
0100
0001
0010
,
2002
0000
3003
0000
,
0000
0000
0000
0000
,
0220
0000
0330
0000
,
1000
1000
1000
1000
,
0101
0010
0000
0010
,
0101
0010
0000
0010
,
1100
0000
0101
0000
,
0220
0000
0000
0330
,
0001
1000
0001
1000
,
0010
0100
0010
0010
,
2020
0000
3030
0000
,
0100
0001
1000
0100
,
0011
0000
0000
0001
0000
0000
0001
0000
,
1000
0000
0000
1000
0000
0000
1000
0000
,
0010
0220
0330
0000
,
1000
0001
1000
0000
,
0001
0010
0100
1000
,
0100
0010
0002
0003
,
0100
0010
0100
0010
,
2000
0000
3001
0000
,
0010
1000
0010
0000
,
0001
0100
0001
0000
,
0011
0000
1000
0000
,
1001
0000
0010
0100
,
1000
0010
1000
0001
,
0010
0001
0001
0000
,
0100
0010
1000
0001
,
1000
0100
0010
0000
,
0001
0100
1000
0100
,
0001
0100
0010
0000
,
1100
0000
0101
0000
,
0220
0000
0330
0000
,
0001
0010
0100
0010
,
0001
1000
1000
0000
,
0010
1000
0100
1000
,
0001
0010
2002
3003
,
0100
0010
1000
0001
,
1000
0100
0010
0000
,
0010
0001
1000
0010
,
0220
0000
0330
0000
,
1000
0001
0010
0100
,
1000
0010
0010
0000
,
0100
0001
1000
0100
,
0220
0000
0330
0000
,
0001
1000
0001
1000
,
0010
0000
0000
0010
0000
0000
0000
0000
,
0100
0010
1000
0001
,
0020
0000
0032
0000
,
1003
0010
0100
0001
,
2000
0000
3020
0000
,
0230
0000
0301
0000
,
2002
0000
0000
0000
,
3003
0000
0000
0000
,
0100
0010
1000
0010
,
0100
0001
0010
0000
,
0001
0100
0010
1000
,
0100
0010
0001
0000
,
1000
0010
0100
0010
,
1000
0001
0010
0000
,
0001
0100
0010
0100
,
0001
0001
1000
2002
,
3003
1000
0001
0100
,
0010
1000
1000
0000
,
0001
0010
0100
1000
,
0001
1000
0010
0000
,
0100
0100
0010
0010
,
1000
0001
1000
0000
,
0001
0001
0010
0010
,
1100
0000
0101
0000
,
0011
0000
1010
0000
,
2002
3003
0220
0330
,
2002
0000
0000
0000
0000
0000
0000
3003
;

//---------------dance-single - ----------------
#NOTES:
     dance-single:
     :
     Medium:
     12:
     0.586487,0.566036,0.312636,0.189227,0.032909,499.000000,461.000000,38.000000,23.000000,0.000000,0.000000,0.586487,0.566036,0.312636,0.189227,0.032909,499.000000,461.000000,38.000000,23.000000,0.000000,0.000000:
0000
0000
0000
0000
,
0000
0000
0000
0000
,
0001
0000
1000
0000
0010
0100
0001
0000
,
1000
0000
0010
0000
1000
0100
0010
0000
,
0001
1000
0001
1000
0010
0100
0010
0000
,
1000
0000
0010
0100
0010
0000
0110
0000
,
0001
0010
0100
0010
0001
1000
0010
0000
,
1000
0000
0001
0000
0010
0100
1000
0001
,
1000
0010
0100
0010
1000
0010
0100
0000
,
0001
0010
0100
0010
0001
0000
1001
0000
,
0100
0001
1000
0010
1000
0100
0010
0000
,
0001
0000
0100
0000
0010
1000
0001
1000
,
0010
0100
0010
1000
0001
0010
0100
0000
,
1000
0001
0100
0010
1000
0001
0100
0000
,
0220
0000
0000
0000
0330
0000
0000
1000
,
1000
0000
0000
0000
0001
0000
0000
0001
,
1001
0000
0000
0000
0010
0000
0000
0010
,
0100
0000
0100
0000
0100
0001
0100
0010
,
1000
0000
1000
0000
0001
0010
0100
0010
,
0001
0000
1000
0000
0010
1000
0100
1000
,
0010
0000
0000
0100
0001
0000
0000
0011
,
0000
0001
1000
0010
1000
0000
1100
0000
,
1000
0010
0100
0010
0000
1000
0001
0100
,
0000
0100
0010
1000
0001
0000
0010
0000
,
0001
0000
1001
0000
0100
0010
1000
0100
,
0000
1000
0001
0010
0000
0001
1000
0000
,
1001
0000
0000
0010
0000
1010
0000
0100
,
0000
0000
0101
0000
0000
0000
0010
0000
0001
0000
0000
0010
0000
0000
0100
0000
,
1000
0000
1001
0000
0010
0100
0001
1000
,
0000
1000
0010
0100
0001
0010
0100
0000
,
1000
0000
0100
1000
0100
0000
1000
0001
,
0000
0001
0010
0001
1000
0001
0010
0000
,
1001
0000
0010
0001
1000
0001
0000
0010
,
0100
1000
0010
0000
0100
0001
1000
0000
,
0010
0000
0100
0010
0000
0000
1000
0000
0000
0010
0000
0000
,
1000
0000
0001
0010
0000
0000
0001
0000
0000
1000
0000
0000
,
2002
3003
0022
0033
,
2200
3300
0010
1010
,
0100
0000
0001
0010
0001
1000
0000
0010
,
0000
1000
0100
0010
0001
0000
1001
0000
,
0100
0000
0010
0100
0010
1000
0000
0001
,
0000
0001
0010
0000
0100
0000
0110
0000
,
0010
0001
1000
0001
0010
0000
0110
0000
,
0100
1000
0001
1000
0010
0100
0100
0000
,
1010
0000
0011
0000
,
1000
0001
0000
2002
0000
0000
3003
0000
,
0100
0010
1000
0000
0001
0010
0100
0000
,
1000
0010
0100
0020
0000
1000
1030
0000
,
0001
0010
0100
0010
0001
1000
0001
0000
,
0100
0010
1000
0010
0100
0000
0001
0000
,
0010
0001
1000
0000
0010
0100
0001
0000
,
0010
0100
1000
0002
0000
0100
0000
0103
,
0000
0000
0010
0000
1000
0000
0001
0000
0010
0000
0000
0100
0000
0000
1000
0000
,
0001
0100
0010
1000
0100
0010
0001
0000
,
1001
0000
0100
0000
0010
1000
0100
0000
,
0010
0100
1000
0002
0000
0100
0103
0000
,
0010
0000
1000
0000
0100
0000
1000
0000
0001
0000
0000
1000
0000
0000
0100
0000
,
0010
0001
1000
0001
0010
0000
0110
0000
,
1000
0001
0100
0000
0001
1000
0100
0000
,
1010
0000
0000
0011
0000
0100
0100
0000
,
0001
0000
0010
0000
0001
0000
0000
0000
0001
0000
0000
1000
0000
0000
0100
0000
,
1000
0000
0010
0000
1000
0000
0000
0000
0001
0000
0000
0100
0000
0000
0010
0000
,
1000
0000
0100
0000
0010
0000
0000
0000
0100
0000
0000
1000
0000
0000
0001
0000
,
0100
0010
0100
0010
1000
0100
1000
0000
,
0001
0010
0001
1000
0001
0100
0010
0000
,
2002
0000
0000
3003
,
0220
0000
0330
0000
,
1000
0100
1000
0001
0010
0100
1000
0001
,
0000
0010
0001
0100
0010
1000
0001
0000
,
0010
0001
0010
0001
1000
0010
0100
0010
,
1000
0000
0001
0100
0010
0000
1010
0000
,
0100
0010
1000
0001
0010
0100
1000
0001
,
0000
0010
0001
1000
0010
0100
0010
0000
,
1000
0001
0010
0001
1000
0010
0100
0000
,
0001
0000
0011
0000
0100
0010
0100
0010
,
0000
0000
1010
0000
0100
0010
1000
0001
,
0000
0010
0100
1000
0010
1000
0001
0000
,
0100
0001
1000
0010
1000
0001
0010
0000
,
0001
0100
0010
1000
0001
1000
0100
0000
,
0010
0001
1000
0001
0100
0010
1000
0000
,
0100
1000
0010
0100
0001
1000
0010
0000
,
0100
0001
0010
0001
0100
1000
0100
0000
,
0011
0100
1100
0010
,
0101
1000
0011
0100
,
2200
3300
0202
0303
,
0220
0000
0000
0000
,
0330
0000
0000
0000
;

//---------------dance-single - ----------------
#NOTES:
     dance-single:
     :
     Hard:
     16:
     0.880318,0.919809,0.419591,0.213909,0.666409,749.000000,698.000000,51.000000,26.000000,0.000000,0.000000,0.880318,0.919809,0.419591,0.213909,0.666409,749.000000,698.000000,51.000000,26.000000,0.000000,0.000000:
// measure 0
0000
0000
0000
0000
,  // measure 1
0000
0000
0000
0000
,  // measure 2
0001
0000
1000
0000
0010
0000
0100
0000
0001
0010
0000
0010
0000
0000
0100
1000
,  // measure 3
0010
0000
1000
0000
0010
0000
0100
0000
0001
1000
0000
1000
0000
0000
0100
0010
,  // measure 4
0001
0100
0001
0100
0001
0000
1000
0000
0010
1000
0010
1000
0010
0000
0100
0000
,  // measure 5
0001
1000
0000
0100
0010
0000
0001
0000
1001
0000
0000
0000
0110
0000
0000
0000
,  // measure 6
1000
0010
0100
0010
1000
0010
0100
0010
1000
0000
0001
0000
0010
0000
0100
0000
,  // measure 7
0000
0000
0100
0010
0001
0000
1000
0000
0001
0000
1000
0010
0100
0000
0001
0000
,  // measure 8
0010
0100
0010
0001
0010
0100
0010
0001
0010
0000
0001
0000
1000
0000
0010
0000
,  // measure 9
0100
0000
0001
1000
0001
0000
0010
0000
0100
0000
1000
0000
1001
0000
0000
0000
,  // measure 10
0010
1000
0001
1000
0010
1000
0001
1000
0010
0000
0100
0000
0001
0000
0010
0000
,  // measure 11
0000
0000
0010
0000
0001
0000
1000
0010
0100
0000
0001
0000
1000
0000
0100
0000
,  // measure 12
1000
0001
0010
0001
1000
0001
0010
0001
1000
0000
0100
0000
0010
0000
0001
0000
,  // measure 13
1000
0001
0100
0000
0001
1000
0100
0000
1000
0010
0100
0010
0100
0000
0001
0000
,  // measure 14
0022
0000
0000
0000
0033
0000
0000
0010
,  // measure 15
0110
0000
0000
0000
1000
0000
1010
0100
,  // measure 16
0220
0000
0330
0000
0001
0000
0000
0010
,  // measure 17
0110
0000
0000
0000
1100
0000
0000
0000
1000
0000
0001
0000
0100
0010
0100
0010
,  // measure 18
1000
0000
0010
0100
0010
1000
0001
0100
,  // measure 19
0101
0000
0010
0001
0100
0010
1000
0100
,  // measure 20
0110
0000
1000
0001
1001
0000
0001
1001
,  // measure 21
0000
0000
0100
0000
0010
0100
0010
0100
0001
0000
0010
0000
0001
1000
0100
0000
,  // measure 22
1000
0000
0010
0000
0100
0001
1000
0000
0100
0000
0010
0000
0001
0000
0100
0000
,  // measure 23
0010
0000
0100
0000
0001
0000
0010
0000
0100
1000
0001
0000
0100
0000
0010
0000
,  // measure 24
1000
0000
0001
0000
0010
0100
1000
0000
0001
0000
0010
0000
0001
0000
0100
0000
,  // measure 25
0010
0000
1000
0000
0001
0000
1000
0000
0010
0000
0100
0001
1000
0000
0000
0000
,  // measure 26
1010
0000
0001
0011
0000
0110
0000
1100
,  // measure 27
0000
0000
1001
0000
0000
0000
0101
0000
0100
0000
0000
0110
0000
0000
0001
0000
,  // measure 28
1000
0000
0010
0000
1000
0001
0100
0000
0010
0000
1000
0000
0100
0000
0010
0000
,  // measure 29
0000
0000
0010
0000
0100
0000
1000
0001
0100
0000
0010
0000
0110
0000
0000
0000
,  // measure 30
1010
0000
0000
0000
1010
0000
1000
0000
1010
0000
0000
0000
0001
0000
0010
0001
,  // measure 31
0010
0000
0001
0000
0010
0000
0001
0100
0001
0000
0010
0000
0011
0000
0000
0000
,  // measure 32
1000
0000
0001
0000
0010
0000
0001
1000
0010
0000
0100
0000
0001
0000
1000
0000
,  // measure 33
0000
0000
1000
0000
0001
0000
0010
0100
0010
0100
0010
0000
0001
0000
0000
0000
,  // measure 34
1000
0000
0001
0010
0000
0100
1000
0000
0010
1000
0000
0001
,  // measure 35
0100
0000
1000
0100
0000
0010
0100
0000
0001
0010
0000
0100
,  // measure 36
1000
0010
0100
0001
0010
0100
1000
0001
0100
0010
0000
1000
,  // measure 37
0002
0003
1010
0101
,  // measure 38
0010
0000
0001
0000
1000
0000
0001
0100
0010
0000
1000
0000
0000
0000
1100
0000
,  // measure 39
0000
0000
0001
0000
0100
0000
0010
1000
0001
0000
0010
0000
0200
0000
0000
0000
,  // measure 40
1300
0000
0010
0000
1000
0000
0001
0100
0010
0000
1000
0000
0001
0000
0010
0000
,  // measure 41
0000
0000
0010
0000
0001
0000
1000
0010
1000
0010
1000
0000
0002
0000
0000
0000
,  // measure 42
0103
1000
0100
0001
0100
1000
1100
0000
,  // measure 43
0010
0000
1000
0000
0010
0000
0001
0000
0011
0000
0000
0000
1000
0001
1000
0001
,  // measure 44
1000
0000
0000
0000
0010
0001
0010
0001
0010
0000
0000
0000
0100
1000
0100
1000
,  // measure 45
0100
1000
0000
0202
0000
0000
0303
0000
,  // measure 46
1000
0000
0001
0010
0100
0000
1000
0000
0010
0000
0100
0001
1000
0000
0010
0000
,  // measure 47
1000
0000
0001
0100
0010
0000
1000
0000
0001
0000
0011
0000
0000
0000
1100
0000
,  // measure 48
0000
0000
1000
0001
1000
0000
0010
0000
0100
0000
0001
0000
0010
0000
0100
0000
,  // measure 49
1000
0001
0010
0001
1000
0000
0010
0000
0220
0000
0000
0000
0330
0000
0000
0000
,  // measure 50
0001
0000
1000
0100
0010
0000
0001
0000
0100
0000
0010
1000
0001
0000
0100
0000
,  // measure 51
0001
0000
1000
0010
0100
0000
0001
0000
1000
0000
1100
0000
0000
0000
0011
0000
,  // measure 52
0000
0000
0001
1000
0001
0000
0100
0000
0010
0000
1000
0100
0000
0000
0010
0000
,  // measure 53
0001
0000
0001
0000
1000
0000
1000
0000
0010
0100
0010
0100
0020
0000
0000
0000
,  // measure 54
0130
0000
0000
0100
0001
0000
0000
0001
0010
0000
0000
0010
1000
0000
0000
1000
,  // measure 55
0010
0000
0001
1000
0001
0000
0100
0000
0010
0000
1010
0000
0000
0000
0101
0000
,  // measure 56
0000
0000
0010
0001
1000
0000
0010
0000
1000
0001
0100
0000
0010
0000
1000
0000
,  // measure 57
0001
0100
0001
0100
0001
0000
0010
0000
0200
0000
1000
0000
1300
0000
0000
0000
,  // measure 58
1000
0001
0011
0000
0001
1000
1100
0000
,  // measure 59
0101
0000
1000
1010
0000
0100
0100
0000
,  // measure 60
0010
0000
1000
0000
0100
0000
1000
0000
0001
0000
0010
0100
0000
1000
0010
0000
,  // measure 61
0100
0000
0001
0000
0100
0000
0010
0000
1000
0001
0100
0000
0010
0000
1000
0000
,  // measure 62
0001
0000
0010
0000
1000
0000
0010
0000
0001
0000
1000
0010
0000
0100
0001
0000
,  // measure 63
2000
0000
0010
0000
0010
0000
3010
0000
0100
0001
0100
0001
0100
0000
0000
0000
,  // measure 64
0002
0000
0010
0000
0010
0000
0013
0000
0100
1000
0100
1000
0100
0000
0000
0000
,  // measure 65
2002
0000
0000
3003
,  // measure 66
0220
0330
0110
0000
,  // measure 67
0001
0100
0010
0100
0001
0100
0010
0100
0001
0000
1000
0000
0100
0000
0010
0000
,  // measure 68
0000
0000
0010
0100
1000
0000
0001
0000
1000
0000
0001
0100
0010
0000
1000
0000
,  // measure 69
0100
0010
0100
1000
0100
0010
0100
1000
0100
0000
1000
0000
0001
0000
0100
0000
,  // measure 70
0010
0000
1000
0001
1000
0000
0100
0000
0010
0000
0001
0000
1001
0000
0000
0000
,  // measure 71
0100
0001
1000
0001
0100
0001
1000
0001
0100
0000
0010
0000
1000
0000
0100
0000
,  // measure 72
0000
0000
0100
0000
1000
0000
0001
0100
0010
0000
1000
0000
0001
0000
0010
0000
,  // measure 73
0001
1000
0100
1000
0001
1000
0100
1000
0001
0000
0010
0000
0100
0000
1000
0000
,  // measure 74
1010
0000
0000
0000
0011
0000
0000
0000
0100
0000
0100
0000
0001
0010
0100
1000
,  // measure 75
0000
0000
0000
0000
0100
0001
1000
0001
0100
0000
0010
0100
0010
0000
1000
0000
,  // measure 76
0001
0000
0010
0000
0001
0000
1000
0010
0100
0000
0001
0000
0010
0000
0100
0000
,  // measure 77
1000
0001
0100
0001
1000
0001
0100
0001
1000
0000
0010
0000
0100
0010
0100
0000
,  // measure 78
0001
0000
0010
0000
0100
0000
1000
0010
0000
0100
0001
0000
0020
0000
0000
0000
,  // measure 79
0031
1000
0100
1000
0001
1000
0100
1000
0001
0000
0010
0000
0001
1000
0100
0000
,  // measure 80
1000
0000
0010
0000
0100
0000
0001
0010
0100
0000
1000
0000
0010
0000
0100
0000
,  // measure 81
0010
1000
0001
1000
0010
1000
0001
1000
0010
0000
0100
0000
0001
0010
0001
0000
,  // measure 82
1000
0001
0100
0000
0001
1000
0100
0000
1000
0001
0010
0000
0001
1000
0010
0000
,  // measure 83
0100
0010
1000
0000
0001
0010
0100
0000
1000
0001
0100
0010
1000
0000
0001
0000
,  // measure 84
0010
0000
2200
3300
0010
0000
0202
0303
,  // measure 85
0220
0000
0000
0000
,  // measure 86
0330
0000
0000
0000
;
