#TITLE:Love 2 Shuffle;
#SUBTITLE:;
#ARTIST:BEMANI Sound Team "Sota F." feat. Starbitz;
#TITLETRANSLIT:;
#SUBTITLETRANSLIT:;
#ARTISTTRANSLIT:Sota F. feat. Starbitz;
#GENRE:;
#CREDIT:;
#BANNER:Love_2_Shuffle_banner.png;
#BACKGROUND:Love_2_Shuffle.png;
#LYRICSPATH:;
#CDTITLE:;
#MUSIC:Love 2 Shuffle.ogg;
#OFFSET:-0.420000;
#SAMPLESTART:79.360001;
#SAMPLELENGTH:14.400000;
#LASTBEATHINT:261.000000;
#SELECTABLE:YES;
#BPMS:0.000000=133.000000
;
#STOPS:
;
#BGCHANGES:;
#KEYSOUNDS:;
#ATTACKS:;

//---------------dance-single - ----------------
#NOTES:
     dance-single:
     :
     Easy:
     5:
     0.199118,0.231645,0.079195,0.079195,0.000000,176.000000,166.000000,10.000000,10.000000,0.000000,0.000000,0.199118,0.231645,0.079195,0.079195,0.000000,176.000000,166.000000,10.000000,10.000000,0.000000,0.000000:
0000
0000
0000
0000
,
0000
0000
0000
0000
,
0000
0000
0000
0000
,
0000
0000
0000
0000
,
0001
0010
0001
0000
,
1000
0010
1000
0000
,
0010
0100
0010
0000
,
2002
0000
3003
0000
,
0100
0000
0100
0000
,
0010
0000
0010
0000
,
1000
0001
1000
0001
,
0020
0000
0030
0000
,
0001
0100
0001
0000
,
1000
0100
1000
0000
,
0001
0010
0100
0000
,
1000
0010
0100
0000
,
0010
1000
0010
0000
,
1000
0100
1000
0000
,
0001
0100
0001
0000
,
0010
0100
0010
0000
,
1000
0001
0010
0000
,
0001
0100
0010
0000
,
1000
0001
0010
0000
,
0100
0100
0100
0000
,
0000
1000
0001
0000
,
1000
0001
0010
0000
,
0001
1000
0100
0000
,
0020
0000
0030
0000
,
0001
0000
0001
0010
,
0100
0000
1000
0010
,
0100
0000
0010
1000
,
0001
0000
0001
1000
,
0000
1001
0000
0010
,
0100
0010
1000
0000
,
0001
1000
0100
0000
,
1010
0000
0001
0000
,
0011
0000
1000
0000
,
1000
0000
1000
0100
,
0010
0000
0001
0000
,
0001
0000
0001
1000
,
0001
0000
0010
0000
,
0010
0000
0100
0010
,
0001
0010
0100
1000
,
2002
0000
3003
0000
,
0010
0100
0001
0000
,
1000
0100
0010
0000
,
0101
0000
1010
0000
,
0001
0010
1000
0000
,
0001
0000
0001
1000
,
0100
0010
0010
0000
,
1000
0000
1000
0001
,
0100
0000
0110
0000
,
0002
0000
0000
0013
,
0010
0000
0001
1000
,
0200
0000
1300
0001
,
1000
0010
0010
0000
,
0200
0300
0001
1000
,
0001
0000
1100
0000
,
0001
0010
0001
0000
,
1000
0010
1000
0000
,
0010
0010
0010
0110
,
1000
0000
0001
0010
,
0001
0000
1000
0010
,
1000
0000
0001
0000
,
0010
0010
0010
2000
,
3000
0000
0000
0000
;

//---------------dance-single - ----------------
#NOTES:
     dance-single:
     :
     Medium:
     8:
     0.358639,0.360336,0.158389,0.166309,0.027718,317.000000,297.000000,20.000000,21.000000,0.000000,0.000000,0.358639,0.360336,0.158389,0.166309,0.027718,317.000000,297.000000,20.000000,21.000000,0.000000,0.000000:
0000
0000
0000
0000
,
0000
0000
0000
0000
,
0000
0000
0000
0000
,
0000
0000
0000
0000
,
0001
0100
0010
0000
0010
1000
0100
0000
,
1000
0100
0010
0000
0100
0010
0001
0000
,
1000
0001
0010
0000
0001
1000
0100
0000
,
1000
0010
0100
0001
1000
0000
1001
0000
,
0002
0010
0000
0013
,
2000
0010
0000
3010
,
0020
0100
0100
0130
,
0001
0000
0001
1000
0001
0000
1010
0000
,
1000
0000
0100
0000
1000
0001
1000
0000
,
0010
0000
1000
0000
0100
0010
0001
0000
,
0010
0000
0100
0000
1000
0001
0100
0000
,
0010
0000
1000
0000
0001
0010
0200
0000
,
0300
0000
0011
0000
1000
0100
1000
0000
,
0010
0000
0100
0000
0010
1000
0100
0000
,
1000
0000
0001
0000
0010
0001
1000
0000
,
0001
0000
1001
0000
0100
0010
0010
0000
,
1000
0000
1100
0000
1000
0100
0010
0000
,
0001
0000
0101
0000
0001
1000
0100
0000
,
1000
0000
1001
0000
0001
0010
0100
0000
,
0010
0000
0001
0000
1000
0010
0200
0000
,
0300
0000
1001
0000
0001
1000
0100
0000
,
1000
0000
0010
0000
1000
0001
0010
0000
,
0001
0000
0100
0000
0010
0100
0010
0000
,
1000
0000
0010
0000
0100
0001
0010
0000
,
0001
0000
0001
0000
1000
0100
0010
0000
,
0001
0000
1000
0000
0001
1000
0100
0000
,
0010
0000
0100
0000
1000
0001
0100
0000
,
0010
0000
1000
0000
0100
1000
0002
0000
,
0003
0000
0101
0000
0010
1000
0001
0000
,
1000
0000
0100
0000
1000
0001
0100
0000
,
0010
0000
1000
0000
0001
0010
0100
0000
,
0020
0031
0001
1000
,
1001
0000
0000
0010
0100
0000
0000
0010
,
0200
0000
0000
0000
0301
0000
0000
0000
0010
0000
0000
1000
0000
0000
0100
0000
,
0100
0000
0000
0010
0100
0000
0010
0000
,
0100
0000
0000
0000
1000
0000
0000
0000
0001
0000
0000
1000
0000
0000
0010
0000
,
0010
0000
0000
0100
0010
0000
0000
0100
,
0010
0000
0000
1000
0001
0000
1001
0000
,
0001
0010
0100
0000
0010
0100
1000
0000
,
1020
0100
0130
0001
,
0001
1000
0100
0000
1000
0001
0100
0000
,
0010
0000
0000
0010
0000
0000
2002
0000
0000
0000
3003
0000
0000
0000
0100
0000
,
1000
0000
0000
0010
0001
0000
1002
0000
,
0010
0000
0000
0010
0000
0000
0010
0000
0000
0000
0000
0000
1003
0000
0000
0000
,
0001
1000
0010
0000
1000
0001
0010
0000
,
0100
0000
0000
0100
0000
0000
2002
0000
0000
0000
3003
0000
0000
0000
0010
0000
,
0001
0000
0100
1000
0001
0000
0100
0000
,
0010
0000
0000
1000
0000
0000
0201
0000
0000
0000
0000
0000
0310
0000
0000
0000
,
0002
0000
0010
0000
1003
0000
1000
0100
,
0000
0010
0000
0001
1000
0000
1001
0000
,
0100
0001
1000
0000
0001
1000
0100
0000
,
0010
0100
1000
0001
0000
0100
0100
0000
,
0010
0000
0110
0000
1000
0001
1000
0000
,
0001
0010
0100
1000
0000
0010
0010
0000
,
0200
0000
0301
1000
0200
0000
0310
0000
,
0001
0000
0000
1000
0000
0000
0020
0000
0000
0000
0100
0000
0130
0000
0000
0000
,
0001
0000
0001
0000
0001
1000
1001
0000
,
0010
0100
0001
0000
1000
0100
0010
0000
,
0001
1000
0010
0000
1000
0001
0100
0000
,
0001
0010
0001
0000
1000
0100
1000
0000
,
0010
0010
0010
0202
,
0303
0000
0000
0000
;

//---------------dance-single - ----------------
#NOTES:
     dance-single:
     :
     Hard:
     12:
     0.523817,0.512786,0.205906,0.126712,0.162349,463.000000,437.000000,26.000000,16.000000,0.000000,0.000000,0.523817,0.512786,0.205906,0.126712,0.162349,463.000000,437.000000,26.000000,16.000000,0.000000,0.000000:
0000
0000
0000
0000
,
0000
0000
0000
0000
,
0000
0000
0000
0000
,
0000
0000
0000
0000
,
0001
0000
0010
0000
0100
0000
0010
0000
0001
0000
1000
0010
0000
0100
0001
0000
,
1000
0000
0100
0000
0010
0000
0100
0000
1000
0000
0001
0100
0000
0010
1000
0000
,
0001
0000
1000
0000
0100
0000
1000
0000
0001
0000
0010
0001
0000
1000
0100
0000
,
1000
0010
0100
0001
0010
0100
1100
0000
,
0001
0000
0010
0000
0001
0000
1000
0010
0000
0000
0010
0000
0100
0000
0000
0000
,
0001
0000
1000
0000
0100
0000
0010
0100
0000
0000
0100
0000
1000
0000
0000
0000
,
0001
0010
1000
0000
1000
0010
0001
0000
,
1000
0000
0010
0000
0100
0000
0001
0010
0001
0000
1000
0000
0020
0000
0000
0000
,
0130
0000
0001
0000
0010
0000
0001
1000
0000
0000
0100
0000
1000
0000
0010
0000
,
0100
0000
1000
0000
0100
0000
0001
0010
0000
0000
0001
0000
0100
0000
0010
0000
,
1000
0000
0001
0000
0010
0000
0100
1000
0000
0000
1000
0000
0010
0000
0100
0000
,
0001
0000
1000
0000
0100
0000
0010
0001
0000
0000
0001
0000
1000
0000
1000
0000
,
0000
0000
0000
0000
0110
0000
0000
0000
0001
0000
1000
0100
0000
0000
0010
0000
,
0100
0000
1000
0000
0001
0000
0100
0010
0000
0000
0010
0000
0100
0000
0001
0000
,
1000
0000
0100
0000
0010
0000
0001
1000
0000
0000
0001
0000
0010
0000
0100
0000
,
1000
0000
0010
0000
0100
0000
0001
1000
0000
0000
0001
0000
0010
0000
0010
0000
,
0100
1000
0100
0001
0100
1000
0001
0100
,
0010
1000
0010
0001
0010
1000
0001
0100
,
0001
0010
1000
0001
0100
1000
0010
0100
,
0010
0000
1000
0000
0100
0000
0001
0100
0000
0000
1000
0000
0010
0000
0010
0000
,
0000
0000
0000
0000
1001
0000
0000
0000
0100
0000
0010
1000
0000
0000
0001
0000
,
0010
1000
0010
0001
1000
0100
0001
0100
,
1000
0001
0100
0010
1000
1000
1001
0000
,
0001
0010
0100
1000
0010
0100
0101
0000
,
0001
0000
0010
0000
0010
0000
0100
0000
0010
0000
0001
1000
0000
0000
0010
0000
,
0100
0010
0001
0010
0100
0010
1000
0100
,
0010
0000
0100
1000
0000
0000
0001
0000
0100
0000
0010
0000
0100
0000
0001
0000
,
1000
0100
0001
1000
0010
0001
1000
0001
,
0000
0000
0000
0000
0110
0000
0000
0000
0001
0000
0100
0010
0000
0000
0010
0000
,
1000
0100
0001
0100
1000
0010
0001
0010
,
1000
0000
0001
0010
0000
0000
0001
0000
1000
0000
0100
0000
0010
0000
0001
0000
,
0100
0000
0010
0000
0100
0000
0001
1000
0000
0000
1000
0000
0001
0000
0010
0100
,
0010
0000
0000
0010
0000
0000
0001
0000
1001
0000
0000
1000
0000
0000
0010
0000
,
0110
0000
0000
0100
0000
0000
0001
0000
0020
0000
0000
1000
0000
0000
0130
0000
,
0110
0000
0000
0001
0000
0000
1000
0000
0010
0000
0100
0000
1000
0000
0100
0000
,
0001
0000
1000
0000
0100
0000
0010
0000
0001
0000
0000
0110
0000
0000
1000
0000
,
0010
0100
0010
1000
0001
0010
0100
0010
,
0001
1000
0100
0001
1000
0010
0001
1000
,
0001
0010
0001
0000
1000
0010
1000
0000
0001
0000
0100
0000
0010
0000
1000
0000
,
2001
0000
3010
0000
0011
0000
0010
0100
,
1000
0100
0001
0100
1000
0010
0100
0001
,
0010
0000
0000
2100
0000
0000
0001
0000
0000
0000
0010
0000
3010
0000
0100
0000
,
0102
0000
0013
0100
2100
0000
3001
0200
,
1000
0000
0000
0010
0000
0000
0001
0000
0000
0000
0010
0000
0010
0000
0000
0000
,
0301
1000
0100
0001
1000
0010
0001
1000
,
0010
0000
0000
0102
0000
0000
0010
0000
0000
0000
1000
0000
1003
0000
0010
0000
,
0120
0000
1030
0100
0120
0000
0031
0100
,
1000
0000
0000
0100
0000
0000
0012
0000
0000
0000
1000
0000
1003
0000
0000
0000
,
0100
0010
1000
0001
0010
0100
1000
0010
,
0100
0001
0000
1000
1010
0000
0101
0000
,
0010
1000
0100
0010
0001
0100
0010
0001
,
0010
1000
0100
0002
0000
0100
0103
0000
,
1100
0000
0101
0000
0010
1000
0001
0010
,
0100
1000
0001
0200
0000
1000
1300
0000
,
0102
0000
1003
0010
2010
0000
3001
0100
,
0010
0100
1000
0002
0000
0010
0010
0000
,
1003
0000
0000
0000
1000
0000
0000
0000
1000
0000
0001
0010
0001
0000
0000
0000
,
0100
0000
0001
0000
0010
0000
0001
1000
0000
0000
0010
0000
0010
0000
0000
0000
,
0100
0000
0001
0000
1000
0000
0100
0010
0000
0000
0010
0000
0100
0000
1000
0000
,
0001
0100
1000
0000
1000
0100
0001
0000
,
1000
0000
0001
0000
0010
0000
0001
1000
0001
0000
0010
0000
0110
0000
0000
0000
;

//---------------dance-double - ----------------
#NOTES:
     dance-double:
     :
     Hard:
     12:
     0.531736,0.538425,0.221745,0.110873,0.170269,470.000000,442.000000,28.000000,14.000000,0.000000,0.000000,0.531736,0.538425,0.221745,0.110873,0.170269,470.000000,442.000000,28.000000,14.000000,0.000000,0.000000:
// measure 0
00000000
00000000
00000000
00000000
,  // measure 1
00000000
00000000
00000000
00000000
,  // measure 2
00000000
00000000
00000000
00000000
,  // measure 3
00000000
00000000
00000000
00000000
,  // measure 4
00000001
00000000
00000010
00000000
00000001
00000000
00001000
00000000
00000100
00000000
00010000
00001000
00000000
00010000
00000010
00000000
,  // measure 5
00001000
00000000
00000100
00000000
00100000
00000000
00010000
00000000
10000000
00000000
00100000
01000000
00000000
00010000
01000000
00000000
,  // measure 6
00100000
00000000
10000000
00000000
01000000
00000000
00100000
00000000
00010000
00000000
01000000
00001000
00000000
00100000
00001000
00000000
,  // measure 7
00010000
00000000
00000010
00000000
00000100
00000000
00000001
00000010
00000000
00000100
00010000
00000000
00011000
00000000
00000000
00000000
,  // measure 8
00001000
00000000
00010000
00000000
00000010
00000000
00000100
00000001
00000000
00000000
00000001
00000000
00000010
00000000
00000000
00000000
,  // measure 9
00001000
00000000
00010000
00000000
01000000
00000000
10000000
00100000
00000000
00000000
00100000
00000000
01000000
00000000
00100000
00000000
,  // measure 10
10000000
00100000
00010000
00000000
00001000
00000010
00000001
00000000
,  // measure 11
00000100
00000000
00000010
00000000
00010000
00000000
00000100
00001000
00000100
00000000
00010000
00000000
00011000
00000000
00000000
00000000
,  // measure 12
00001000
00000000
00100000
00000000
00010000
00000000
10000000
01000000
00000000
00000000
00100000
00000000
00010000
00000000
01000000
00000000
,  // measure 13
00001000
00000000
00100000
00000000
00001000
00000000
00010000
00000010
00000000
00000000
00000100
00000000
00000001
00000000
00000010
00000000
,  // measure 14
00000100
00000000
00010000
00000000
00000010
00000000
00001000
00000100
00000000
00000000
00010000
00000000
00001000
00000000
00100000
00000000
,  // measure 15
00010000
00000000
01000000
00000000
00100000
00000000
10000000
01000000
00000000
00000000
00100000
00000000
00001000
00000000
00001000
00000000
,  // measure 16
00000000
00000000
00000000
00000000
00010010
00000000
00000000
00000000
00000001
00000000
00000010
00000100
00000000
00000000
00010000
00000000
,  // measure 17
00001000
00000000
01000000
00000000
00010000
00000000
10000000
00100000
00000000
00000000
01000000
00000000
00001000
00000000
00010000
00000000
,  // measure 18
00000100
00000000
00010000
00000000
00000010
00000000
00000100
00000001
00000000
00000000
00000010
00000000
00000100
00000000
00001000
00000000
,  // measure 19
00000010
00000000
00010000
00000000
00001000
00000000
00100000
00010000
00000000
00000000
10000000
00000000
00100000
00000000
00100000
00000000
,  // measure 20
01000000
00010000
01000000
10000000
01000000
00100000
00010000
00001000
,  // measure 21
00010000
00000010
00010000
00000100
00001000
00000100
00000001
00000100
,  // measure 22
00001000
00000000
00000010
00000000
00010000
00000000
00000100
00010000
00000000
00000000
00001000
00000000
00100000
00000000
00010000
00000000
,  // measure 23
10000000
00000000
01000000
00000000
00010000
00000000
01000000
10000000
00000000
00000000
00100000
00000000
00010000
00000000
00010000
00000000
,  // measure 24
00000000
00000000
00000000
00000000
00001010
00000000
00000000
00000000
00000001
00000000
00001000
00000100
00000000
00000000
00010000
00000000
,  // measure 25
00000010
00001000
00000100
00100000
00010000
10000000
00001000
00100000
,  // measure 26
01000000
00010000
00001000
00010000
01000000
01000000
11000000
00000000
,  // measure 27
00100000
00000100
00001000
00000010
00000100
00000001
00000101
00000000
,  // measure 28
00000010
00000000
00010000
00000000
00000100
00000000
00001000
00000000
00000001
00000000
00000010
00000100
00000000
00000000
00010000
00000000
,  // measure 29
00001000
00100000
01000000
10000000
00100000
01000000
00001000
00010000
,  // measure 30
00000100
00000000
00100000
00010000
00000000
00000000
10000000
00000000
00100000
00000000
01000000
00000000
00001000
00000000
00010000
00000000
,  // measure 31
00100000
01000000
00001000
00010000
00000010
00000100
00000001
00000001
,  // measure 32
00000000
00000000
00000000
00000000
00010100
00000000
00000000
00000000
00001000
00000000
01000000
00010000
00000000
00000000
00100000
00000000
,  // measure 33
00010000
10000000
01000000
00010000
00001000
00100000
00000100
00001000
,  // measure 34
00000010
00000000
00010000
00000100
00000000
00000000
00001000
00000000
00000001
00000000
00000010
00000000
00001000
00000000
00010000
00000100
,  // measure 35
00010000
00000000
00001000
00000000
00100000
00000000
00001000
00010000
00000010
00000000
00001000
00000000
00000100
00000000
00100000
00010000
,  // measure 36
01000000
00000000
00000000
01010000
00000000
00000000
00100000
00000000
20100000
00000000
00000000
00000000
30010000
00000000
00100000
00000000
,  // measure 37
00102000
00000000
00000000
00000000
00013000
00000000
00000020
00000000
00010000
00000000
00000000
00000100
00000000
00000000
00010030
00000000
,  // measure 38
00000100
00000000
00000000
00011000
00000000
00000000
00000100
00000000
00001000
00000000
00000001
00000000
00000010
00000000
00001000
00000000
,  // measure 39
00010000
00000000
00000010
00000000
00001000
00000000
00000100
00000000
00100000
00000000
00000000
01010000
00000000
00000000
00001000
00000000
,  // measure 40
00100000
00010000
10000000
00100000
10000000
00010000
00100000
00000100
,  // measure 41
00001000
00000001
00000010
00000001
00001000
00000100
00010000
00001000
,  // measure 42
00100000
00010000
00100000
00000000
01000000
10000000
01000000
00000000
00100000
00000000
00001000
00000000
00000100
00000000
00000001
00000000
,  // measure 43
00000010
00011000
10010000
00010010
,  // measure 44
00001000
00000100
00000001
00000100
00001000
00000010
00010000
00001000
,  // measure 45
00000100
00000000
00000000
00000010
00000000
00000000
00021000
00000000
00000000
00000000
00000100
00000000
00030100
00000000
00001000
00000000
,  // measure 46
00001200
00000000
00010300
00001000
00021000
00000000
00130000
02000000
,  // measure 47
00100000
00000000
00000000
00001000
00000000
00000000
00100000
00000000
00000000
00000000
10000000
00000000
13000000
00000000
00000000
00000000
,  // measure 48
01000000
00010000
01000000
00100000
10000000
01000000
00010000
00001000
,  // measure 49
00000010
00000000
00000000
00001100
00000000
00000000
00000002
00000000
00000000
00000000
00001000
00000000
00001003
00000000
00000010
00000000
,  // measure 50
00020010
00000000
00031000
00000010
00000012
00000000
00001003
00000100
,  // measure 51
00010000
00000000
00000000
01000000
00000000
00000000
21000000
00000000
00000000
00000000
00100000
00000000
30100000
00000000
00000000
00000000
,  // measure 52
10000000
01000000
00010000
01000000
00100000
00010000
10000000
00010000
,  // measure 53
01000000
00001000
00010000
00000100
00000010
00000000
00000101
00000000
,  // measure 54
00000010
00010000
00000100
00001000
00000001
00000010
00001000
00010000
,  // measure 55
01000000
10000000
00100000
00020000
00000000
00100000
00130000
00000000
,  // measure 56
00011000
00000000
01001000
00000000
00100000
00010000
10000000
00010000
,  // measure 57
00100000
00001000
00010000
00000020
00000000
00000100
00000130
00000000
,  // measure 58
00000001
00001000
00000100
00000010
00000001
00010000
00000100
00001000
,  // measure 59
00000010
00010000
00001000
02000000
00000000
00100000
03100000
00000000
,  // measure 60
10010000
00000000
00000000
00000000
00011000
00000000
00000000
00000000
00000001
00000000
00000010
00000100
00001000
00000000
00000000
00000000
,  // measure 61
00000010
00000000
00010000
00000000
00001000
00000000
00100000
00010000
00000000
00000000
00010000
00000000
00001000
00000000
00000000
00000000
,  // measure 62
01000000
00000000
10000000
00000000
00100000
00000000
01000000
00001000
00000000
00000000
00001000
00000000
00010000
00000000
00000000
00000000
,  // measure 63
00000001
00000100
00001000
00000000
00010000
01000000
10000000
00000000
,  // measure 64
00100000
00000000
10000000
00000000
00010000
00000000
00100000
00001000
00100000
00000000
00010000
00000000
00011000
00000000
00000000
00000000
;
