#TITLE:Lisa-RICCIA;
#SUBTITLE:;
#ARTIST:DJ YOSHITAKA;
#TITLETRANSLIT:;
#SUBTITLETRANSLIT:;
#ARTISTTRANSLIT:;
#GENRE:;
#CREDIT:;
#BANNER:Lisa-RICCIA_banner.png;
#BACKGROUND:Lisa-RICCIA.png;
#LYRICSPATH:;
#CDTITLE:;
#MUSIC:Lisa-RICCIA.ogg;
#OFFSET:-0.609000;
#SAMPLESTART:29.851002;
#SAMPLELENGTH:15.000000;
#LASTBEATHINT:445.000092;
#SELECTABLE:YES;
#BPMS:0.000000=205.000000
,99.000000=410.000000
,101.000000=205.000000
,229.000000=410.000000
,230.000000=205.000000
;
#STOPS:229.000000=0.146000,
330.500000=0.293000
;
#BGCHANGES:;
#KEYSOUNDS:;
#ATTACKS:;

//---------------dance-single - ----------------
#NOTES:
     dance-single:
     :
     Easy:
     9:
     0.374473,0.461997,0.136369,0.189401,0.000000,346.000000,328.000000,18.000000,25.000000,0.000000,0.000000,0.374473,0.461997,0.136369,0.189401,0.000000,346.000000,328.000000,18.000000,25.000000,0.000000,0.000000:
0000
0000
0000
0000
,
0001
0000
0000
0100
0000
0100
0000
0010
,
0000
0010
1000
0001
,
1000
0000
0000
0100
0000
0100
0000
0010
,
0000
0010
0001
1000
,
0001
0010
0100
1000
,
1001
0000
0000
0000
0010
0000
0000
0220
,
0000
0000
0000
0000
0000
0030
0000
0302
,
0000
0000
1003
0000
,
1100
0000
0000
0000
,
0000
0001
0000
0000
0010
0000
0001
0000
,
1001
0220
0000
0330
,
0000
1000
0000
0010
1000
0000
0001
0000
,
0100
0110
0000
1000
,
0000
0101
0000
0011
,
1000
0100
0010
0001
,
0000
1000
0000
0000
0010
0000
0010
0000
,
1000
0100
1000
0001
,
0100
0010
0100
0000
,
0001
0010
0100
1000
,
0010
0100
0001
0000
,
1000
0100
0010
0001
,
0100
0001
1000
0000
,
1000
0000
0000
0001
0000
0000
1000
0000
,
0200
0000
0310
0020
,
0000
0000
0031
0000
0000
0001
0000
0010
,
0000
0001
0000
0000
1000
0000
0010
0000
,
1000
0000
0001
0000
0000
1000
0000
0100
,
0000
1000
0000
0000
0010
0000
0100
0000
,
0001
0000
1000
0000
0000
0010
0000
0010
,
0000
0100
0000
0000
0001
0000
1000
0000
,
0000
0001
0000
0000
1000
0000
0100
0000
,
0010
0001
1000
0100
,
0001
0000
0100
0000
0000
1000
0000
0001
,
0000
1001
0000
0000
0010
0000
0100
0000
,
0001
0000
0010
0000
0000
0001
0000
0100
,
0000
0010
0000
0000
1000
0000
0100
0000
,
1000
0001
0010
0100
,
0000
1000
0000
0000
0001
0000
0010
0000
,
0000
0001
0000
0000
1000
0000
0100
0000
,
0000
1000
0000
0000
0010
0000
0000
0000
,
0010
0000
0100
0000
0000
0001
0000
1000
,
0000
0001
0000
0000
1000
0000
0010
0000
,
1000
0000
0001
0000
0000
0010
0000
0001
,
0000
0010
0000
0000
0100
0000
1000
0000
,
0001
0000
0100
0000
0000
0010
0000
0100
,
0000
0010
0000
0000
1000
0000
0001
0000
,
1000
0000
0100
0000
0000
1001
0000
0000
,
0010
0002
0000
0000
0000
0000
0000
0000
,
0000
0003
1000
0000
0000
0000
0000
0000
,
0000
0000
0000
1000
0000
0000
0010
0000
,
0110
0001
0002
0000
,
0003
0000
0000
1000
0000
0001
1000
0000
,
0001
0020
0001
0000
,
0031
2000
0010
0000
,
3010
0100
0001
1000
,
0100
2000
0000
0001
,
3001
0000
0000
0000
0020
0030
0000
0000
0010
0000
0000
0000
0001
0000
0000
0000
,
1000
0100
1000
0010
,
0000
1000
0001
0010
,
0100
0010
0001
1000
,
0000
0010
0100
0001
,
1000
0100
0010
0001
,
0000
1000
0001
1000
,
0001
0000
0220
0000
0000
0000
0000
0330
,
0000
0002
0000
0000
,
0000
0013
0000
0000
0000
0000
0100
0000
,
0000
2000
0000
0000
,
0000
3010
0000
0000
0000
0000
0100
0000
,
0000
0001
1000
0000
,
1000
0001
0010
0000
,
0010
0001
0100
0000
,
0100
0010
1000
0200
,
0300
1000
0010
1000
,
0000
0001
0000
0000
0001
0000
0020
0000
,
0000
0031
0100
0001
,
0000
1000
0000
0000
0010
0000
1000
0000
,
0001
1000
0100
0010
,
0001
0010
0100
0001
,
0000
0220
0000
0000
0000
0000
0000
0000
,
0000
0330
0000
0000
0000
0000
0000
0000
,
0000
0001
0000
0000
,
0000
1000
0000
0000
,
0010
0000
0000
0100
0000
0100
0000
0001
,
0000
0010
0001
1000
,
0100
0000
0000
1000
0000
1000
0000
0010
,
0000
0100
0001
1000
,
0001
0000
0010
0000
0001
0000
0000
1000
,
0000
0000
0010
0000
0100
0000
0000
0001
,
0000
0001
1000
0100
,
1000
0001
0010
1000
,
0010
0000
0000
0001
0000
0001
0000
1001
,
0000
0110
1000
0100
,
1000
0000
0000
0010
0000
0010
0000
0110
,
0000
1001
0100
1000
,
0001
0000
0010
0000
0100
0000
0000
1000
,
0000
0000
0010
0000
0100
0000
0000
0001
,
0000
1000
0001
1000
,
0100
0010
0200
0000
,
1300
0000
0000
0001
0000
0010
0000
0001
,
0000
1000
0100
1000
,
0001
0000
0000
0100
0000
0001
0000
0100
,
0000
0010
1000
0010
,
1000
0100
0010
0000
,
0100
0010
0001
0000
,
1000
0000
0000
0001
0000
1000
0000
2200
,
0000
0000
3300
0000
,
0001
0000
0000
0100
0000
0100
0000
0001
,
0000
0001
0000
0100
0000
0010
0000
2000
,
0000
0000
0000
0000
,
0000
0000
0000
0000
0000
0000
0000
3000
;

//---------------dance-single - ----------------
#NOTES:
     dance-single:
     :
     Medium:
     14:
     0.711066,0.755995,0.446987,0.219705,0.045456,657.000000,598.000000,59.000000,29.000000,0.000000,0.000000,0.711066,0.755995,0.446987,0.219705,0.045456,657.000000,598.000000,59.000000,29.000000,0.000000,0.000000:
0000
0000
0000
0000
,
1001
0000
0010
0100
0000
0101
0000
1010
,
0000
0000
1000
0000
0100
0000
0010
0000
0100
0000
0000
1000
0000
0000
0001
0000
,
0100
0010
0100
0001
0000
0010
0100
2000
,
0000
0000
3001
0000
0100
0000
0010
0000
1000
0000
0000
0010
0000
0000
0100
0000
,
0001
0010
0100
1000
0010
0100
0001
0010
,
0000
0010
0100
1000
0001
0100
0000
0220
,
0000
0000
0000
0000
0000
0330
0000
2002
,
0000
3003
0110
0000
,
1010
0000
0000
0000
,
0000
0011
0000
0000
1001
0000
1100
0000
,
0001
0010
0011
0000
1000
0000
0010
0100
,
0000
0000
0100
0000
0010
0000
0000
0000
1000
0000
0000
0001
0000
0000
0010
0000
,
0001
0100
1000
0000
1000
0100
0001
1000
,
0000
0100
1000
0000
1000
0100
0001
0000
,
0001
0100
1000
0010
0000
0010
0100
0001
,
0000
0001
0010
0100
1000
0000
1001
0000
,
0010
0100
0001
1000
0100
0010
0001
0100
,
0000
0100
0010
1000
0100
0010
0002
0000
,
0013
0100
1000
0010
1000
0100
0010
0100
,
0000
0100
0001
0100
1000
0010
0100
0001
,
0010
0001
1000
0010
0000
0010
1000
0001
,
0000
0001
0010
0100
1000
0000
0101
0000
,
0110
0000
0000
1001
0000
0000
0010
0001
,
0000
0001
1000
0010
0100
0010
2000
0000
,
0000
0000
3001
0100
0010
0100
0000
0101
,
0000
0000
1010
0000
0000
0000
0010
0000
1000
0000
0100
0000
0010
0000
0000
0100
,
0000
1000
0001
0100
0010
1000
0000
1000
,
0001
0000
0010
0000
0000
0000
0100
0000
0010
0000
0001
0000
1000
0000
0000
0110
,
0000
1000
0001
1000
0010
0100
0000
0100
,
0010
1000
0000
0001
1000
0100
1000
0010
,
0000
0110
0000
0100
0001
0100
0010
1000
,
0000
0010
1000
0100
0020
0000
0031
0100
,
1000
0100
0001
1000
0001
0010
0000
1100
,
0000
0000
0101
0000
0000
0000
0010
0000
0100
0000
0001
0000
1000
0000
0000
0110
,
0000
0001
0010
0100
1000
0010
0000
0010
,
1000
0000
0001
0000
0000
0000
0010
0000
0100
0000
1000
0000
0010
0000
0000
0101
,
0000
0010
1000
0100
0010
0100
0000
0100
,
1000
0001
0000
0010
0100
0001
0100
1000
,
0000
1010
0000
0010
0100
0001
0100
0010
,
1000
0001
0000
1000
0010
0001
0010
1000
,
0001
0010
0100
1000
0010
0110
0000
0011
,
0000
1000
0100
1000
0010
1000
0001
0010
,
0100
1000
0001
1000
0010
1010
0000
0101
,
0000
0001
0010
0001
1000
0001
0100
0010
,
0100
0001
0000
1000
0100
0001
0100
1000
,
0010
0100
0001
0010
1000
0010
0001
1000
,
0010
0000
0100
0001
0000
0011
0000
1000
,
0001
2002
0000
0000
0000
0000
0000
0000
,
3003
0110
0000
0000
,
0000
0000
0000
0011
0000
0000
0101
0000
,
1100
0000
0010
0100
0001
1000
0000
0000
,
0010
0000
0100
0000
0000
0000
0010
0000
1000
0000
0001
0000
0010
0000
0000
1100
,
0000
0001
0100
0010
0100
0001
0000
0001
,
0010
0100
0000
0100
1000
0010
1000
0001
,
0020
0000
0031
1000
0010
1000
0000
0010
,
0100
0001
0000
0001
0010
0100
1000
0100
,
1000
0000
0001
0000
0200
0300
0000
0000
0010
0000
1000
0000
0010
0000
0000
0000
,
0100
0001
0000
0001
0100
0010
1000
0100
,
0020
0000
0130
1000
0001
0000
0100
0010
,
1000
0001
0000
0001
1000
0100
0010
0001
,
0200
0310
2010
0000
,
3100
0012
1000
0000
,
0103
0000
0010
0100
0001
1000
0000
1000
,
0100
0010
0000
0010
0100
1000
0001
0100
,
0110
0000
0001
0000
0000
0010
0000
0010
,
0000
0001
0000
0000
0001
0000
1000
0000
,
0000
0000
0010
0000
0000
0100
0000
0100
,
0000
0010
0000
0000
0010
0000
1000
0000
,
0000
0000
1100
0000
0000
0000
0000
0100
,
0000
0001
0000
0000
0001
0000
0001
0000
,
0000
0010
0000
0000
0010
0000
0001
0000
,
0000
0100
1000
0010
,
0001
0000
1000
0010
1000
0001
0000
0001
,
0000
0010
0000
0010
0100
1000
0001
0000
,
0110
0000
0001
1000
0010
0100
0000
0001
,
0000
1001
0000
1000
0100
0000
0010
0001
,
1000
0000
0010
0100
0001
1000
0100
0010
,
0100
1000
0001
0100
0010
1000
0100
0100
,
0000
0022
0000
0000
0000
0000
0000
0000
,
0033
2200
0000
0000
,
3300
0000
0110
0000
0001
0000
1000
0010
,
0100
0001
0000
0001
0020
0030
0000
0000
,
0100
1000
0100
0010
0000
0010
0100
1000
,
0000
0000
0001
0000
0100
0000
0010
0000
0100
0000
0000
1001
0000
0000
0100
0000
,
0010
1000
0001
0010
0000
0010
0001
1000
,
0000
0000
1000
0000
0010
0000
0100
0000
0001
0000
0000
0110
0000
0000
1000
0000
,
0010
0100
0010
1000
0000
1000
0001
0010
,
0000
0010
0100
1000
0010
0010
0000
1001
,
0000
1000
0010
0100
1000
0001
0010
0100
,
0000
0100
0010
0001
1000
0100
0001
0100
,
1000
0010
0100
0001
0000
0011
0000
1100
,
0000
0000
1000
0000
0010
0000
0100
0000
0001
0000
0000
0101
0000
0000
0010
0000
,
1000
0100
1000
0010
0000
1000
0100
0001
,
0000
0000
0001
0000
0100
0000
1000
0000
0010
0000
0000
0110
0000
0000
1000
0000
,
0001
0100
0010
0100
0001
0010
0100
1000
,
0000
1000
0010
0100
0001
0001
0000
1010
,
0000
0100
0010
1000
0001
0010
0100
2000
,
0000
0010
0020
0000
3030
0000
0100
0001
,
1000
0100
0010
0001
0000
0101
0000
0100
,
0010
1000
0001
1000
0010
0100
0001
0010
,
0100
1000
0001
0011
0000
1001
0000
1100
,
0000
0010
0100
0001
1000
0100
0001
0100
,
1000
0010
0100
0001
0010
1000
0001
0100
,
0000
0100
1000
0010
0001
1000
0100
0001
,
0100
0010
0000
1001
0000
0100
0010
2002
,
0000
0000
0000
3003
,
0210
0000
0000
0010
0000
0010
0300
0020
,
0000
1000
0000
0001
0030
1000
0020
0002
,
0000
0000
0000
0000
,
0000
0000
0000
0000
0000
0000
0000
0033
;

//---------------dance-single - ----------------
#NOTES:
     dance-single:
     :
     Hard:
     16:
     0.888562,0.965993,0.636388,0.234857,0.238645,821.000000,737.000000,84.000000,31.000000,0.000000,0.000000,0.888562,0.965993,0.636388,0.234857,0.238645,821.000000,737.000000,84.000000,31.000000,0.000000,0.000000:
// measure 0
0000
0000
0000
0000
,  // measure 1
0001
1000
0010
1000
0001
0010
0100
1000
,  // measure 2
0000
0000
1000
0000
0010
0000
0100
0000
0001
0000
1000
0100
0000
0000
1000
0000
,  // measure 3
0010
0100
1000
0100
0001
1000
0100
0001
,  // measure 4
0100
0000
1000
0000
0010
0000
0100
0000
0001
0000
1000
0001
0000
0000
0010
0000
,  // measure 5
0001
0000
0100
0000
0010
0000
1000
0000
0010
0100
0001
1000
0100
0000
1000
0000
,  // measure 6
0000
0000
1010
0000
0010
0000
0100
0000
0001
0000
0100
0001
1000
0000
2002
0000
,  // measure 7
0000
0000
0000
0000
3000
0000
0000
0020
,  // measure 8
0000
0003
0200
0030
,  // measure 9
1300
0010
0001
0010
0100
0001
0010
0001
,  // measure 10
0000
1000
0010
1000
1001
0001
0110
0100
,  // measure 11
0010
1000
0100
0001
1000
0010
0100
1000
,  // measure 12
0010
0100
0010
0000
1000
0000
0001
0000
0011
0000
0000
1100
0000
0000
0110
0000
,  // measure 13
0001
0000
1000
0000
0010
0000
1000
0000
0001
0000
0010
0100
0010
0000
0001
0000
,  // measure 14
0000
0000
0001
0000
1000
0000
0010
0000
1000
0000
0100
1000
0010
0000
0100
0000
,  // measure 15
0101
0000
1000
1010
0000
0001
0010
0110
,  // measure 16
0000
0000
0011
0000
1000
0000
0010
0000
0100
0000
0100
0001
0100
0000
0100
0000
,  // measure 17
0010
0000
1000
0001
1000
0000
0001
0000
0010
0000
0100
0000
0010
0000
0001
0000
,  // measure 18
1000
0000
0001
0000
0100
0000
0010
0000
1000
0000
0001
0010
0001
0000
0100
0000
,  // measure 19
0010
0000
1000
0001
1000
0000
0010
0000
0100
0000
0001
0000
1000
0000
0100
0000
,  // measure 20
0010
0000
0100
1000
0001
0000
1000
0000
0010
0000
0010
0100
0010
0000
0010
0000
,  // measure 21
1000
0100
0001
0100
0000
0100
1000
0001
,  // measure 22
0000
0001
0010
1000
0010
0001
1001
0000
,  // measure 23
1010
0000
0000
0011
0000
0000
0100
0110
,  // measure 24
0000
0000
1001
0000
0000
0000
0010
0000
0100
0000
0001
1000
0002
0000
0000
0000
,  // measure 25
0000
0000
1003
0010
0100
0001
0000
1010
,  // measure 26
0000
0000
0101
0000
0000
0000
0001
0010
0001
0000
1000
0000
0010
0000
0100
0001
,  // measure 27
0000
0100
0010
1000
0100
0001
0010
1000
,  // measure 28
0001
0000
1001
0000
0000
0000
0010
0000
0100
0000
0001
0000
1000
0000
0010
0100
,  // measure 29
0000
0001
0010
0100
0010
0001
1000
1100
,  // measure 30
0000
0101
0000
0010
0100
0001
0010
0010
,  // measure 31
0000
0000
1010
0000
0000
0000
0100
0010
0100
0000
0100
0000
0001
0000
1000
0000
,  // measure 32
0010
1010
0000
1000
0001
0010
1000
0100
,  // measure 33
0010
0000
0100
0000
1000
0000
0001
0010
0100
0000
0010
0000
0001
0000
1000
0000
,  // measure 34
0010
0000
0110
0000
0000
0000
1000
0001
0100
0000
0010
0000
1000
0000
0001
0010
,  // measure 35
0000
0100
0010
0001
0100
0010
1000
1100
,  // measure 36
0000
0000
0101
0000
0001
0000
0010
0000
0100
0000
0010
0000
0001
0000
1000
0100
,  // measure 37
0000
0000
0010
0000
0100
0000
1000
0000
0010
0000
0100
0000
0001
0000
1000
0001
,  // measure 38
0100
0000
0010
0000
0000
0000
0010
0000
1000
0000
0001
0000
1000
0000
0001
0100
,  // measure 39
0010
0020
0000
1030
0100
0001
1000
0010
,  // measure 40
0001
1001
1000
0020
0200
0000
0000
0330
,  // measure 41
0010
1000
0001
0010
0001
1001
0100
0110
,  // measure 42
0010
1010
1000
0100
1000
0010
0100
0001
,  // measure 43
0010
0001
0011
0010
0001
1001
1000
1100
,  // measure 44
0000
0011
0010
0001
1000
0010
0100
1000
,  // measure 45
0001
0100
0010
1000
0100
1000
0100
0001
,  // measure 46
0100
1000
0010
1000
0010
0001
0010
0100
,  // measure 47
0101
0000
0000
0000
1000
0000
0001
0010
0100
0000
0200
0000
0000
0000
0310
0000
,  // measure 48
0001
2002
0000
0000
0000
0000
3003
0000
,  // measure 49
0110
1001
0010
0000
,  // measure 50
0010
0100
0000
0100
0010
0000
1100
0000
,  // measure 51
0101
0000
0010
1000
0100
0001
0100
1000
,  // measure 52
0010
0000
1000
0000
0000
0000
0001
0000
0010
0000
0001
0000
1100
0000
0000
0101
,  // measure 53
0000
0000
0110
0000
0010
0000
1000
0100
1000
0000
0001
0000
0010
0000
0001
0100
,  // measure 54
0001
0000
1000
0000
0000
0000
1000
0000
0010
0000
0100
0000
0001
0000
0001
1000
,  // measure 55
0001
0001
0100
0010
0010
1100
0000
0100
,  // measure 56
0001
0011
0000
1001
0000
0010
0100
0001
,  // measure 57
1000
0001
0010
0100
2000
3000
0000
0000
0001
0000
1000
0000
0010
0000
1000
0010
,  // measure 58
0100
0010
0000
0010
1000
0001
1000
0100
,  // measure 59
0001
0000
0100
0000
1000
0000
0001
0100
0001
0000
1000
0000
0010
0000
0100
0001
,  // measure 60
1000
0000
0001
0000
0010
0000
0001
0000
1000
0000
0100
0000
0010
0000
0010
0100
,  // measure 61
0010
0010
0010
0000
0011
0000
0000
0000
,  // measure 62
1010
0000
1100
0000
,  // measure 63
0101
0100
0110
0000
0000
1010
0000
0000
,  // measure 64
0001
0011
0000
1100
0000
0000
0010
0100
,  // measure 65
0101
0000
1020
0000
0100
0100
0000
0001
,  // measure 66
0000
0000
0001
0000
0000
0000
0100
0000
0100
0000
0000
0000
1000
0000
0000
0100
,  // measure 67
0000
1000
2030
0000
0100
0100
0000
0001
,  // measure 68
0000
0000
0010
0000
0000
0000
0010
0000
3020
0000
0100
0000
0100
0000
0000
1000
,  // measure 69
0000
0130
0200
0000
0001
0001
0000
0001
,  // measure 70
0000
0010
0000
1000
0001
1300
0001
1000
,  // measure 71
0000
0012
0000
0100
0100
0100
0100
0100
,  // measure 72
0000
0010
0000
0010
1003
0000
1000
0001
,  // measure 73
0010
0100
1000
0010
1000
0001
0010
0100
,  // measure 74
0010
0000
0001
0000
0000
0000
1001
0000
1000
0000
0010
0000
0100
0000
0001
0010
,  // measure 75
0000
0001
1000
0100
0001
0100
1000
0010
,  // measure 76
0100
0000
0001
0000
1000
0000
0001
0000
0010
0000
0001
0000
1000
0000
0010
1000
,  // measure 77
0000
0000
0100
0000
1000
0001
1000
0001
1000
0001
1000
0001
1000
0001
1000
0001
,  // measure 78
1000
0010
0000
0010
0100
0010
1000
1000
,  // measure 79
0000
0202
0000
0000
0000
0003
0000
0000
,  // measure 80
0000
0020
0000
0000
0000
0000
0000
0000
,  // measure 81
0330
0000
1010
0000
0100
1000
0010
0001
,  // measure 82
0010
0000
1000
0000
0000
0000
0200
0000
0002
0000
0000
0303
0000
0000
0000
0000
,  // measure 83
1000
0000
0010
0100
0010
0000
1000
0000
0000
0000
0001
0000
0010
0000
0011
0000
,  // measure 84
0000
0000
1000
0001
1000
0000
0100
0000
0010
0000
0100
1000
0000
0000
0001
0000
,  // measure 85
0100
0000
0010
0100
0001
0000
0100
0000
0010
0000
1000
0000
0010
0000
0110
0000
,  // measure 86
0000
0000
0001
0000
0010
0000
0100
0000
1000
0000
0000
0101
0000
0000
1000
0000
,  // measure 87
0010
0000
1000
0100
0010
0000
0001
0000
1000
0000
0001
0000
0100
0000
0110
0000
,  // measure 88
0000
0010
1000
0001
1000
0100
0000
1010
,  // measure 89
0000
0000
0100
0001
0100
0000
0010
0000
1000
0000
0100
0000
0010
0000
0002
0000
,  // measure 90
0000
0013
0100
1000
0001
0010
1000
0010
,  // measure 91
0001
0000
1000
0010
1000
0000
0001
0000
0000
0000
0110
0000
1000
0000
1010
0000
,  // measure 92
0000
0000
0001
1000
0100
0000
0010
0000
0100
0000
1000
0001
0000
0000
0100
0000
,  // measure 93
0001
0000
1000
0010
0100
0000
0010
0000
1000
0000
0100
0000
0010
0000
0110
0000
,  // measure 94
0000
0000
1000
0000
0001
0000
0010
0000
0011
0000
0000
1100
0000
0000
1001
0000
,  // measure 95
0010
0100
0001
1000
0010
1000
0100
1100
,  // measure 96
0000
0000
0001
0100
0001
0000
0010
0000
0001
0000
1000
0000
0000
0000
1010
0000
,  // measure 97
0000
0000
0100
0010
0100
0000
0100
0000
0010
0000
1000
0000
0001
0000
0020
0000
,  // measure 98
0000
0100
0230
0000
1000
0000
1300
0100
,  // measure 99
0001
0010
0100
1100
0000
0101
0000
0010
,  // measure 100
0100
0001
0010
1000
0010
0001
1000
0010
,  // measure 101
1010
0100
0001
0011
0100
1100
0000
0101
,  // measure 102
0000
0010
0001
0100
1000
0010
0100
0001
,  // measure 103
1000
0000
0010
1000
0010
0000
0100
0000
0001
0000
0010
0001
0010
0000
0100
0000
,  // measure 104
1000
0010
1000
0001
0000
0001
1000
0010
,  // measure 105
0100
0001
0010
0110
0000
1000
0001
2200
,  // measure 106
0000
0000
3300
0011
,  // measure 107
0021
0000
1000
1000
0000
0031
0000
0201
,  // measure 108
0000
1000
0000
0301
0000
0001
0020
2000
,  // measure 109
0000
0000
0000
0000
,  // measure 110
0000
0000
0000
0000
0000
0000
0000
3030
;

//---------------dance-single - ----------------
#NOTES:
     dance-single:
     :
     Challenge:
     18:
     1.029260,1.301991,0.795485,0.174249,0.537899,951.000000,846.000000,105.000000,23.000000,0.000000,0.000000,1.029260,1.301991,0.795485,0.174249,0.537899,951.000000,846.000000,105.000000,23.000000,0.000000,0.000000:
0000
0000
0000
0000
,
0001
0100
0010
1000
0001
1000
0100
0010
,
0100
0000
1000
0000
0001
0000
0010
0000
0001
0000
1000
0100
0000
1000
0010
0000
,
0100
0010
1000
0100
0001
0100
1000
0001
,
0100
0000
0010
0000
0100
0000
0001
0000
0010
0000
0001
1000
0000
0100
1000
0000
,
0010
0100
0001
1000
0010
0100
0001
1000
0001
0010
0100
1000
0001
0010
0100
1000
,
0010
0100
1000
0100
0010
1000
0100
0010
0001
0000
0011
0000
0000
0000
1200
0000
,
0000
0000
0000
0000
0000
0000
0000
0302
,
0000
0000
0020
0033
,
1100
1000
0001
0010
0001
1000
0010
0100
,
0000
0110
0010
1000
1001
0010
1001
0100
,
0101
0010
0001
1000
0001
0100
0010
1000
,
0010
0100
0010
0000
1000
0000
0100
0000
0001
0000
0001
0100
0000
1000
0010
1000
,
0001
0000
0100
0010
0100
0000
0001
0000
0010
0000
0001
1000
0010
0000
1000
0000
,
0100
0000
1000
0001
0010
0000
0001
0000
0100
0000
0100
0001
0100
0000
0010
0000
,
1010
0100
0100
0011
0100
0100
1010
0100
,
0000
0000
0100
0000
0001
0000
1000
0000
0010
0000
0100
0010
0100
0000
0001
0000
,
0010
0000
0001
0100
0010
0000
1000
0000
0010
0000
1000
0100
0010
0000
0100
0000
,
1000
0000
0001
0000
0010
0000
1000
0000
0010
0000
0010
1000
0010
0000
0001
0000
,
0100
0000
0010
1000
0001
0000
0100
0000
0001
0000
0010
0001
1000
0000
0010
0000
,
0100
0000
0001
1000
0100
0000
0010
0100
1000
0000
1000
0001
1000
0000
1000
0010
,
0100
0011
0000
1100
,
0000
0001
0101
0000
1000
1010
0010
0100
,
0110
0000
0000
1001
0000
0000
0110
0110
,
0000
0000
0001
0010
0100
0000
1000
0000
0010
0000
0100
0001
2000
0000
0000
0000
,
0010
0000
0000
0000
3100
0000
0001
0010
0100
0000
1000
0000
0001
0000
0110
0000
,
1000
0000
0001
0000
0100
0000
0010
1000
0100
0000
1000
0010
0100
0000
0001
0010
,
0000
0001
1000
0000
0010
0000
1000
0001
0100
0000
0010
0000
1000
0000
0010
0000
,
0100
0000
1100
0000
0000
0000
0001
0100
0001
0000
0010
0000
0001
0000
1000
0010
,
0000
1000
0001
0010
0001
0000
0100
0010
1000
0000
0010
0000
0100
0000
0101
0000
,
0000
1100
1000
0010
0110
0100
0001
0011
,
0000
0000
1001
0000
0000
0000
0001
1000
0001
0000
0001
0000
0010
0000
1000
0000
,
0010
0000
0011
0000
0000
0000
1000
0100
1000
0000
0001
0000
1000
0000
0010
0000
,
0001
0000
1000
0000
0100
0000
0010
1000
0001
0000
0100
0000
0001
0000
0011
0000
,
0000
0000
1100
0000
1000
0000
0001
0100
0010
0000
0100
0000
0001
0000
1000
0100
,
0000
1000
0010
1000
0001
0000
0100
0001
1000
0000
0010
0000
0100
0000
0101
0000
,
0000
0000
1010
0000
1000
0000
0100
0010
0100
0000
1000
0000
0001
0000
0100
0001
,
0000
0010
0001
0010
0100
0000
1000
0010
1000
0000
0001
0000
0000
0000
1001
0000
,
0000
0000
0110
0000
0010
0000
0010
0100
0010
0000
1000
0000
0100
0000
1100
0000
,
0000
0000
0011
0000
0000
0000
1000
0001
1000
0000
0001
0000
0010
0000
1000
0000
,
0001
0200
0000
1000
1300
0100
0001
0100
,
1000
0001
0101
0010
1000
1100
0001
1001
,
1000
0110
0010
1000
0001
1000
0100
0010
,
1000
0001
0011
1000
1010
0110
0100
0110
,
0010
0011
0001
1000
0001
1000
0100
0001
,
0100
0000
1000
0000
0001
0000
0100
0010
1000
0000
0001
0000
0010
0000
0001
1000
,
0010
0000
0100
0000
0010
0000
1000
0001
0100
0000
0001
0000
0010
0000
0001
0000
,
0101
0000
1000
1010
0100
0101
1001
0001
,
1000
0220
0000
0000
0000
0000
0330
0000
,
0011
0000
1000
0000
0000
1000
0000
0000
,
1000
1000
0000
0001
0001
0000
0001
0000
,
0001
0000
1000
0001
0010
0001
0100
0001
,
0010
0000
0100
0000
0000
0000
0100
0000
1000
0000
0010
0100
0010
0000
0000
1001
,
0000
0000
0100
0000
0001
0000
0010
0001
1000
0000
0100
0000
1000
0000
0010
0100
,
0001
0000
1000
0000
0010
0000
0100
1000
0001
0000
0010
0000
1000
0000
0100
0000
,
0001
0100
1100
0000
0000
0101
0000
0010
,
0110
0110
0000
1100
0000
0010
0001
1000
,
0001
0100
0010
1000
0200
0300
0000
0000
1000
0000
0001
0000
0010
0000
0001
0100
,
0010
0000
1000
0000
0001
0000
0010
0001
0100
0000
0010
0000
1000
0000
1000
0100
,
0010
0000
0100
0000
1000
0000
0010
0100
0010
0000
1000
0000
0100
0000
1000
0100
,
0010
0000
0100
0000
1000
0000
0001
0010
0100
0000
1000
0100
0010
0000
0001
0100
,
0010
0000
0100
0010
1000
0000
0000
0000
0101
0000
0000
0000
0000
0000
0000
0000
,
0011
0000
1001
0000
,
0110
0110
1001
0000
0000
1100
0000
0001
,
0100
0000
0110
0000
0000
0000
1010
0000
0000
0000
0001
0000
0010
0000
0001
1000
,
0200
0000
0010
0000
0001
0001
0000
0010
,
0000
0000
1000
0000
0000
0000
1000
0000
0010
0000
1000
0000
0310
0000
0001
0100
,
0000
0001
0020
0000
1000
1000
0000
0001
,
0000
0000
1000
0000
0000
0000
1000
0000
0001
0000
1000
0000
0031
0000
0100
0010
,
0000
1000
0020
0100
0100
1030
0000
0102
,
0000
0010
0000
0010
0100
0100
0103
0010
,
0000
1100
0000
1000
0010
1000
0001
0010
,
1000
0100
0000
0100
1000
0010
0001
1000
,
0100
0010
0010
0010
0010
0110
0010
0110
,
0010
0000
1010
0000
0010
0000
0001
0000
0010
0000
0010
0000
1000
0000
0010
0001
,
0000
0010
0001
0000
0100
0000
0100
0000
1000
0000
0100
0000
0001
0000
0110
0000
,
0100
0000
1100
0000
0100
0000
0100
0000
0110
0000
0100
0000
0001
0000
0100
0010
,
0000
0100
0001
0000
1000
0010
0100
0010
1000
0100
0010
0001
0010
0100
1000
0001
,
0100
0010
1000
0100
0010
0100
0010
0100
1000
0001
1000
0001
0010
0000
0011
0000
,
0000
1020
0000
0000
0000
0000
0001
0000
,
0000
2000
0000
0000
0030
0000
0100
0000
,
3000
0000
0011
0000
0100
1000
0010
0001
,
0010
0000
1000
0000
0000
0000
0200
0000
0002
0000
0000
0303
0000
0000
0000
0000
,
1000
0000
0001
0010
0100
0000
1000
0000
0010
0000
0110
0000
0000
0000
1001
0000
,
0000
0100
0010
0100
0001
0000
1000
0000
0010
0000
1000
0100
0000
1000
0010
0000
,
0100
0000
0001
0010
0001
0000
1000
0000
0100
0000
0110
0000
1000
0001
1000
0000
,
0000
0000
0001
1000
0100
0000
0010
0000
0100
0000
1000
0001
0000
0010
0001
0010
,
0100
0000
1000
0001
1000
0000
0010
0000
0100
0000
0101
0000
0000
0000
1010
0000
,
0000
0000
0100
0010
0100
0001
0100
0010
1000
0000
1001
0000
0000
0000
1010
0000
,
0000
0000
0010
1000
0001
0000
1000
0000
0001
0000
1000
0100
0010
0000
0100
0000
,
1000
0000
0010
0000
0100
0000
0100
0000
0001
0010
0100
1000
0001
0010
0100
1000
,
0010
0000
0100
0001
1000
0000
0110
0000
0010
0000
1100
0000
1000
0000
0011
0000
,
0000
0000
0001
1000
0010
0000
1000
0000
0010
0000
0100
0001
0000
1000
0010
0100
,
0010
0000
1000
0100
0010
0000
0001
0000
0010
0000
0010
0100
0010
0001
1000
0000
,
0000
0000
1000
0010
1000
0000
0001
0000
0010
0000
0001
1000
0000
0100
1000
0100
,
0010
0000
0100
1000
0001
0000
0100
0000
0010
0000
0101
0000
0000
0000
1010
0000
,
0000
0000
0010
1000
0001
1000
0010
1000
0100
0000
0110
0000
0000
0000
0101
0000
,
0000
0000
0010
1000
0010
0100
0010
1000
0001
0000
0010
0000
0100
0000
0210
0000
,
0000
1000
2300
0000
0010
0000
3010
0100
,
0001
0010
0100
1100
1000
0101
0010
0110
,
0010
1000
0001
1000
0001
0010
1000
0010
,
0001
0100
0010
1010
1000
1001
0001
0011
,
1000
0110
0001
0100
1000
0010
0001
0100
,
0010
0000
1000
0100
0010
0000
0100
0000
1000
0000
0001
0100
0010
0000
0100
0000
,
0001
0010
0001
1001
0000
0010
0110
0000
,
1000
0011
1000
0110
1000
0001
0010
2100
,
0000
0001
0001
0000
3010
0000
1010
0000
,
1200
0000
0001
0001
0000
1300
0000
1020
,
0000
0001
0000
1030
0000
0100
2000
0002
,
0000
0000
0000
0000
,
0000
0000
0000
0000
0000
0000
0000
3003
;
