#TITLE:Light Shine;
#SUBTITLE:;
#ARTIST:Ryu☆;
#TITLETRANSLIT:;
#SUBTITLETRANSLIT:;
#ARTISTTRANSLIT:;
#GENRE:;
#CREDIT:;
#BANNER:Light_Shine_banner.png;
#BACKGROUND:Light_Shine.png;
#LYRICSPATH:;
#CDTITLE:;
#MUSIC:Light Shine.ogg;
#OFFSET:1.300000;
#SAMPLESTART:56.970001;
#SAMPLELENGTH:15.500000;
#LASTBEATHINT:0.700000;
#SELECTABLE:YES;
#BPMS:0.000000=140.000000
;
#STOPS:
;
#BGCHANGES:;
#KEYSOUNDS:;
#ATTACKS:;

//---------------dance-single - ----------------
#NOTES:
     dance-single:
     :
     Easy:
     5:
     0.285852,0.310847,0.182780,0.452140,0.000000,208.000000,189.000000,19.000000,47.000000,0.000000,0.000000,0.285852,0.310847,0.182780,0.452140,0.000000,208.000000,189.000000,19.000000,47.000000,0.000000,0.000000:
0000
0000
0000
0000
,
0000
0000
0000
0000
,
0001
0010
0001
0100
,
0010
1000
0200
0300
,
1000
0010
1000
0100
,
0010
0001
0200
0300
,
0001
1000
0001
1000
,
0010
0100
0010
0110
,
1000
0100
1000
0010
,
0200
0302
2003
3000
,
0010
1000
0001
0100
,
0002
2003
3020
0030
,
1000
0100
1000
0010
,
0200
0302
2003
3000
,
0001
0010
0001
0100
,
0020
2030
3002
0003
,
0200
0000
0000
0300
,
0001
0010
0001
0010
,
0100
0010
0100
0010
,
0100
1000
0100
1000
,
0001
0100
0001
0100
,
0010
1000
0010
1000
,
0100
1000
0100
1000
,
0001
0010
0001
0010
,
0001
0100
0001
0100
,
0010
0000
0010
0110
,
0100
0000
0100
0101
,
0001
0000
0001
1001
,
1000
0000
1000
1010
,
0010
1000
0100
0000
,
0010
0001
0100
0000
,
0010
0010
1010
0000
,
0100
0100
0101
0000
,
0220
0000
0000
0330
,
0001
1000
0010
1000
,
0002
0203
0320
0030
,
1000
0001
0100
0001
,
2000
3020
0230
0300
,
0010
1000
0100
1000
,
0002
0203
0320
0030
,
0100
0001
0010
0001
,
2000
3200
0320
0030
,
2002
0000
0000
3003
,
0001
1000
0100
1000
,
0001
0010
0002
0003
,
1000
0001
0010
0001
,
1000
0100
2000
3000
,
0001
0010
0100
0010
,
0002
2003
3002
0003
,
1000
0010
0100
0010
,
2000
3002
2003
3000
,
0001
0011
0000
1100
,
0000
1001
0001
2000
,
3010
0110
0000
1001
,
0002
0203
0320
0030
,
1000
1100
0000
0011
,
0000
0110
1000
0002
,
0103
1001
0000
0110
,
2000
3200
0320
0030
;

//---------------dance-single - ----------------
#NOTES:
     dance-single:
     :
     Medium:
     8:
     0.398543,0.425685,0.182780,0.471380,0.000000,290.000000,271.000000,19.000000,49.000000,0.000000,0.000000,0.398543,0.425685,0.182780,0.471380,0.000000,290.000000,271.000000,19.000000,49.000000,0.000000,0.000000:
0000
0000
0000
0000
,
0000
0000
0000
0000
,
1000
0100
1000
0000
0010
0000
0110
0000
,
0001
0000
0100
0010
2000
0000
3000
0000
,
0001
0010
0001
0000
0100
0000
0110
0000
,
2000
0000
3002
0000
,
1003
0000
0010
0000
0100
0001
0100
0010
,
1000
0001
0100
0110
,
1000
0100
0010
0000
0001
0100
0010
0000
,
1020
0230
0002
0303
,
1000
0010
0100
0000
0001
0010
0100
0000
,
1200
0320
0002
0033
,
0100
0001
1000
0000
0100
1000
0001
0000
,
0120
0032
2000
3003
,
0010
1000
0100
0000
0010
0001
0100
0000
,
0120
2030
0002
3003
,
0100
0000
0010
0000
0100
0010
0100
0010
,
1000
0000
1100
0000
0001
0010
0001
0000
,
1000
0010
0100
0001
0100
0000
1001
0000
,
0010
0000
0011
0000
0100
1000
0100
0000
,
1000
0010
0100
0001
1000
0010
1000
0000
,
0001
0000
0101
0000
1000
0010
1000
0000
,
0001
0010
0100
0000
0010
0100
1000
0000
,
0010
0000
1010
0000
0001
0100
0001
0000
,
1000
0100
0010
0000
0100
0010
0001
0000
,
0010
0000
0010
0000
0010
0001
0010
0000
,
0100
0000
0100
0000
0100
0010
0100
0000
,
1000
0000
1000
0000
1000
0100
1000
0000
,
0001
0000
0001
0000
0001
1000
0001
0000
,
0001
0000
0001
0000
0001
0010
0001
0010
,
0100
0000
0100
0000
0100
1000
0100
1000
,
0010
0000
0010
0000
0010
0100
0010
0100
,
0001
0000
0001
0000
0001
1000
0001
1000
,
0002
0000
0000
0003
,
0001
0010
0100
0000
1000
0010
0100
0000
,
0201
0320
2000
3030
,
0001
0100
0010
0000
1000
0100
0010
0000
,
0012
2003
0200
3300
,
1000
0001
0010
0000
0001
1000
0010
0000
,
0120
2030
0002
3003
,
0001
0100
0010
0000
1000
0010
0100
0000
,
1020
0230
0002
0303
,
2002
0000
0000
3003
,
0001
0010
0001
0000
1000
0100
1000
0000
,
0010
0100
0010
0000
0220
0000
0330
0000
,
1000
0001
1000
0000
0010
0100
0010
0000
,
2000
3002
0200
0303
,
0001
0010
0100
0000
0010
0100
1000
0000
,
0020
2030
0002
3003
,
0010
0000
0010
0000
0100
1000
0100
0000
,
0020
0032
0200
0303
,
0000
1000
0100
1000
0000
0001
0100
0001
,
0000
1000
0010
1000
0001
0000
0002
0000
,
0003
1000
0010
1000
0000
0001
0010
0001
,
0020
0230
2000
3300
,
0000
0001
0010
0001
0000
1000
0010
1000
,
0000
0001
0100
0001
1000
0000
2000
0000
,
3000
0100
0010
0100
0000
1000
0001
1000
,
0002
0013
2200
0000
,
3300
0000
0000
0000
;

//---------------dance-single - ----------------
#NOTES:
     dance-single:
     :
     Hard:
     12:
     0.548341,0.539202,0.288600,0.432900,0.105820,399.000000,369.000000,30.000000,45.000000,0.000000,0.000000,0.548341,0.539202,0.288600,0.432900,0.105820,399.000000,369.000000,30.000000,45.000000,0.000000,0.000000:
0000
0000
0000
0000
,
0000
0000
0000
0000
,
1000
0000
0010
0000
0100
0000
0001
0000
1000
0000
0000
1000
0010
0000
0100
0000
,
0001
0000
0000
0001
0010
0000
0100
0000
2000
0000
0000
0000
0000
0000
0010
0000
,
3010
0000
1000
0000
0001
0000
0100
0000
0010
0000
0000
0010
1000
0000
0001
0000
,
0200
0000
0000
0000
0000
0000
0301
0010
0002
0000
0000
0000
0000
0000
0000
0000
,
1003
0000
0010
0000
1000
0100
1000
0000
0001
0000
0001
0000
0010
0000
0010
0000
,
0000
0001
1000
0010
0100
0010
0110
0000
,
1000
0010
0100
0010
1000
0001
0010
0000
,
1200
0001
0020
0330
,
0001
0100
0010
0100
0001
1000
0100
0000
,
0021
1000
0200
0330
,
0001
0010
1000
0010
0100
1000
0001
0000
,
1020
0001
0200
0330
,
1000
0100
0001
0100
0010
0001
1000
0000
,
0201
1000
0020
0330
,
0001
0000
0001
0000
1000
0000
1000
0000
0010
0000
0100
0000
0010
0100
0010
0000
,
1000
0100
1000
0001
0010
0100
0010
0001
,
1000
0010
0100
0010
0100
0001
0010
0001
,
1000
0001
0010
0100
0010
0001
0100
0010
,
1000
0100
1000
0010
0100
0001
0020
0000
,
0031
0010
0001
1000
0100
0010
0100
1000
,
0010
1000
0001
0100
0010
0100
0010
1000
,
0100
1000
0100
0010
0001
0010
0001
0100
,
0010
1000
0100
0010
0001
0100
0002
0000
,
1003
0000
0100
0000
0010
0000
0100
0000
1000
0000
0010
0000
0100
0010
0100
0000
,
0001
0000
0010
0000
0100
0000
0010
0000
0001
0000
0100
0000
0010
0100
0010
0000
,
1000
0000
0010
0000
0100
0000
0010
0000
1000
0000
0001
0000
0100
0001
0100
0000
,
0001
0000
0100
0000
0010
0000
0100
0000
0001
0000
1000
0000
0100
1000
0100
0000
,
1000
0000
0010
0000
1000
0000
0010
0000
0100
0000
0001
0000
0100
0001
0100
0000
,
0001
0000
0010
0000
0001
0000
0010
0000
0100
0000
1000
0000
0100
1000
0100
0000
,
1000
0000
0001
0000
0100
0000
0001
0000
1000
0000
0010
0000
0100
0010
0100
0000
,
0001
0000
1000
0000
0010
0000
1000
0000
0001
0000
0100
0000
0010
0100
0010
0000
,
0000
0000
1000
0000
0000
0001
0000
0000
0100
0000
0010
0000
0100
0010
0100
0000
,
0001
0100
0010
0100
0001
1000
0100
0000
,
0021
1000
0200
0330
,
1000
0010
0100
0010
1000
0001
0010
0000
,
1200
0001
0020
0330
,
1000
0100
0001
0100
0010
0001
1000
0000
,
0201
1000
0020
0330
,
0001
0010
1000
0010
0100
1000
0001
0000
,
1020
0001
0200
0330
,
0000
0001
0100
0001
1000
0100
1001
0000
,
1000
0000
0010
0000
1000
0000
0100
0000
0010
0000
0000
0010
0001
0000
1000
0000
,
0100
0000
0000
0100
1000
0000
0001
0000
0020
0000
0000
0000
0000
0000
0001
0000
,
0031
0000
0100
0000
0001
0000
0010
0000
0100
0000
0000
0100
1000
0000
0001
0000
,
2000
3010
0202
0303
,
1000
0000
0010
0000
0100
0000
0010
0000
1000
0000
0000
1000
0010
0000
0100
0000
,
0001
0000
0000
0001
0010
0000
0100
0000
2000
0000
0000
0000
0000
0000
0001
0000
,
3001
0000
0010
0000
0100
0000
0010
0000
0001
0000
0000
0001
0010
0000
0100
0000
,
2200
3300
0022
0033
0220
0000
0000
0000
,
0330
1000
0010
1010
0000
0001
0010
0011
,
0000
1000
0100
1100
1000
0001
2002
0000
,
3003
0001
0100
0101
0000
1000
0010
1010
,
2000
3001
0220
0000
,
0330
1000
0001
1001
0000
0010
0001
0011
,
0000
1000
0010
1010
1000
0001
2002
0000
,
3003
0100
0001
0101
0000
1000
0100
1100
,
2200
3300
0220
0330
0022
0000
0000
0000
,
0033
0000
0000
0000
;

//---------------dance-single - ----------------
#NOTES:
     dance-single:
     :
     Challenge:
     14:
     0.659658,0.652718,0.288600,0.278980,0.288600,480.000000,450.000000,30.000000,29.000000,0.000000,0.000000,0.659658,0.652718,0.288600,0.278980,0.288600,480.000000,450.000000,30.000000,29.000000,0.000000,0.000000:
0000
0000
0000
0000
,
0000
0000
0000
0000
,
0100
0000
0001
0000
0010
0000
0001
0000
1000
0000
0000
1000
0010
0000
0100
0000
,
0001
0000
0000
0001
0010
0000
0100
0000
0020
0000
0000
0000
1030
0000
0010
0000
,
0001
0000
1000
0000
0100
0000
0010
0000
0001
0000
0000
0001
0100
0000
0010
0000
,
2000
0000
0000
0000
3001
0000
0100
0010
0200
0000
0000
0000
0301
0000
0010
0000
,
0001
0000
1000
0000
0010
0100
0001
0100
0010
0000
1000
0000
1000
0000
1000
0000
,
0001
0000
0010
0000
1000
0000
0001
0000
0100
0000
1000
0000
0010
0100
0010
0100
,
0010
1000
0001
0010
0100
0001
1000
0000
,
0021
1030
0201
1300
,
1010
0010
0100
0010
1000
0100
0001
0000
,
1200
0301
0021
1030
,
0001
0000
0100
0000
0010
0000
0100
0000
0001
0000
1000
0100
1000
0000
0010
0000
,
0200
0301
0021
1030
,
0101
0000
0100
0000
0010
0000
0100
0000
0001
0000
1000
0010
1000
0000
0100
0000
,
0020
1030
0201
0310
,
0001
0000
0010
0000
0100
0010
0100
0000
1000
0000
1000
0000
0001
0010
0100
1000
,
0010
0100
0001
0100
0010
1000
0100
0001
,
0100
0000
1000
0000
0010
0000
1000
0000
0001
0000
0100
0000
0010
0000
0100
0001
,
1000
0010
1000
0100
0010
0001
1000
0001
,
0100
0000
0010
0000
1000
0100
0000
0100
1000
0000
0001
0000
0010
0000
0001
0000
,
0100
0010
1000
0010
0100
0001
0010
0100
,
0010
0000
0001
0000
1000
0010
0000
0010
1000
0000
0001
0000
0100
0001
0000
0001
,
0100
0000
0010
0000
1000
0000
0100
0000
0010
0000
0100
0000
1000
0000
0001
0010
,
0001
0100
0010
0100
0001
0010
1000
0010
,
0001
0000
0001
0000
0001
0000
0001
0000
0001
0000
0001
0000
1000
0100
0010
0100
,
1000
0000
1000
0000
1000
0000
1000
0000
1000
0000
1000
0000
1000
0010
0100
0010
,
0100
0000
0100
0000
0100
0000
0100
0000
0010
0000
0010
0000
1000
0001
0100
0010
,
0100
0000
0100
0000
0100
0000
0100
0000
0001
0000
0001
0000
0010
0001
1000
0001
,
0010
0000
0010
0000
0010
0000
0010
0000
0010
0000
0010
0000
0010
0100
1000
0100
,
0010
0000
0010
0000
0010
0000
0010
0000
0010
0000
0010
0000
0010
0001
0100
0001
,
1000
0000
1000
0000
0001
0000
0001
0000
0010
0000
0010
0000
0001
0100
0010
0100
,
0001
0000
0001
0000
0001
0000
0001
0000
0001
0000
0001
0000
0001
0010
0100
1000
,
0010
0000
0100
0000
0010
0100
0000
0100
0001
0000
0001
0000
1000
0100
0010
0100
,
1000
0010
0001
0010
0100
0001
1000
0000
,
0021
1030
0201
1000
,
0310
0000
1000
0000
0100
0000
1000
0000
0001
0000
0010
0100
0010
0000
0001
0000
,
0200
1300
0021
1000
,
0130
0000
0001
0000
1000
0000
0100
0000
0010
0000
0100
1000
0100
0000
0010
0000
,
0002
1003
0210
1000
,
0301
0000
0010
0000
0100
0000
1000
0000
0010
0000
0100
0001
0100
0000
0010
0000
,
0200
1300
1002
0010
,
0013
0000
0100
0000
0010
0001
0000
1000
0010
0000
0100
0000
0010
0100
0010
0100
,
0001
0000
0010
0000
0001
0000
1000
0000
0010
0000
0000
0010
0100
0000
0010
0000
,
1000
0000
0000
1000
0001
0000
0010
0000
0200
0000
0000
0000
1300
0000
0001
0000
,
0100
0000
0010
0000
1000
0000
0010
0000
0100
0000
0000
0100
0001
0000
0010
0000
,
0200
0000
0301
0000
1020
0000
0100
0130
,
0001
0000
1000
0000
0010
0000
1000
0000
0100
0000
0000
0100
0010
0000
0100
0000
,
1000
0000
0000
1000
0010
0000
0100
0000
0020
0000
0000
0000
0001
0000
0031
0000
,
0010
0000
1000
0000
0100
0000
1000
0000
0001
0000
0000
0001
0100
0000
0010
0000
,
1000
0000
0100
0000
1000
0010
0000
0010
0100
0000
0001
0000
1000
0001
0010
0001
,
1000
0010
0110
0100
0001
1000
1100
0100
,
0010
0100
1100
1000
0001
1000
0012
0000
,
1003
0100
0011
0010
0100
1000
0110
0100
,
0021
1030
0201
1000
,
0310
1000
1010
0010
0100
0001
0011
0010
,
0100
1000
1001
0100
0010
0110
1002
0000
,
0013
0000
0100
0000
1100
0000
1000
0000
0100
0000
0010
0000
1001
0000
0001
1000
,
0200
0000
0000
0000
0310
0000
0000
0000
1020
0000
0000
0000
0031
0000
1000
0001
,
0100
0000
0000
0000
;

//---------------dance-double - ----------------
#NOTES:
     dance-double:
     :
     Hard:
     12:
     0.560709,0.567581,0.298220,0.278980,0.115440,408.000000,377.000000,31.000000,29.000000,0.000000,0.000000,0.560709,0.567581,0.298220,0.278980,0.115440,408.000000,377.000000,31.000000,29.000000,0.000000,0.000000:
00000000
00000000
00000000
00000000
,
00000000
00000000
00000000
00000000
,
01000000
00000000
00010000
00000000
00100000
00000000
00010000
00000000
10000000
00000000
00000000
10000000
00010000
00000000
00100000
00000000
,
00001000
00000000
00000000
00001000
00010000
00000000
00000010
00000000
00000200
00000000
00000000
00000000
00000300
00000000
00000000
00000000
,
00000001
00000000
00000010
00000000
00000100
00000000
00001000
00000000
00000010
00000000
00000000
00000010
00010000
00000000
00001000
00000000
,
00200000
00000000
00000000
00000000
00310000
00000000
01000000
00001000
00020000
00000000
00000000
00000000
00030100
00000000
00000000
00000000
,
00001000
00000000
00000010
00000000
00000100
00000001
00000100
00000000
00000010
00000000
00001000
00000000
00000001
00000000
00000010
00000000
,
00000000
00000001
00000100
00001000
00000100
00000010
00010000
00000000
,
00001000
00100000
01000000
00100000
00010000
01000000
10000000
00000000
,
01020000
00100000
20000000
30030000
,
01000000
00001000
00010000
01000000
00100000
00001000
00010000
00000000
,
00010020
00000100
00002000
00003030
,
00000100
00010000
01000000
00010000
00001000
00000100
00000010
00000000
,
00000012
00001000
00000200
00000303
,
00000010
00010000
00001000
00100000
00010000
00100000
10000000
00000000
,
00210000
01000000
00002000
00303000
,
10000000
00000000
01000000
00000000
10000000
00010000
10000000
00000000
00100000
00000000
01000000
00000000
00010000
00100000
00010000
00100000
,
00001000
00010000
00000010
00001000
00000001
00000010
00000100
00001000
,
00000010
00010000
00001000
01000000
00010000
10000000
01000000
00100000
,
00010000
01000000
10000000
01000000
00010000
00100000
00001000
00010000
,
00000010
00001000
00000100
00000001
00000100
00001000
00000020
00000000
,
00010030
00001000
01000000
00100000
10000000
00010000
00100000
00001000
,
00010000
00000100
00000010
00000100
00001000
00000001
00000010
00000001
,
00001000
00000010
00010000
00001000
01000000
00010000
00100000
00001000
,
00010000
01000000
10000000
01000000
00010000
00001000
00011000
00000000
,
00000010
00000000
00000100
00000000
00000010
00000000
00000100
00000000
00000001
00000000
00000010
00000000
00000001
00001000
00000100
00000000
,
00010000
00000000
00001000
00000000
00010000
00000000
00001000
00000000
00100000
00000000
01000000
00000000
00100000
01000000
10000000
00000000
,
00100000
00000000
10000000
00000000
00100000
00000000
10000000
00000000
00010000
00000000
00100000
00000000
00010000
01000000
00001000
00000000
,
00010000
00000000
00000010
00000000
00010000
00000000
00000010
00000000
00001000
00000000
00000100
00000000
00010000
00000010
00001000
00000000
,
00000001
00000000
00000010
00000000
00000100
00000000
00001000
00000000
00000100
00000000
00000010
00000000
00000001
00001000
00000100
00000000
,
00010000
00000000
00001000
00000000
01000000
00000000
00100000
00000000
10000000
00000000
00100000
00000000
01000000
00001000
00010000
00000000
,
00001000
00000000
00000100
00000000
00000001
00000000
00000100
00000000
00001000
00000000
00010000
00000000
00001000
00100000
00001000
00000000
,
00010000
00000000
01000000
00000000
10000000
00000000
01000000
00000000
00010000
00000000
00001000
00000000
00010000
00000010
00010000
00000000
,
00000000
00000000
00000010
00000000
00000000
00000110
00000000
00000000
00001000
00000000
00000010
00000000
00010000
00001000
00100000
00000000
,
00010000
01000000
10000000
01000000
00010000
00100000
00001000
00000000
,
00020010
00000100
00002000
00033000
,
00001000
00000100
00000001
00000100
00001000
00010000
00000010
00000000
,
00102000
01000000
00020000
00033000
,
00100000
00001000
01000000
00100000
10000000
01000000
00010000
00000000
,
12000000
00010000
00200000
03300000
,
00010000
01000000
00001000
00010000
00001000
00000010
00000001
00000000
,
00000120
00010000
00002000
00003030
,
00000000
00000001
00001000
00000010
00010000
00001000
00011000
00000000
,
00100000
00000000
00010000
00000000
10000000
00000000
00100000
00000000
10000000
00000000
00000000
10000000
01000000
00000000
00100000
00000000
,
00001000
00000000
00000000
00001000
00010000
00000000
00000010
00000000
00000100
00000000
00000000
00000000
00000110
00000000
00000000
00000000
,
00000001
00000000
00000010
00000000
00000100
00000000
00010000
00000000
00001000
00000000
00000000
00001000
01000000
00000000
00010000
00000000
,
10000000
10100000
00220000
00330000
,
01000000
00000000
00010000
00000000
10000000
00000000
00100000
00000000
01000000
00000000
00000000
00001000
00010000
00000000
00000010
00000000
,
00001000
00000000
00000000
00000001
00000010
00000000
00000100
00000000
00010000
00000000
00000000
00000000
00011000
00000000
00000000
00000000
,
00000010
00000000
00000100
00000000
00000001
00000000
00000010
00000000
00000001
00000000
00000000
00000001
00001000
00000000
00000100
00000000
,
00010100
00011000
02002000
00003000
,
03100000
10000000
00010000
00110000
00000000
00001000
00010000
00010010
,
00000000
00001000
00000001
00000011
00000010
00000100
00002000
00000000
,
00003010
00000100
00000001
00001001
00000000
00000010
00010000
00001000
,
00011000
00110000
00022000
00030000
,
01003000
00010000
10000000
00100000
10000000
01000000
00010000
00000000
,
00001000
00010000
00000100
00001000
00000010
00000001
00000010
00000000
,
00001000
00000100
00010100
00000000
00001000
00100000
00110000
00000000
,
10010000
00011000
00002002
00003003
,
00011000
00000000
00000000
00000000
;

//---------------dance-double - ----------------
#NOTES:
     dance-double:
     :
     Challenge:
     14:
     0.670652,0.652718,0.375180,0.211640,0.341510,488.000000,449.000000,39.000000,22.000000,0.000000,0.000000,0.670652,0.652718,0.375180,0.211640,0.341510,488.000000,449.000000,39.000000,22.000000,0.000000,0.000000:
// measure 0
00000000
00000000
00000000
00000000
,  // measure 1
00000000
00000000
00000000
00000000
,  // measure 2
00100000
00000000
01000000
00000000
10000000
00000000
00010000
00000000
00100000
00000000
00000000
00001000
00010000
00000000
00000010
00000000
,  // measure 3
00000100
00000000
00000000
00001000
00000100
00000000
00000001
00000000
00000010
00000000
00000000
00000000
00001001
00000000
00000000
00000000
,  // measure 4
00000010
00000000
00010000
00000000
00001000
00000000
00000100
00000000
00000001
00000000
00000000
00000010
00000100
00000000
00010000
00000000
,  // measure 5
00002000
00000000
00000000
00000000
00103000
00000000
01000000
10000000
00010000
00000000
00000000
00000000
10010000
00000000
00000000
00000000
,  // measure 6
00100000
00000000
10000000
00000000
00100000
01000000
00001000
01000000
00100000
00000000
10000000
00000000
10000000
00000000
10000000
00000000
,  // measure 7
00010000
00000000
00100000
00000000
00001000
00010000
00000000
00001000
01000000
00000000
00010000
00000000
00100000
00001000
00010000
00001000
,  // measure 8
00100000
01000000
10000000
01000000
00010000
00001000
00010000
00000000
,  // measure 9
00010020
00000130
00021000
00030010
,  // measure 10
00001000
00000100
00000001
00000100
00010000
00000010
00000100
00000000
,  // measure 11
00020010
00031000
00000120
00010030
,  // measure 12
00001000
00000000
00000010
00000000
00000001
00000000
00000100
00000000
00000010
00000000
00010000
00001000
00100000
00000000
00000000
00000000
,  // measure 13
00210000
00301000
02100000
03001000
,  // measure 14
00010000
00000000
01000000
00000000
10000000
00000000
00100000
00000000
01000000
00000000
00001000
00010000
00000010
00000000
00000000
00000000
,  // measure 15
00002010
00003100
00010020
00000130
,  // measure 16
00000001
00000000
00000001
00000000
00000010
00000001
00000000
00000001
00001000
00000000
00000010
00000000
00001000
00000001
00000010
00000001
,  // measure 17
00001000
00000000
00000100
00000000
00010000
00000000
00001000
00000000
00000010
00000000
00000100
00000000
00001000
00000000
00000010
00000100
,  // measure 18
00000001
00000000
00000010
00000000
00000100
00010000
00000000
00010000
00001000
00000000
00100000
00000000
00010000
00000000
10000000
00100000
,  // measure 19
01000000
00000000
00100000
00000000
10000000
00000000
01000000
00100000
01000000
00000000
10000000
00000000
00010000
00000000
00100000
00001000
,  // measure 20
00010000
00000000
00001000
00000000
01000000
00100000
00000000
00100000
10000000
00000000
00010000
00000000
00110000
00000000
00000000
00000000
,  // measure 21
01000000
00000000
00001000
00000000
00010000
00000000
00001000
00100000
00001000
00000000
00010000
00000000
00000010
00000000
00010000
00001000
,  // measure 22
00010000
00000000
00000100
00000000
00001000
00000010
00000000
00000010
00000100
00000000
00000001
00000000
00000010
00000100
00000000
00000100
,  // measure 23
00010000
00000000
00001000
00000000
01000000
00000000
00001000
00010000
00001000
00000000
00100000
00000000
00010000
00000000
10000000
01000000
,  // measure 24
10000000
01000000
00010000
00001000
00000100
00000001
00001001
00000000
,  // measure 25
00000010
00000000
00000010
00000000
00000100
00000000
00000100
00000000
00000010
00000000
00000010
00000000
00001000
00000100
00010000
00000100
,  // measure 26
00001000
00000000
00001000
00000000
00000001
00000000
00000001
00000000
00001000
00000000
00001000
00000000
00000010
00010000
00001000
00010000
,  // measure 27
00000100
00000000
00000100
00000000
00010000
00000000
00010000
00000000
00001000
00000000
00001000
00000000
00100000
00010000
01000000
00010000
,  // measure 28
00100000
00100000
01000000
01000000
10000000
10000000
10010000
00000000
,  // measure 29
00100000
00000000
00100000
00000000
01000000
00000000
01000000
00000000
00100000
00000000
10000000
00000000
01000000
00100000
00010000
00000000
,  // measure 30
01000000
00000000
01000000
00000000
00001000
00000000
00001000
00000000
00010000
00000000
00010000
00000000
00000010
00001000
00000100
00000000
,  // measure 31
00010000
00000000
00010000
00000000
00000010
00000000
00000010
00000000
00000100
00000000
00000100
00000000
00000001
00000010
00000100
00000000
,  // measure 32
00001000
00000000
00000010
00000000
00010000
00000000
00000100
00000000
00100000
00000000
00001000
00000000
10000000
01000000
00100000
01000000
,  // measure 33
10000000
00000000
00010000
00000000
00100000
00001000
00000000
00001000
00010000
00000000
00001000
00000000
00010000
00000100
00001000
00000100
,  // measure 34
00010000
00000010
00001000
00000100
00000001
00000100
00010000
00000000
,  // measure 35
00021000
00030010
00001020
00010030
,  // measure 36
00001000
00000000
01000000
00000000
00010000
00000000
00100000
00000000
01000000
00000000
10000000
00100000
01000000
00000000
00000000
00000000
,  // measure 37
01020000
00130000
01002000
00013000
,  // measure 38
00000010
00000000
00000100
00000000
00001000
00000000
00000100
00000000
00000001
00000000
00000010
00000100
00001000
00000000
00000010
00000000
,  // measure 39
00020010
00031000
02010000
13000000
,  // measure 40
10000000
00000000
00100000
00000000
00010000
00000000
00100000
00000000
01000000
00000000
00010000
00100000
00001000
00000000
01000000
00000000
,  // measure 41
02100000
03001000
00012000
00003100
,  // measure 42
00000001
00000000
00000010
00000000
00000001
00001000
00000000
00001000
00000010
00000000
00010000
00000000
00001000
00010000
00001000
00010000
,  // measure 43
00000100
00000000
00001000
00000000
00000100
00000000
00000010
00000000
00001000
00000000
00000000
00100000
00010000
00000000
01000000
00000000
,  // measure 44
00100000
00000000
00000000
10000000
01000000
00000000
00010000
00000000
02000000
00000000
00000000
00000000
13000000
00000000
00100000
00000000
,  // measure 45
01000000
00000000
00001000
00000000
00010000
00000000
01000000
00000000
10000000
00000000
00000000
00100000
01000000
00000000
00001000
00000000
,  // measure 46
00010000
00000000
00001010
00000000
00000201
00000000
00000010
00000310
,  // measure 47
00001000
00000000
00000100
00000000
00010000
00000000
00000010
00000100
00000010
00000000
00000000
00001000
00000001
00000000
00000010
00000000
,  // measure 48
00000100
00000000
00000000
00010000
00001000
00000000
00100000
00000000
00002000
00000000
00000000
00000000
00013000
00000000
00001000
00000000
,  // measure 49
01000000
00000000
00100000
00000000
10000000
00000000
01000000
10000000
00010000
00000000
00000000
01000000
00100000
00000000
01000000
00001000
,  // measure 50
00010000
00000000
00000100
00000000
00010000
00001000
00000000
00100000
00010000
00000000
10000000
00000000
00100000
01000000
00100000
01000000
,  // measure 51
00010000
01000000
11000000
01000000
00010000
00100000
00110000
00010000
,  // measure 52
01000000
00001000
00011000
00010000
00000010
00001000
00002002
00003003
,  // measure 53
00000100
00000001
00000011
00000010
00000100
00010000
00010100
00000100
,  // measure 54
00011000
10010000
00011000
00001001
,  // measure 55
00010000
00000010
00000110
00000100
00000001
00000010
00000110
00000000
,  // measure 56
00001000
00010000
00110000
00100000
10000000
00010000
10010000
00000000
,  // measure 57
01000000
00000000
00100000
00000000
10000000
00000000
00010000
00100000
00001000
00000000
00010000
00000000
00001000
00010000
00001000
00010000
,  // measure 58
00001000
00000000
00000000
00000000
00001010
00000000
00000000
00000000
00000101
00000000
00000000
00000000
00000010
00000000
00010000
00001000
,  // measure 59
01000000
00000000
00000000
00000000
;
