#TITLE:Let's Bounce !!;
#SUBTITLE:;
#ARTIST:BEMANI Sound Team "Sota F.";
#TITLETRANSLIT:Let's Bounce !!;
#SUBTITLETRANSLIT:;
#ARTISTTRANSLIT:Sota F.;
#GENRE:FUTURE HOUSE;
#CREDIT:;
#BANNER:Let's_Bounce_!!_banner.png;
#BACKGROUND:Let's_Bounce_!!.png;
#LYRICSPATH:;
#CDTITLE:;
#MUSIC:Let's Bounce !!.ogg;
#OFFSET:-0.160000;
#SAMPLESTART:64.500000;
#SAMPLELENGTH:15.700000;
#SELECTABLE:YES;
#BPMS:0.000000=138.000000
;
#STOPS:115.750000=0.435000,
130.750000=0.435000,
137.750000=0.435000,
176.750000=0.870000,
194.750000=0.435000,
209.750000=0.435000,
224.750000=0.435000
;
#BGCHANGES:;
#KEYSOUNDS:;
#ATTACKS:;

//---------------dance-single - ----------------
#NOTES:
     dance-single:
     :
     Easy:
     5:
     0.243915,0.301596,0.143693,0.152145,0.000000,202.000000,185.000000,17.000000,18.000000,0.000000,0.000000,0.243915,0.301596,0.143693,0.152145,0.000000,202.000000,185.000000,17.000000,18.000000,0.000000,0.000000:
0000
0000
0000
0000
,
0000
0000
0000
0000
,
0000
0000
0000
0000
,
0000
0000
0000
0000
,
0000
0000
0000
0000
,
1000
0001
0100
0001
,
1000
0100
0001
0100
,
1000
0010
1000
0001
,
1000
0010
0001
0010
,
0200
0000
0000
0300
,
0020
0000
0000
0030
,
2000
0000
0000
3000
,
0002
0000
0000
0003
,
1000
0010
0100
0000
,
0001
0010
0100
0000
,
1000
0100
0010
0000
,
0001
0100
0010
0000
,
1000
0010
1010
0000
,
0100
0001
0101
0000
,
0010
0001
0010
0000
,
0100
1000
0100
0000
,
1000
0010
0010
0000
,
0100
0001
0001
0000
,
0010
0001
0100
0000
,
0010
1000
0100
0000
,
1000
0001
0010
0000
,
0001
1000
0010
0000
,
0100
0100
0100
0000
,
0010
0010
0110
0000
,
0000
1000
0000
0001
,
0001
0100
0000
0010
,
0010
1000
0000
0001
,
0100
0010
1001
0000
,
1000
0001
1000
0010
,
0100
0010
1000
0001
,
1000
0010
0100
0010
,
0000
1000
0001
2002
,
3003
0100
0010
0220
,
0330
1000
0100
2200
,
3300
0010
0001
0022
,
0033
0100
0001
0100
,
0001
1000
0010
1000
,
0010
1000
0001
0100
,
0010
1000
0010
0100
,
0001
0000
0000
0000
,
1001
0001
1000
0010
,
0100
0010
0000
1000
,
0100
0001
0000
0001
,
0010
1000
0000
0110
,
0010
0100
0001
1000
,
0001
0000
1000
0001
,
2002
3003
0100
0010
,
0220
0330
1000
0010
,
1000
0001
0100
0001
,
0010
0001
0100
0010
,
1000
0100
1000
0010
,
0100
1001
0001
0010
,
0100
1000
1001
0000
,
0110
0000
0011
0000
,
1000
0010
0100
0001
,
0220
0000
0000
0330
,
1000
0100
1000
0000
,
0001
0010
0001
0000
,
1000
0010
1000
0000
,
0001
0000
0100
0000
0001
0000
1000
0010
;

//---------------dance-single - ----------------
#NOTES:
     dance-single:
     :
     Medium:
     9:
     0.350176,0.438685,0.109883,0.169050,0.029584,290.000000,277.000000,13.000000,20.000000,0.000000,0.000000,0.350176,0.438685,0.109883,0.169050,0.029584,290.000000,277.000000,13.000000,20.000000,0.000000,0.000000:
// measure 0
0000
0000
0000
0000
,  // measure 1
0000
0000
0000
0000
,  // measure 2
0000
0000
0000
0000
,  // measure 3
0000
0000
0000
0000
,  // measure 4
0000
0000
0000
0000
,  // measure 5
0001
0000
0100
0000
0010
1000
0100
0000
,  // measure 6
0010
0000
0100
0000
0010
0001
1000
0000
,  // measure 7
0010
0000
1000
0000
0001
0100
0010
0000
,  // measure 8
1000
0001
0100
0110
,  // measure 9
0020
1000
0000
1030
,  // measure 10
0200
0001
0000
0301
,  // measure 11
2000
0010
0000
3010
,  // measure 12
0002
0100
0000
0103
,  // measure 13
1000
0000
0010
0000
0100
0001
1000
0000
,  // measure 14
0001
0000
0010
0000
0100
1000
0100
0000
,  // measure 15
1000
0000
0001
0000
0100
0010
1000
0000
,  // measure 16
0001
0010
0100
0000
1000
0000
1001
0000
,  // measure 17
0001
0000
0100
0000
0010
1000
0010
0000
,  // measure 18
0100
0001
0100
0000
0001
0000
0010
0000
,  // measure 19
0100
0000
1000
0000
0010
0100
0010
0000
,  // measure 20
1000
0010
1000
0100
0010
0000
0011
0000
,  // measure 21
0002
0000
0103
0000
0010
1000
0010
0000
,  // measure 22
1000
0100
0010
0000
0100
0010
0001
0000
,  // measure 23
1000
0000
0010
0000
1000
0001
0100
0000
,  // measure 24
0001
0000
0000
0000
1000
0000
0000
0010
0000
0000
0000
0000
0110
0000
0000
0000
,  // measure 25
1000
0000
0001
0000
0100
0010
1000
0000
,  // measure 26
0010
0100
0001
0020
,  // measure 27
0130
0000
1000
0000
0001
0010
0001
0000
,  // measure 28
0200
0010
0010
0310
,  // measure 29
1000
0000
0001
0010
0001
0000
1000
0100
,  // measure 30
0010
0001
0001
1000
,  // measure 31
0010
0000
0100
0000
0001
0000
1000
0100
,  // measure 32
1000
0000
0001
0010
0001
0000
1001
0000
,  // measure 33
1000
0010
0100
0001
,  // measure 34
1000
0001
1000
0001
0100
0000
0010
0100
,  // measure 35
0010
2000
0001
0001
,  // measure 36
3001
0000
0000
0000
0100
0000
0000
0010
0000
0000
0020
0000
0000
0000
0000
0000
,  // measure 37
0030
0000
0000
0000
1000
0000
0000
0001
0000
0000
2000
0000
0000
0000
0000
0000
,  // measure 38
3000
0000
0000
0000
0001
0000
0000
0100
0000
0000
0020
0000
0000
0000
0000
0000
,  // measure 39
0030
0000
0000
0000
1000
0000
0000
0010
0000
0000
0200
0000
0000
0000
0000
0000
,  // measure 40
0300
0002
1000
1000
,  // measure 41
1000
2003
0001
0001
,  // measure 42
0001
3020
0100
0100
,  // measure 43
0100
0230
0010
0010
,  // measure 44
0310
0000
1001
0001
,  // measure 45
0100
0000
0010
1000
0010
0000
0100
0001
,  // measure 46
0100
0001
1010
0100
,  // measure 47
0001
0000
0010
0100
1000
0000
0001
0010
,  // measure 48
0100
0000
1000
0010
0100
0001
0100
0000
,  // measure 49
0001
0000
0010
0000
0100
0000
0000
0000
1000
0000
0000
0010
0000
0000
1000
0000
,  // measure 50
0000
0101
0001
0010
,  // measure 51
0100
0010
0100
0000
1000
0000
0010
0000
,  // measure 52
0100
0010
0100
0001
1000
0000
0001
0010
,  // measure 53
0001
0000
1000
0010
1000
0000
0100
0000
,  // measure 54
1001
0000
0010
0000
0001
0000
1000
0010
,  // measure 55
1000
0000
0001
0100
0001
0000
1000
0001
,  // measure 56
0100
0010
1000
0000
0001
0010
0100
0000
,  // measure 57
0110
0000
0000
0110
0000
0000
2002
0000
0000
0000
0000
0000
3003
0000
0000
0000
,  // measure 58
1000
0000
0010
0000
0100
0001
0100
0000
,  // measure 59
0001
0010
0100
0000
0010
0100
1000
0000
,  // measure 60
2002
0000
0000
3003
,  // measure 61
0100
0000
0010
0000
1000
0010
1000
0000
,  // measure 62
0001
0000
0100
0000
0010
0100
0010
0000
,  // measure 63
1000
0000
0001
0000
1000
0100
1000
0000
,  // measure 64
0010
0000
0100
0000
0001
0010
0100
1000
;

//---------------dance-single - ----------------
#NOTES:
     dance-single:
     :
     Hard:
     13:
     0.607374,0.630610,0.228218,0.211313,0.540961,503.000000,476.000000,27.000000,25.000000,0.000000,0.000000,0.607374,0.630610,0.228218,0.211313,0.540961,503.000000,476.000000,27.000000,25.000000,0.000000,0.000000:
// measure 0
0000
0000
0000
0000
,  // measure 1
0000
0000
0000
0000
,  // measure 2
0000
0000
0000
0000
,  // measure 3
0000
0000
0000
0000
,  // measure 4
0000
0000
0000
0000
,  // measure 5
1000
0000
0010
0000
1000
0000
0001
0010
0000
0001
0100
0000
0010
0000
1000
0000
,  // measure 6
0001
0000
0010
0000
0001
0000
1000
0100
0000
1000
0010
0000
0100
0000
0001
0000
,  // measure 7
1000
0000
0010
0000
0100
0000
0001
0010
0000
0100
1000
0000
0010
0000
0100
0000
,  // measure 8
0001
0000
0010
0000
0100
0000
1000
0100
0000
0010
0001
0000
0100
0000
0010
0000
,  // measure 9
1000
0000
0001
0000
0100
0010
0100
0010
0000
0000
0000
0000
1001
0000
0000
0000
,  // measure 10
0100
0000
0010
0000
1000
0001
1000
0001
0000
0000
0000
0000
1001
0000
0000
0000
,  // measure 11
0110
0000
0000
0000
0010
1000
0010
1000
0000
0000
0000
0000
0101
0000
0000
0000
,  // measure 12
0010
0000
0001
0000
0100
0010
0000
1000
0100
0000
1000
0000
0001
0000
0000
0000
,  // measure 13
0100
0000
0010
0000
0100
0000
1000
0100
0000
0001
0100
0000
0001
0000
0010
0000
,  // measure 14
0001
0000
0100
0000
0010
1000
0000
0010
0100
0000
0001
0000
1000
0000
0100
0000
,  // measure 15
0010
0000
0100
0000
0010
0001
0000
0010
0100
0000
0010
0000
0001
0000
1000
0000
,  // measure 16
0001
0000
0100
0000
0001
0010
0000
0001
0100
0000
0010
0000
1000
0000
0100
0000
,  // measure 17
1000
0000
0001
0000
0100
0010
0000
0010
0100
0000
0001
0000
0010
0000
0100
0000
,  // measure 18
1000
0000
0001
0000
0010
0100
0000
0100
0010
0000
0001
0000
1000
0000
0100
0000
,  // measure 19
1000
0000
0010
0000
0100
0001
0000
0001
0100
0000
0001
0000
0010
0000
0100
0000
,  // measure 20
1000
0000
0100
0000
0010
0100
0000
0100
1000
0000
0001
0000
2002
0000
3003
0000
,  // measure 21
1000
0000
0010
0000
0100
0000
1000
0100
0000
0001
0010
0000
0100
0000
0010
0000
,  // measure 22
1000
0000
0010
0000
0001
0000
1000
0001
0000
0100
0010
0000
0001
0000
0010
0000
,  // measure 23
1000
0000
0100
0000
1000
0000
0001
0010
0000
0010
0001
0000
0100
0000
0010
0000
,  // measure 24
1000
0000
0100
0000
1000
0000
0010
0200
0000
0000
0001
0000
0301
1000
0010
0000
,  // measure 25
1000
0000
0001
0000
0100
0000
0001
0010
0000
0100
1000
0000
0010
0000
0100
0000
,  // measure 26
0001
0000
0010
0000
0100
0000
1000
0001
0000
0010
0100
0000
0200
0000
0320
0000
,  // measure 27
0031
0000
1000
0000
0010
0000
0100
0001
0000
1000
0001
0000
0010
0000
0100
0000
,  // measure 28
0020
0001
1000
0031
,  // measure 29
1001
0000
0001
0010
0001
1000
0010
1000
,  // measure 30
0001
0010
0001
1000
0010
1000
0001
0100
,  // measure 31
0001
0000
0000
1000
0000
0000
0100
0000
0000
1000
0000
0000
0010
0000
0000
0100
0000
0000
0010
0000
0100
0000
0010
0000
,  // measure 32
1000
0000
0001
0000
1000
0000
0001
0000
1000
0000
0001
0000
2000
0000
0000
3000
0000
0000
0110
0000
0000
0000
0000
0000
,  // measure 33
0001
0010
0100
0020
0000
0031
1000
0010
,  // measure 34
0100
0010
1000
0001
1001
0000
1000
0100
,  // measure 35
0010
0000
0000
0100
0000
0000
1000
0000
0001
0000
1000
0000
0001
0000
1000
0000
0001
0000
0100
0000
0010
0000
0100
0000
,  // measure 36
0010
0000
0000
0000
1010
0000
0000
0011
0000
0000
2020
0000
0030
0000
0000
0000
,  // measure 37
3001
0000
2200
0000
3000
0020
0300
0000
,  // measure 38
0031
0000
0000
0000
0101
0000
0000
1010
0000
0000
0220
0000
0030
0000
0000
0000
,  // measure 39
0301
0000
2020
0000
3000
0200
0030
0000
,  // measure 40
0301
0000
0000
0000
0010
0000
0000
0001
0000
0001
0010
0000
0100
0000
0000
0100
,  // measure 41
0000
0100
0010
0000
0001
0000
0000
0001
0000
0001
1000
0000
0010
0000
0000
0010
,  // measure 42
0000
0010
0100
0000
0001
0000
0000
0001
0010
0000
0000
0010
0100
0000
0000
0100
,  // measure 43
1000
0000
0000
1000
0001
0000
0100
0000
0010
0000
1000
0000
0010
0100
0010
0100
,  // measure 44
0001
0000
0000
1000
0000
0000
0001
0000
0000
1000
0000
0000
1000
0000
0000
0000
0001
0000
0000
0000
1000
0000
0000
0000
0010
0000
0000
0000
0100
0000
0000
0000
0010
0000
0000
0000
0000
0000
0000
0000
0000
0000
0000
0000
0000
0000
0000
0000
,  // measure 45
1001
0000
0000
0000
0001
0000
0010
0100
0000
0100
0010
0000
0001
0000
1000
0000
,  // measure 46
0010
0000
0100
0000
0001
0000
0100
0010
0000
0010
0100
0000
0001
0000
0100
0000
,  // measure 47
1000
0000
0100
0000
0001
0000
0010
0100
0000
0100
1000
0000
0001
0000
0010
0000
,  // measure 48
1000
0000
0010
0000
0001
0000
1000
0010
0000
0010
1000
0000
1001
0000
0000
0000
,  // measure 49
1000
0000
0010
0100
0000
0100
0010
0000
1000
0000
0000
0011
0000
0000
0001
0000
,  // measure 50
1000
0000
0010
0100
0000
0001
0010
0000
0002
0000
0000
1003
0000
1000
0010
0000
,  // measure 51
0100
0001
0000
0001
0010
0000
0100
0000
0010
0001
0000
1000
0100
0000
1000
0000
,  // measure 52
0001
0000
0100
0010
0200
0000
0300
0000
1001
0000
0000
0000
0001
0000
0100
0001
,  // measure 53
0000
0000
0010
0000
0100
0000
1000
0000
0001
0000
0100
0000
0010
0000
1000
0010
,  // measure 54
0000
1000
0010
0000
0100
0000
0001
0000
0100
0000
1000
0000
0100
0000
0001
0010
,  // measure 55
0000
0010
0001
0000
1000
0000
0100
0000
0001
0000
0100
0000
1000
0000
0010
0100
,  // measure 56
0000
0100
0010
0000
1001
0000
0000
0000
1000
0010
0000
0010
0100
0000
0001
0000
,  // measure 57
1001
0000
0000
0011
0000
0000
0220
0000
0000
0000
0330
0000
0100
0010
0100
0000
,  // measure 58
0010
0000
0000
0001
0000
0001
1000
0000
0100
1000
0000
0010
0100
0000
0001
0000
,  // measure 59
1000
0010
1000
0100
0000
0100
0000
0100
0000
0100
0001
0000
0000
0000
0000
0000
,  // measure 60
0220
0000
0000
0330
,  // measure 61
0001
0000
0100
0000
0001
0000
0010
1000
0000
1000
0010
0000
0001
0000
0000
0000
,  // measure 62
1000
0000
0100
0000
1000
0000
0010
0001
0000
0001
0010
0000
1000
0000
0000
0000
,  // measure 63
0010
0000
1000
0000
0010
0000
0100
0001
0000
0001
0100
0000
0002
0000
0000
0000
,  // measure 64
1003
0000
0100
0000
1000
0000
0001
0010
0000
0010
0001
0000
0101
0000
1010
0000
;
