#TITLE:LUV CAN SAVE U;
#SUBTITLE:;
#ARTIST:HIDEKI NAGANUMA;
#TITLETRANSLIT:;
#SUBTITLETRANSLIT:;
#ARTISTTRANSLIT:HIDEKI NAGANUMA;
#GENRE:NEO 80's EURO ELECTRO;
#CREDIT:;
#BANNER:LUV_CAN_SAVE_U_banner.png;
#BACKGROUND:LUV_CAN_SAVE_U.png;
#LYRICSPATH:;
#CDTITLE:;
#MUSIC:LUV CAN SAVE U.ogg;
#OFFSET:-0.120000;
#SAMPLESTART:40.619999;
#SAMPLELENGTH:15.000000;
#LASTBEATHINT:278.000000;
#SELECTABLE:YES;
#BPMS:0.000000=140.000000
;
#STOPS:
;
#BGCHANGES:;
#KEYSOUNDS:;
#ATTACKS:;

//---------------dance-single - ----------------
#NOTES:
     dance-single:
     :
     Easy:
     6:
     0.203003,0.216686,0.047106,0.109913,0.000000,181.000000,175.000000,6.000000,14.000000,0.000000,0.000000,0.203003,0.216686,0.047106,0.109913,0.000000,181.000000,175.000000,6.000000,14.000000,0.000000,0.000000:
0000
0000
0000
0000
,
0000
0000
0000
0000
,
0000
0000
0000
0000
,
0000
0000
0000
0000
,
0010
1000
0100
0000
,
0010
0001
0100
0000
,
0001
1000
0100
0000
,
1000
0001
0010
0000
,
0001
0010
0100
0000
,
0010
0100
1000
0000
,
1000
0000
0000
0001
0000
0000
1000
0000
,
0020
0000
0000
0000
0000
0030
0000
0000
,
0100
0001
0001
0000
,
1000
0100
0100
0000
,
0001
0010
0010
0000
,
1000
0000
1100
0000
,
0001
0100
0100
0000
,
1000
0010
0010
0000
,
1000
0010
0100
0001
,
2000
0000
3010
0000
,
0001
0000
0001
0010
,
0001
0000
1000
0100
,
1000
0000
0001
0000
,
0220
0000
0000
0000
0000
0330
0000
0000
,
1000
0000
0000
0010
0000
0000
1000
0000
,
0001
0000
0000
0100
0000
0000
0001
0000
,
1000
0000
0000
0001
0000
0000
1000
0000
,
0010
0000
0000
0100
0000
0000
0010
0000
,
1000
0100
1000
0000
,
0001
0010
0001
0000
,
1000
0000
0000
0001
0000
0000
0100
0000
,
0020
0000
0030
0000
,
0002
0000
0013
0000
,
0100
0000
0000
1000
0000
0000
0100
0000
,
2000
0000
3010
0000
,
0001
0100
0010
1000
,
0200
0000
0300
0000
,
0020
0000
0030
0000
,
0001
1000
0010
0100
,
0002
0000
1003
0000
,
0100
0010
1000
0000
,
0001
0010
0100
0000
,
1000
0100
0010
0000
,
0001
0000
1001
0000
,
0100
0001
1000
0000
,
0010
0100
0001
0000
,
1000
0100
0010
0000
,
0001
0000
0101
0000
,
1000
0010
0010
0000
,
0100
0001
0001
0000
,
0010
0100
0100
0000
,
1000
0000
1001
0000
,
0220
0000
0330
0000
,
1000
0000
0000
0001
0000
0000
1000
0000
,
0010
0000
0000
0100
0000
0000
0010
0000
,
1000
0000
0000
0100
0000
0000
1000
0000
,
0001
0000
0000
0010
0000
0000
0001
0000
,
1000
0100
0010
0000
,
0100
0010
0001
0000
,
1000
0000
0000
0001
0000
0000
1000
0000
,
0200
0000
0300
0000
,
0010
0000
0001
0001
,
1000
0000
0100
0100
,
0010
0000
1000
1000
,
0001
0000
0100
0100
,
0010
0000
0000
0010
0000
0000
0010
0000
,
1000
0000
0000
1000
0000
0000
1000
0000
,
0001
0000
0000
0001
0000
0000
0001
0000
,
0200
0000
0000
0310
,
0100
0000
0000
0000
;

//---------------dance-single - ----------------
#NOTES:
     dance-single:
     :
     Medium:
     9:
     0.397034,0.379201,0.125615,0.070659,0.105988,354.000000,338.000000,16.000000,9.000000,0.000000,0.000000,0.397034,0.379201,0.125615,0.070659,0.105988,354.000000,338.000000,16.000000,9.000000,0.000000,0.000000:
0000
0000
0000
0000
,
0000
0000
0000
0000
,
0000
0000
0000
0000
,
0000
0000
0000
0000
,
0001
0000
0000
0001
0000
0000
0010
0000
0000
0000
0001
0000
1000
0000
0000
0000
,
0100
0000
0000
0100
0000
0000
1000
0000
0000
0000
0010
0000
0100
0000
0000
0000
,
0010
0000
0000
0010
0000
0000
1000
0000
0000
0000
0001
0000
0100
0000
0000
0000
,
0010
0000
0000
1000
0000
0000
0001
0000
0010
0000
0000
0000
0110
0000
0000
0000
,
1000
0000
0000
0010
0000
0000
0100
0000
0000
0000
0001
0000
1000
0000
0000
0000
,
0001
0000
0000
0010
0000
0000
0100
0000
0000
0000
1000
0000
0001
0000
0000
0000
,
0010
0000
0000
0001
0000
0000
1000
0000
0000
0000
0000
0000
1010
0000
0000
0000
,
0100
0000
0001
0000
1000
0001
0100
0000
,
0001
0010
0001
0000
1000
0000
0010
0000
,
0100
0010
0100
0000
0001
0000
1000
0000
,
0010
0000
0000
0100
0000
0000
0010
0000
1000
0000
0100
0000
1000
0000
0000
0000
,
0001
0000
0000
0010
0000
0000
0001
0000
1000
0000
0000
0000
1001
0000
0000
0000
,
0001
0010
0001
0000
1000
0000
0010
0000
,
0100
0001
1000
0000
0100
0000
1000
0000
,
0010
0000
0000
0100
0000
0000
0001
0000
0010
0000
0100
0000
1000
0000
0000
0000
,
0001
0000
0000
1000
0000
0000
1001
0000
0000
0000
0100
0000
0010
0000
0000
0000
,
1000
0100
0100
0000
1000
0001
0010
0000
,
0001
0100
0100
0000
0001
1000
0010
0000
,
1000
0100
0100
0000
1000
0010
0100
0000
,
0001
0010
0010
0000
0220
0000
0330
0000
,
0001
0000
0000
0001
0000
0000
1000
0000
0000
0000
0010
0000
0100
0000
0000
0000
,
0010
0000
0000
1000
0000
0000
0001
0000
0000
0000
0010
0000
0100
0000
0000
0000
,
1000
0000
0000
1000
0000
0000
0010
0000
0000
0000
0100
0000
0001
0000
0000
0000
,
0010
0000
0000
0010
0000
0000
0001
0000
1000
0000
0100
0000
0010
0000
0000
0000
,
0110
0000
0000
0100
0000
0000
1000
0000
0000
0000
0001
0000
0100
0000
0000
0000
,
0010
0000
0000
1000
0000
0000
0001
0000
0000
0000
0010
0000
0100
0000
0000
0000
,
0010
0000
0000
0001
0000
0000
1000
0000
0000
0000
0010
0000
0100
0000
0000
0000
,
0001
0000
0000
1000
0000
0000
0001
0000
0100
0000
0010
0000
0100
0000
0000
0000
,
0002
0010
0000
1003
,
1000
0000
0010
0200
0000
0000
0301
0000
,
2001
0010
0000
3010
,
0100
0000
0001
0010
0000
0001
1000
0000
,
1200
0010
0000
0310
,
0001
0000
0100
0010
0000
0010
1000
0000
,
1002
0010
0000
0013
,
0100
0000
0010
0000
1000
0001
1000
0000
,
0001
0010
0001
0000
1000
0010
0100
0000
,
0010
1000
0000
1000
0001
0010
0100
0000
,
0010
0001
0000
0001
1000
0100
0010
0000
,
0001
0000
1000
0010
0100
0010
1000
0000
,
0010
0100
0000
0100
0001
1000
0001
0000
,
1000
0100
0000
0100
0010
0100
1000
0000
,
0001
0010
0000
0001
1000
0010
0100
0000
,
0001
0000
0000
1000
0000
0000
2002
0000
0000
0000
0000
0000
3003
0000
0000
0000
,
0010
0100
0100
0000
0001
1000
0100
0000
,
0010
0100
0100
0000
1000
0001
1000
0000
,
0001
0010
0010
0000
0001
1000
0100
0000
,
1000
0010
0010
0000
0100
0001
1000
0000
,
0001
0010
0100
1000
0001
0000
1001
0000
,
1000
0000
0000
0100
0000
0000
0010
0000
0000
0000
0100
0000
1000
0000
0000
0000
,
0001
0000
0000
0100
0000
0000
0010
0000
0000
0000
0100
0000
0001
0000
0000
0000
,
0100
0000
0000
0010
0000
0000
1000
0000
0000
0000
0010
0000
0100
0000
0000
0000
,
0010
0000
0000
1000
0000
0000
0001
0000
1000
0000
0100
0000
0010
0000
0000
0000
,
0001
0000
0100
0010
0000
0100
0001
1000
,
0000
0100
0010
0000
0001
0000
1001
0000
,
0100
0000
0000
0010
0000
0000
0110
0000
0000
0000
0000
0000
1000
0000
0000
0000
,
0001
0100
0010
1000
0100
0010
0001
0000
,
0100
0010
0010
0000
1000
0100
1000
0000
,
0001
0010
0010
0000
0001
0100
0001
0000
,
1000
0010
0010
0000
0100
0001
0100
0000
,
0001
0010
0010
0000
0100
1000
0100
0000
,
1000
0000
0000
0001
0000
0000
0010
0000
0000
0000
0000
0000
1001
0000
0000
0000
,
1000
0000
0000
0010
0000
0000
0100
0000
0000
0000
0000
0000
0110
0000
0000
0000
,
0001
0010
0001
0000
1000
0100
1000
0000
,
0010
0100
0001
1000
0100
0000
0001
0000
,
1100
0000
0000
0000
;

//---------------dance-single - ----------------
#NOTES:
     dance-single:
     :
     Hard:
     13:
     0.607888,0.595888,0.306187,0.157019,0.357219,542.000000,503.000000,39.000000,20.000000,0.000000,0.000000,0.607888,0.595888,0.306187,0.157019,0.357219,542.000000,503.000000,39.000000,20.000000,0.000000,0.000000:
// measure 0
0000
0000
0000
0000
,  // measure 1
0000
0000
0000
0000
,  // measure 2
0012
0000
0000
1000
0000
0000
1000
0000
0000
0000
0010
0000
0000
0013
0000
0000
,  // measure 3
2010
0000
0000
0001
0000
0000
0001
0000
0000
0000
0100
0000
3100
0000
0000
0000
,  // measure 4
1000
0000
0010
0100
0000
0010
0100
0000
0001
0000
0010
0000
0100
0000
0010
0000
,  // measure 5
0001
0000
0100
0010
0000
0100
0010
0000
1000
0000
0100
0000
0010
0000
0100
0000
,  // measure 6
1000
0000
0001
0010
0000
0001
1000
0000
0010
0000
0100
0000
0001
0000
1000
0000
,  // measure 7
0100
0000
1000
0001
0000
0100
0010
0000
1000
0000
0001
0000
0010
0000
0100
0000
,  // measure 8
1000
0000
0100
0010
0000
0010
0100
0000
1000
0000
0001
0000
0100
0000
0010
0000
,  // measure 9
0100
0000
0001
0010
0000
0010
0001
0000
1000
0000
0100
0000
0010
0000
0001
0000
,  // measure 10
1001
0000
0000
0101
0000
0000
1010
0000
0000
0000
0100
0000
0010
1000
0000
0000
,  // measure 11
0011
0000
0000
0001
1000
0000
0100
0000
0010
0000
0100
0000
1000
0000
0001
0000
,  // measure 12
0100
0010
1000
0100
2100
0000
3001
0000
,  // measure 13
0001
0100
0010
0100
0210
0000
0301
0000
,  // measure 14
0100
0000
0010
0000
1000
0001
0000
0001
0000
0000
0010
0000
0100
0000
0001
0000
,  // measure 15
0100
0000
1000
0000
0010
0100
0000
0100
0000
0000
0001
0000
1000
0000
0001
0000
,  // measure 16
0010
0100
1000
0001
0012
0000
1003
0000
,  // measure 17
0100
0010
0001
0100
1200
0000
0301
0000
,  // measure 18
1000
0000
0010
0000
0100
0010
0000
0010
0000
0000
1000
0000
0100
0000
0001
0000
,  // measure 19
0100
0000
0010
0000
0100
1000
0000
0000
0001
0000
0010
0000
0001
1000
0000
0000
,  // measure 20
0010
0000
0100
0010
0100
0000
0010
0000
1000
0000
0001
0000
1000
0000
0001
0000
,  // measure 21
1000
0000
0100
1000
0100
0000
0010
0000
0001
0000
0100
0000
0010
0000
0100
0000
,  // measure 22
0001
0000
0010
0001
0010
0000
0001
0000
1000
0000
0100
0000
0010
0000
0100
0000
,  // measure 23
1000
0000
0001
0000
0100
0010
0000
0000
0100
0000
0010
0000
0000
0010
0000
0000
,  // measure 24
1001
0000
0000
0100
0010
0000
1000
0000
0001
0000
0010
0000
1000
0000
0010
0000
,  // measure 25
0001
0000
0000
0100
0010
0000
0100
0000
0001
0000
1000
0000
0100
0000
1000
0000
,  // measure 26
0010
0000
0000
0100
0010
0000
1000
0000
0100
0000
0001
0000
0100
0000
1000
0000
,  // measure 27
0010
0000
0000
0110
0000
0000
1000
0000
0001
0100
0001
0000
1000
0000
0010
0000
,  // measure 28
0100
0000
0000
0100
0010
0000
1000
0000
0001
0000
0010
0000
1000
0000
0010
0000
,  // measure 29
0001
0000
0000
1000
0100
0000
1000
0000
0010
0000
0100
0000
0001
0000
0010
0000
,  // measure 30
0011
0000
0000
0110
0000
0000
2100
0000
0000
0000
0001
0000
3001
0000
0000
0000
,  // measure 31
0110
0000
0000
0010
1000
0000
0001
0000
0010
0000
0001
0000
1000
0100
0000
0000
,  // measure 32
2000
0010
0000
3010
,  // measure 33
0002
0000
0010
0010
0000
0100
0103
0000
,  // measure 34
0210
0010
0010
0000
0001
0000
0301
0000
,  // measure 35
1020
0000
0100
0100
0000
1000
1030
0000
,  // measure 36
0021
0000
0001
0000
0100
0100
0030
0200
,  // measure 37
1000
0000
1000
0000
0010
0010
0300
0001
,  // measure 38
2000
0000
0010
0000
0001
3001
0000
0100
,  // measure 39
0010
0000
1000
0000
0001
0000
0010
0000
0001
1000
0001
0000
0100
0010
0100
0000
,  // measure 40
0010
1000
0001
1000
2100
0000
3001
0000
,  // measure 41
0001
0010
0001
1000
1020
0000
0031
0000
,  // measure 42
0100
0000
0010
0000
0100
0001
0000
0001
0000
0000
0010
0000
0100
0000
1000
0000
,  // measure 43
0010
0000
1000
0000
0010
0100
0000
0100
0000
0000
0001
0000
1000
0000
0010
0000
,  // measure 44
0100
0000
0001
0000
0010
0001
0000
1001
0000
0000
0100
0000
0010
0000
0000
0000
,  // measure 45
1000
0000
0100
0000
1000
0010
0000
0110
0000
0000
0100
0000
0001
0000
0010
0000
,  // measure 46
0100
0000
1000
0000
0001
1000
0001
0000
0100
0000
0010
0000
1000
0001
1000
0000
,  // measure 47
0010
0000
0000
0110
0000
0000
1000
0000
0001
0000
0010
0000
0001
0100
0001
0000
,  // measure 48
1000
0000
0010
1000
0010
0000
0100
0001
0100
0000
0010
0000
0010
0000
0010
0000
,  // measure 49
1000
0000
0100
1000
0100
0000
0010
0001
0010
0000
0100
0000
0100
0000
0100
0000
,  // measure 50
1000
0000
0001
0010
0001
0000
1000
0100
1000
0000
0010
0000
0010
0000
0010
0000
,  // measure 51
0100
0000
0010
0100
0010
0000
1000
0001
1000
0000
0001
0000
0001
0000
0001
0000
,  // measure 52
0100
0000
0010
1000
0010
0000
0100
0001
0200
0000
0010
0000
0000
0310
0000
0000
,  // measure 53
0011
0000
0000
0001
1000
0000
0100
0000
0010
0000
0100
0000
1000
0000
0001
0000
,  // measure 54
0100
0000
0000
0100
0010
0000
1000
0000
0100
0000
0001
0000
0100
0000
1000
0000
,  // measure 55
0001
0000
0000
0101
0000
0000
0100
0000
0010
1000
0010
0000
0100
0000
0001
0000
,  // measure 56
0010
0000
0100
0000
1000
0001
0000
0001
0100
0000
0010
0000
0110
0000
0000
0000
,  // measure 57
2000
0000
0010
0010
0000
3010
0100
0001
,  // measure 58
0000
0012
0000
1000
0000
0100
0103
0000
,  // measure 59
1100
0000
0000
0110
0000
0000
0012
0000
0000
0000
1000
0000
1003
0000
0000
0000
,  // measure 60
0100
0000
0000
0110
0000
0000
1001
0000
0000
0000
0010
0000
0100
0010
0000
0000
,  // measure 61
1000
0000
0100
0010
0100
0000
1000
0100
1000
0000
0001
0000
0001
0000
0001
0000
,  // measure 62
0000
0000
0010
0001
0010
0000
0001
0100
0001
0000
1000
0000
1000
0000
1000
0000
,  // measure 63
0000
0000
0010
0100
0010
0000
1000
0001
1000
0000
0010
0000
0010
0000
0010
0000
,  // measure 64
0000
0000
0100
0001
0100
0000
0001
0010
0001
0000
1000
0000
1000
0000
1000
0000
,  // measure 65
0010
0000
0000
0110
0000
0000
0100
0000
0001
0000
1000
0000
0001
1000
0000
0000
,  // measure 66
0011
0000
0000
1001
0000
0000
0100
0000
0010
0000
1000
0000
0001
0100
0000
0000
,  // measure 67
0010
0000
1000
0001
1000
0000
0100
0000
0010
0000
0001
0000
0010
0100
0000
0000
,  // measure 68
1000
0000
0000
0101
0000
0000
0011
0000
0001
0000
1000
0000
0100
0010
0000
0000
,  // measure 69
1001
0000
0000
0000
;
