#TITLE:LOTUS;
#SUBTITLE:;
#ARTIST:dj TAKA feat. Nana Takahashi;
#TITLETRANSLIT:;
#SUBTITLETRANSLIT:;
#ARTISTTRANSLIT:;
#GENRE:;
#CREDIT:;
#BANNER:LOTUS_banner.png;
#BACKGROUND:LOTUS_bg.png;
#LYRICSPATH:;
#CDTITLE:;
#MUSIC:LOTUS.ogg;
#OFFSET:-0.700000;
#SAMPLESTART:97.260002;
#SAMPLELENGTH:12.370000;
#LASTBEATHINT:316.000000;
#SELECTABLE:YES;
#BPMS:0.000000=160.000000
;
#STOPS:60.000000=1.125000,
157.000000=1.125000,
250.000000=1.125000
;
#BGCHANGES:;
#KEYSOUNDS:;
#ATTACKS:;

//---------------dance-single - ----------------
#NOTES:
     dance-single:
     :
     Easy:
     6:
     0.235621,0.247796,0.102591,0.173615,0.000000,209.000000,196.000000,13.000000,22.000000,0.000000,0.000000,0.235621,0.247796,0.102591,0.173615,0.000000,209.000000,196.000000,13.000000,22.000000,0.000000,0.000000:
// measure 0
0000
0000
0000
0000
,  // measure 1
0000
0000
0000
0000
,  // measure 2
0000
0000
0000
0000
,  // measure 3
0000
0000
0000
0000
,  // measure 4
1000
0000
0010
1000
,  // measure 5
0001
0000
0100
0000
,  // measure 6
0001
0000
0010
0100
,  // measure 7
1000
0000
2002
3003
,  // measure 8
0010
0000
0100
0001
,  // measure 9
0100
0000
0010
1000
,  // measure 10
0100
0000
0010
0001
,  // measure 11
1000
0000
0110
0000
,  // measure 12
0001
0100
0001
0000
,  // measure 13
1000
0100
1000
0000
,  // measure 14
0020
0000
0130
0010
,  // measure 15
1001
0100
0000
0010
,  // measure 16
0100
0001
0000
0001
,  // measure 17
0010
0100
0000
1000
,  // measure 18
0000
0010
0000
0010
,  // measure 19
0110
0100
0000
0001
,  // measure 20
0010
0001
0000
1000
,  // measure 21
0100
1000
0000
0010
,  // measure 22
0100
0000
0010
0000
0000
0010
0000
0000
,  // measure 23
0010
2000
0000
3001
,  // measure 24
0010
0001
0000
0100
,  // measure 25
0010
2000
0000
3000
,  // measure 26
0000
0002
0000
0103
,  // measure 27
0010
0100
0000
0001
,  // measure 28
1000
0001
0000
1000
,  // measure 29
0100
2000
0000
3010
,  // measure 30
0000
0002
0000
0103
,  // measure 31
0000
0010
0100
0001
,  // measure 32
0000
0010
0100
1000
,  // measure 33
0000
2002
0000
3003
,  // measure 34
0000
0100
0000
0010
,  // measure 35
0100
0001
0000
1000
,  // measure 36
0100
0010
0000
0100
,  // measure 37
1000
0001
0000
0001
,  // measure 38
0000
1000
0010
0100
,  // measure 39
0001
0010
0001
0000
,  // measure 40
0001
1000
0100
0000
,  // measure 41
1000
0001
0100
0000
,  // measure 42
0010
0100
0220
0000
,  // measure 43
0330
0000
1000
0100
,  // measure 44
1000
0000
0001
0010
,  // measure 45
0001
0000
0100
0000
,  // measure 46
0010
1000
2002
0000
,  // measure 47
3003
0000
0010
0001
,  // measure 48
0010
0000
0100
1000
,  // measure 49
0100
0000
2000
0000
,  // measure 50
3001
0100
0010
0000
,  // measure 51
0010
0000
0100
0001
,  // measure 52
0010
0000
0100
1000
,  // measure 53
0010
0000
0100
0000
,  // measure 54
0001
1000
2002
0000
,  // measure 55
3003
0000
0010
0000
,  // measure 56
0010
0100
0001
0000
,  // measure 57
0011
0000
1000
0000
,  // measure 58
0010
1000
0200
0000
,  // measure 59
0300
0000
1000
0000
,  // measure 60
0010
0100
0010
0000
,  // measure 61
1000
0000
0001
0000
,  // measure 62
0100
0000
0110
1000
,  // measure 63
0000
0010
1000
0100
,  // measure 64
0000
1000
0010
0100
,  // measure 65
0000
0001
0000
0202
,  // measure 66
0000
0303
0000
0010
,  // measure 67
0100
0001
0000
0010
,  // measure 68
0001
0100
0000
0001
,  // measure 69
0000
1000
0001
2002
,  // measure 70
0000
3003
0000
0100
,  // measure 71
0000
0010
0100
0001
,  // measure 72
0000
0001
0010
0100
,  // measure 73
0000
0100
1000
0001
,  // measure 74
0000
1001
0000
1000
,  // measure 75
0010
0100
0000
0001
,  // measure 76
0010
0100
0000
1000
,  // measure 77
0000
0001
0000
0100
,  // measure 78
0000
0100
0000
0000
0100
0000
0000
0000
;

//---------------dance-single - ----------------
#NOTES:
     dance-single:
     :
     Medium:
     11:
     0.426146,0.435024,0.142049,0.236748,0.074970,378.000000,360.000000,18.000000,30.000000,0.000000,0.000000,0.426146,0.435024,0.142049,0.236748,0.074970,378.000000,360.000000,18.000000,30.000000,0.000000,0.000000:
// measure 0
0000
0000
0000
0000
,  // measure 1
0000
0000
0000
0000
,  // measure 2
0000
0000
0000
0000
,  // measure 3
0000
0000
0000
0000
,  // measure 4
2001
0010
0000
0010
,  // measure 5
3002
0100
0000
0100
,  // measure 6
1003
0010
0100
0000
0001
0010
0100
1000
,  // measure 7
0010
0100
0220
0330
,  // measure 8
0001
0000
0010
0001
0000
1000
0100
0000
,  // measure 9
1000
0000
0010
1000
0000
0001
0100
0000
,  // measure 10
0010
0000
0100
0001
0000
0100
0010
0000
,  // measure 11
1000
0000
0100
0010
0001
0000
1001
0000
,  // measure 12
0100
0000
0010
1000
0000
0010
1000
0000
,  // measure 13
0001
0000
0010
0001
0000
0010
0001
0000
,  // measure 14
1000
0010
0100
0000
0001
0010
0100
1000
,  // measure 15
0010
0000
0010
0000
0010
0100
0001
0000
,  // measure 16
0010
0200
0000
0000
0000
1300
0010
0000
,  // measure 17
0100
0000
0010
0000
1000
0100
1000
0000
,  // measure 18
0001
0000
0010
0001
1000
0001
0100
0000
,  // measure 19
0110
0000
0010
0000
1000
0001
0010
0000
,  // measure 20
0001
0000
1000
0100
1000
0000
0001
0100
,  // measure 21
0001
0000
0010
0000
0001
0100
0010
0000
,  // measure 22
1000
0000
0000
0000
0010
0000
0000
0100
0000
0000
0010
0000
0000
0100
0000
0000
,  // measure 23
0002
0000
1003
0000
0010
0000
1000
0100
,  // measure 24
0010
0000
0001
0000
0100
0000
0001
0010
,  // measure 25
0100
0000
1000
0000
0010
0000
0100
0010
,  // measure 26
1000
0000
0100
0000
0010
0001
0000
1000
,  // measure 27
0001
0000
0100
0000
0001
0000
0010
0001
,  // measure 28
0100
0000
0010
0000
1000
0000
0100
1000
,  // measure 29
0001
0000
0100
0000
0010
0100
0010
0000
,  // measure 30
1000
0000
0220
0000
0000
0330
0000
0000
,  // measure 31
0000
0000
0001
0100
0010
0100
0000
0001
,  // measure 32
0010
0000
0100
1000
0100
0010
0000
0001
,  // measure 33
1000
0010
0210
0002
,  // measure 34
0303
0000
0010
0100
1000
0001
0000
0100
,  // measure 35
0001
0000
1010
0000
0100
0000
0010
1000
,  // measure 36
0100
1000
0000
0010
0100
0000
0001
0000
,  // measure 37
0010
0000
0000
0000
0001
0000
0000
0100
0000
0000
0010
0000
0000
0000
0010
0000
,  // measure 38
1000
0000
0100
1000
0010
0100
0000
0001
,  // measure 39
1000
0000
0000
0000
1001
0000
0000
0000
0010
0000
0000
0100
0000
0000
0010
0000
,  // measure 40
0000
1000
0100
1000
0000
0001
0100
0000
,  // measure 41
0010
0000
0000
0100
0000
0000
0001
0000
0020
0000
0000
0000
0000
0000
0130
0000
,  // measure 42
1000
0001
0100
0000
0220
0000
0000
0330
,  // measure 43
0000
0000
0000
0000
0000
0000
0000
0000
1000
0000
0000
0010
0000
0000
0100
0000
,  // measure 44
0000
0000
0010
0000
1000
0000
0000
0000
0001
0000
0000
0010
0000
0000
0100
0000
,  // measure 45
0000
0010
0001
1000
0000
1000
0010
0000
,  // measure 46
0100
0000
0010
0000
1000
0000
0001
0000
0010
0000
0000
0010
0000
0000
0010
0000
,  // measure 47
0000
0001
1000
0000
0010
0100
0001
0100
,  // measure 48
0010
0000
1000
0100
0000
1000
0010
0000
,  // measure 49
1000
0000
0001
0100
0010
0000
0010
1000
,  // measure 50
0100
0010
0001
0000
2002
0000
0000
3003
,  // measure 51
0000
0000
0000
0000
0000
0000
0000
0000
0100
0000
0000
0010
0000
0000
0100
0000
,  // measure 52
0000
0000
0001
0000
0010
0000
0000
0000
0001
0000
0000
1000
0000
0000
0100
0000
,  // measure 53
0000
1000
0010
0100
0000
0100
0001
0000
,  // measure 54
0010
0000
0001
0000
0100
0000
0010
0000
1000
0000
0000
0001
0000
0000
1000
0000
,  // measure 55
0020
0030
0100
0001
,  // measure 56
0100
0000
1000
0000
0200
0000
0000
0310
,  // measure 57
1000
0000
0000
0000
0100
0000
0010
0001
,  // measure 58
0000
1000
0000
2002
0000
0000
0000
0000
,  // measure 59
3003
0000
0000
0000
0000
0000
0000
0000
0010
0000
0000
0100
0000
0000
0001
0000
,  // measure 60
0000
0010
0100
0000
0020
0000
0000
0130
,  // measure 61
1000
0000
0000
0001
1000
0100
1000
0000
,  // measure 62
0001
0000
0100
0000
0001
0000
0000
0000
0110
0000
0000
0000
1000
0000
0000
0100
,  // measure 63
0000
0010
0000
0001
1000
0010
0000
0010
,  // measure 64
0100
0000
0000
0000
0001
0000
0000
0010
0000
0000
0100
0000
2000
0000
0000
0000
,  // measure 65
0000
3001
0100
0010
0100
0000
0220
0000
,  // measure 66
0000
0000
0330
0000
0000
0000
0000
0000
0000
0000
0000
0000
0001
0000
0000
0100
,  // measure 67
0000
0000
0010
0000
0000
0000
1000
0000
0100
0000
0000
0000
1000
0000
0000
0010
,  // measure 68
0000
0100
0000
0001
0010
0001
0000
1000
,  // measure 69
0100
0000
0010
0000
0001
0000
0100
0000
0010
0000
0000
0000
1000
0000
0000
0001
,  // measure 70
0000
1000
0000
0010
0010
0000
0100
0010
,  // measure 71
1000
0000
0100
1000
0010
0200
0000
0000
,  // measure 72
0000
0301
0010
0001
1000
0000
0010
0000
,  // measure 73
0100
0001
0100
0010
0100
0000
0010
1000
,  // measure 74
0100
0000
0010
0001
1000
0000
0010
0000
,  // measure 75
1000
0100
1000
0000
0001
0000
0011
0000
,  // measure 76
1000
0001
1000
0000
1001
0000
2020
0000
,  // measure 77
3030
0000
0000
0000
0022
0000
0000
0000
0033
0000
0000
0000
0100
0000
0000
0010
,  // measure 78
0000
0000
0100
0000
0000
0001
0000
0000
2002
0000
0000
0000
3003
0000
0000
0000
;

//---------------dance-single - ----------------
#NOTES:
     dance-single:
     :
     Hard:
     15:
     0.753084,0.776829,0.276206,0.197290,0.509008,668.000000,633.000000,35.000000,25.000000,0.000000,0.000000,0.753084,0.776829,0.276206,0.197290,0.509008,668.000000,633.000000,35.000000,25.000000,0.000000,0.000000:
// measure 0
0000
0000
0000
0000
,  // measure 1
0000
0000
0000
0000
,  // measure 2
0000
0000
0000
0000
,  // measure 3
0000
0000
0000
0000
,  // measure 4
0002
0100
0000
0010
0000
0103
0010
1000
,  // measure 5
0200
1000
0000
0010
0000
1000
0000
0310
,  // measure 6
0001
0000
0100
0000
0010
0000
0100
0000
0001
0000
0010
0100
1000
0000
0010
0000
,  // measure 7
1000
0001
0100
0001
1000
0000
0000
0000
0220
0000
0000
0000
0330
0000
0000
0000
,  // measure 8
0001
0100
0010
0000
0100
0000
0001
0010
0000
0100
1000
0000
0010
0000
1000
0000
,  // measure 9
0010
0100
0001
0000
1000
0000
0010
0100
0000
0100
0010
0000
1000
0000
0001
0000
,  // measure 10
1000
0100
0010
0000
0001
0000
0100
0001
0000
1000
0010
0000
0100
0000
0001
0000
,  // measure 11
0010
0100
1000
0000
0010
0000
1000
0001
0000
0001
1000
0000
0010
0100
0000
0010
,  // measure 12
0100
0001
0010
0000
0100
0000
1000
0010
0000
0010
1000
0000
0001
0000
0100
0000
,  // measure 13
0001
1000
0100
0000
0010
0000
0001
1000
0000
1000
0001
0000
0100
0000
0010
0000
,  // measure 14
1000
0000
0100
0000
0010
0000
0001
0000
1000
0010
0100
0001
0010
0100
1000
0010
,  // measure 15
0200
0300
0000
0000
0000
0000
0000
0000
0001
0000
0000
0000
0010
0000
0001
0000
0010
0000
0000
0000
0100
0000
1000
0000
0100
0000
0000
0000
1000
0000
0010
0000
,  // measure 16
1000
0000
0002
0000
0000
0000
0010
0000
0003
0000
0001
0100
0001
0000
1000
0010
,  // measure 17
1000
0000
0001
0000
1000
0000
0100
0000
1000
0010
0100
0000
0001
0000
0010
0000
,  // measure 18
0001
0100
0010
0000
1000
0100
1000
0100
1000
0000
0010
0100
0000
0010
0100
0000
,  // measure 19
0002
0000
0000
0000
0013
0000
0100
1000
0010
0000
0100
0000
0001
0000
0010
0001
,  // measure 20
1000
0000
0010
0000
0100
0000
0001
0010
0100
0000
1000
0000
0010
0100
0001
0000
,  // measure 21
1000
0000
0010
0000
0110
0000
0000
0000
0001
1000
0100
0000
1000
0000
0010
0000
,  // measure 22
0100
0001
1000
0000
1010
0000
0000
0011
0000
0000
1100
0000
0000
0101
0000
0000
,  // measure 23
1001
0001
0100
0000
0110
0000
0010
1000
,  // measure 24
0100
0010
0000
0010
0001
0100
0001
0010
,  // measure 25
0100
1000
0010
0100
0001
0000
0001
0010
,  // measure 26
0100
1000
0010
1000
0001
0010
0001
1000
,  // measure 27
0001
0010
0100
0000
1100
0000
1000
0010
,  // measure 28
0100
0001
0010
0001
0100
0010
0000
0010
,  // measure 29
1000
0001
0010
0001
0100
1000
0100
0001
,  // measure 30
1000
0000
0100
0000
0020
0000
0000
0000
0001
0000
0031
0000
1000
0010
0000
0010
,  // measure 31
0100
0001
0010
1000
0010
0001
0100
0010
,  // measure 32
1000
0000
0100
0000
0001
0000
0100
1000
0000
0001
0100
0000
0010
0000
0100
0000
,  // measure 33
0001
1000
0010
0100
0110
0000
1001
0001
,  // measure 34
0010
0000
0100
0000
1000
0000
0010
0000
1000
0000
0100
0000
1000
0010
0100
0000
,  // measure 35
0002
0000
0013
0100
1000
0100
0010
0001
,  // measure 36
0100
0010
0100
0001
0001
1000
1000
0010
,  // measure 37
0100
0000
0001
0000
1001
0000
0000
1100
0000
0000
0011
0000
0000
0000
0001
0000
,  // measure 38
1000
0010
1000
0000
0001
0100
0000
0100
0010
0000
1000
0000
0001
0010
0100
1000
,  // measure 39
0001
0000
0010
0000
0100
0000
1000
0000
0020
0030
0000
0000
0000
0000
0000
0000
0110
0000
0000
0000
0100
0000
0001
0000
0000
0000
1000
0000
0010
0000
0000
0000
,  // measure 40
1000
0000
0100
0000
0010
0000
0001
0000
1000
0000
0010
0100
0010
0000
1000
0000
,  // measure 41
0001
0000
0010
0100
0000
0000
0100
1000
0002
0000
0000
0000
1003
0000
0010
0000
,  // measure 42
0100
0000
0001
0010
0100
0000
1000
0000
0020
0000
0000
0000
0000
0000
0000
0000
,  // measure 43
0130
0000
0001
0000
1000
0000
0100
0000
1000
0000
0010
0100
0000
0010
0100
0000
,  // measure 44
0001
0000
0010
0000
0100
0000
1000
0000
0100
0000
0010
0100
0000
0010
0100
0000
,  // measure 45
1000
0000
0001
0000
0100
0000
0010
0000
1000
0000
0001
0010
0001
0000
1000
0000
,  // measure 46
0010
0000
1000
0100
1000
0000
0001
0000
0011
0000
0000
1100
0000
0000
1001
0000
,  // measure 47
0000
0000
0010
0000
0100
0010
0100
0010
0100
0000
0001
0000
0010
0000
0100
1000
,  // measure 48
0001
0000
1000
0000
0010
0000
0100
0001
0010
0000
0100
0000
0010
0000
0001
1000
,  // measure 49
0100
0000
0000
0000
0011
0000
0001
0000
1000
0000
0010
0000
0100
0000
0010
1000
,  // measure 50
0001
0000
0010
0000
0001
0000
0100
0010
0200
0000
0000
0000
0001
0000
0000
0000
,  // measure 51
0310
0000
1000
0000
0100
0000
1000
0010
1000
0000
0001
0100
0000
0001
0100
0000
,  // measure 52
0010
0000
1000
0000
0100
0000
0010
0001
0010
0000
0100
1000
0000
0100
1000
0000
,  // measure 53
0010
0000
1000
0000
0001
0000
0100
0010
1000
0000
0100
0000
0010
0000
0001
1000
,  // measure 54
0100
0000
1000
0000
0010
0000
0100
0001
0010
0000
0000
1001
0000
0000
0110
0000
,  // measure 55
2002
3003
0100
0101
,  // measure 56
0010
0000
0100
0000
0001
0000
0010
0100
0020
0000
0000
0000
0031
0000
1000
0100
,  // measure 57
2000
0000
3010
0100
0010
0000
0010
1000
,  // measure 58
0100
0010
0001
0100
0020
0000
1000
0000
,  // measure 59
0130
0000
0001
0000
0010
0000
0100
0000
1000
0000
0010
0000
0100
0000
0010
1000
,  // measure 60
0100
0000
1000
0000
0001
0000
0100
0000
0010
0000
0100
0000
0001
0000
0100
0001
,  // measure 61
0010
0100
1000
0000
0110
0000
0001
0010
,  // measure 62
0110
0000
0000
0000
0000
0000
0000
0000
1000
0000
0000
0000
0010
0000
0000
0000
0220
0330
0000
0000
0000
0000
0000
0000
0001
0000
0000
0000
0100
0000
0010
0000
,  // measure 63
0000
1000
0100
0000
1000
0000
0001
0000
0010
0000
0001
0100
0010
0000
1000
0000
,  // measure 64
0100
0000
1000
0001
0010
0000
0001
0000
0000
0000
0001
0100
0010
0000
1000
0000
,  // measure 65
0010
0000
0100
0000
0001
0000
0010
0100
1000
0000
0010
0000
0200
0000
0000
0000
,  // measure 66
0000
0000
0000
0000
0310
0000
1000
0000
0100
0000
0010
0000
0001
0000
1000
0010
,  // measure 67
0000
0100
0001
0000
0010
0100
1000
0000
0001
0000
1000
0000
0100
0000
0010
0001
,  // measure 68
0000
0100
0010
0000
1000
0010
0100
0000
0001
0000
0010
0000
0001
0000
0001
0000
,  // measure 69
1000
0000
1000
0000
0010
0000
0100
0001
0100
0000
0010
0000
1010
0000
0000
1100
,  // measure 70
0000
0000
0011
0000
0001
0000
1000
0000
0100
0010
0001
0000
0100
0000
0001
0010
,  // measure 71
0001
0000
1000
0100
1000
0000
0010
0100
0010
0000
2000
0000
0000
0000
0001
0000
,  // measure 72
3000
0000
0001
0010
0100
0000
0010
0100
1000
0000
0010
0000
1000
0000
0100
0000
,  // measure 73
1000
0001
0010
0000
0001
0000
1000
0000
0001
1000
0100
0000
0010
0001
0010
0001
,  // measure 74
0010
0000
0001
0100
0000
0010
1000
0000
0100
1000
0001
0000
0100
0000
0010
0100
,  // measure 75
0001
0000
0010
0100
1000
0000
0001
1000
0010
0000
0100
0000
0001
0000
0010
0100
,  // measure 76
1000
0000
0010
0000
1000
0100
0010
0000
0001
0000
0100
0000
0110
0000
0000
0000
,  // measure 77
0001
1000
0001
0000
0200
0000
0000
0000
0310
1000
0100
0000
0110
0000
0000
0011
,  // measure 78
0000
0000
1100
0000
0000
1001
0000
0000
0220
0000
0000
0000
0330
0000
0000
0000
;
