#TITLE:L'eternita;
#SUBTITLE:;
#ARTIST:Celia;
#TITLETRANSLIT:;
#SUBTITLETRANSLIT:;
#ARTISTTRANSLIT:;
#GENRE:JAZZ ARIA;
#CREDIT:;
#BANNER:L'eternita_banner.png;
#BACKGROUND:L'eternita.png;
#LYRICSPATH:;
#CDTITLE:;
#MUSIC:L'eternita.ogg;
#OFFSET:-0.900000;
#SAMPLESTART:29.230000;
#SAMPLELENGTH:12.000000;
#LASTBEATHINT:359.001221;
#SELECTABLE:YES;
#BPMS:0.000000=144.000000
,128.000000=216.000000
;
#STOPS:332.000000=0.833000
;
#BGCHANGES:;
#KEYSOUNDS:;
#ATTACKS:;

//---------------dance-single - ----------------
#NOTES:
     dance-single:
     :
     Easy:
     6:
     0.164793,0.237057,0.081236,0.073112,0.000000,142.000000,132.000000,10.000000,9.000000,0.000000,0.000000,0.164793,0.237057,0.081236,0.073112,0.000000,142.000000,132.000000,10.000000,9.000000,0.000000,0.000000:
0000
0000
0000
0000
,
0000
0000
0000
0000
,
0000
0000
0000
0000
,
1000
0000
0100
0000
,
1000
0000
0001
0000
,
0200
0000
0000
0300
,
0010
0000
0100
0000
,
0002
0000
0000
0003
,
1000
0000
0010
0000
,
0100
0000
0000
0000
,
0001
0000
0000
0000
,
0010
0000
0000
0000
,
0100
0000
0000
0000
,
1000
0000
0010
0000
,
1000
0000
0100
0000
,
0010
0000
0001
0000
,
0100
0000
0010
0000
,
2002
0000
3003
0000
,
0000
0100
0001
0010
,
0100
0000
1000
0000
,
0000
0010
1000
0100
,
0010
0000
0001
0000
,
1000
0000
0100
0000
,
1000
0000
0001
0000
,
0100
0000
0010
0000
,
2002
0000
3003
0000
,
0010
0000
0010
0000
,
2002
0000
3003
0000
,
0100
0000
0100
0000
,
0001
0000
0010
0001
,
0010
0000
0100
1000
,
0100
0000
1000
0000
,
0020
0000
0000
0130
,
0000
0000
0110
0000
,
0000
0000
0000
0000
,
0001
0000
0000
0010
,
0000
0000
0001
0000
,
0000
1000
0000
0000
,
0010
0000
0000
1000
,
0000
0000
0100
0000
,
0000
1000
0000
0000
,
0010
0000
0000
1000
,
0000
0000
0001
0000
,
0000
0010
0000
0000
,
0100
0000
0000
1000
,
0000
0000
0010
0000
,
0000
0100
0000
0000
,
0110
0000
0000
0001
,
0000
0000
1000
0000
,
0000
0100
0000
0000
,
1000
0000
0000
0010
,
0000
0000
1000
0000
,
0000
0001
0000
0000
,
0010
0000
0000
0001
,
0000
0000
0100
0000
,
0000
0010
0000
0000
,
0100
0000
0000
0001
,
0000
0000
0010
0000
,
0000
0100
0000
0000
,
1001
0000
0000
0010
,
0000
0000
0100
0000
,
0000
0001
0000
0000
,
1000
0000
0000
0100
,
0000
0000
0010
0000
,
0000
0001
0000
0000
,
1001
0000
0000
0010
,
0000
0000
0001
0000
,
0000
1000
0000
0000
,
0100
0000
0000
1000
,
0000
0000
0010
0000
,
0000
0100
0000
0000
,
0001
0000
0010
0001
,
0000
0000
1000
0000
,
0100
1000
0000
0000
,
0001
0000
0100
0001
,
0000
0000
1000
0000
,
0010
1000
0000
0000
,
0110
0000
0001
0100
,
0000
0000
0110
0000
,
1000
0010
0000
0000
,
1001
0000
0010
0100
,
0000
0001
0010
0000
,
0001
1000
0100
1000
,
0000
0000
0000
0010
0000
0000
0000
0000
;

//---------------dance-single - ----------------
#NOTES:
     dance-single:
     :
     Medium:
     11:
     0.360920,0.436238,0.203090,0.243708,0.000000,311.000000,286.000000,25.000000,30.000000,0.000000,0.000000,0.360920,0.436238,0.203090,0.243708,0.000000,311.000000,286.000000,25.000000,30.000000,0.000000,0.000000:
// measure 0
0000
0000
0000
0000
,  // measure 1
0000
0000
0000
0000
,  // measure 2
0000
0000
0000
0000
,  // measure 3
0001
0000
0010
0100
1000
0000
0010
0000
,  // measure 4
1000
0000
0010
0100
0001
0000
1001
0000
,  // measure 5
0020
0000
0130
1000
,  // measure 6
0010
0100
0001
0010
,  // measure 7
0012
0000
1003
0010
,  // measure 8
1000
0000
0010
0100
0001
0000
0010
0000
,  // measure 9
0012
0000
1003
0100
,  // measure 10
2100
0000
3010
0100
,  // measure 11
0010
0000
1000
0100
1000
0000
0010
0000
,  // measure 12
0100
0000
0001
0010
0001
0000
1000
0000
,  // measure 13
0001
0000
1000
0100
0010
0000
0100
0000
,  // measure 14
1000
0000
0010
0100
0001
0000
0010
0000
,  // measure 15
0002
0000
0000
0000
1003
0010
1000
0000
,  // measure 16
0001
1000
0110
0000
,  // measure 17
1000
0000
0100
0010
0001
0000
0100
0000
,  // measure 18
0001
0000
0010
0100
1000
0000
0010
0000
,  // measure 19
0100
0000
0010
1000
0010
0000
0100
0000
,  // measure 20
0001
0000
0010
0100
0010
0000
0001
0000
,  // measure 21
2000
0000
0000
0000
3010
0100
0010
0000
,  // measure 22
1000
0100
0010
0001
,  // measure 23
0200
0000
0000
0000
0310
1000
0100
0000
,  // measure 24
1000
0000
0001
0000
0010
0100
1000
0000
,  // measure 25
1002
0000
0103
0010
,  // measure 26
0210
0000
0301
0010
,  // measure 27
0012
0000
1003
0100
,  // measure 28
2010
0000
3001
0010
,  // measure 29
0001
0100
0001
0000
1000
0000
0010
0000
,  // measure 30
1000
0100
1000
0000
0001
0000
0100
0000
,  // measure 31
0010
0000
0100
0001
0100
0000
0010
0000
,  // measure 32
2000
0000
0000
3001
,  // measure 33
0000
0000
0220
0000
,  // measure 34
0000
0330
0000
0000
,  // measure 35
1001
0000
0000
0010
0000
0000
0011
0000
,  // measure 36
0000
0001
0000
1000
0100
0000
0000
1000
,  // measure 37
0000
0000
0010
0000
0000
0100
0000
0000
,  // measure 38
0110
0000
0000
0001
0000
0010
0001
0000
,  // measure 39
1000
0000
0000
0010
1000
0000
0100
1000
,  // measure 40
0000
0010
0200
0000
0000
0301
0000
0000
,  // measure 41
0011
0000
0000
0100
0000
0000
1000
0000
,  // measure 42
0000
0010
0000
0100
0010
0000
1000
0001
,  // measure 43
0000
0000
0010
0000
0001
0100
0000
0000
,  // measure 44
0010
0000
1000
0001
0000
1000
0001
0000
,  // measure 45
1000
0001
0000
0000
0100
0000
0010
0100
,  // measure 46
0000
0010
0100
0000
0000
0001
0000
0000
,  // measure 47
1010
0000
0000
1000
0000
0100
1000
0000
,  // measure 48
0000
0010
0000
0000
1000
0000
0000
0001
,  // measure 49
0000
0100
0001
0000
0000
0101
0000
0000
,  // measure 50
0010
0000
0001
0010
0000
0000
0100
0000
,  // measure 51
1000
0010
0000
0000
1000
0000
0000
0001
,  // measure 52
0000
0100
0010
0000
0000
0110
0000
0000
,  // measure 53
1000
0000
0000
0100
0000
0000
0010
0000
,  // measure 54
0000
0001
0000
0000
0100
0000
0000
0010
,  // measure 55
0000
0000
1000
0000
0000
0001
0000
0000
,  // measure 56
1001
0000
0000
0110
,  // measure 57
0000
0000
2002
0000
,  // measure 58
0000
3003
0000
0000
,  // measure 59
0010
0000
0100
0010
0000
0000
1000
0000
,  // measure 60
0100
1000
0000
0000
0001
0000
0010
0001
,  // measure 61
0000
0000
1000
0000
0010
1000
0000
0000
,  // measure 62
0001
0000
0000
0100
0000
0001
0010
0000
,  // measure 63
0000
0001
0000
0000
1000
0000
0000
0010
,  // measure 64
0000
1000
0100
0000
0000
1000
0000
0000
,  // measure 65
0001
0010
0100
1000
,  // measure 66
0010
0100
0010
1000
,  // measure 67
0100
0000
2000
0000
0000
3001
0000
0000
,  // measure 68
0100
0010
1000
0100
,  // measure 69
0010
0001
0100
0001
,  // measure 70
0010
0000
2200
0000
0000
3300
0000
0000
,  // measure 71
1000
0010
0100
0202
,  // measure 72
0000
0303
0000
0000
0001
0000
0010
0000
,  // measure 73
0100
0000
2200
0000
0000
3300
0000
0000
,  // measure 74
0010
1000
0001
0220
,  // measure 75
0000
0330
0000
0000
0100
0000
0001
0000
,  // measure 76
0010
0001
1000
0010
,  // measure 77
1000
0001
0010
0002
,  // measure 78
0000
0103
0010
1000
,  // measure 79
0100
2000
0000
3001
,  // measure 80
0100
0010
1000
0001
,  // measure 81
0010
0100
1000
0100
,  // measure 82
0001
0100
1000
0010
,  // measure 83
0000
0000
0000
0220
0000
0000
0000
0000
,  // measure 84
0000
0000
0000
0000
,  // measure 85
0000
0000
0000
0000
,  // measure 86
0000
0000
0000
0000
,  // measure 87
0000
0000
0000
0000
,  // measure 88
0000
0000
0000
0000
,  // measure 89
0000
0000
0330
0000
;

//---------------dance-single - ----------------
#NOTES:
     dance-single:
     :
     Hard:
     15:
     0.698630,0.872476,0.259955,0.162472,0.304635,602.000000,570.000000,32.000000,20.000000,0.000000,0.000000,0.698630,0.872476,0.259955,0.162472,0.304635,602.000000,570.000000,32.000000,20.000000,0.000000,0.000000:
// measure 0
0000
0000
0000
0000
,  // measure 1
0000
0000
0000
0000
,  // measure 2
0000
0000
0000
0000
,  // measure 3
1000
0000
0010
0100
0001
0000
0010
0100
1000
0000
0000
0000
1001
0000
0000
0000
,  // measure 4
0010
0000
0100
0001
0010
0000
0100
1000
0001
0000
0000
0000
1001
0000
0000
0000
,  // measure 5
0010
0000
0100
0000
0001
1000
0100
0000
1000
0000
0010
1000
0100
0000
1000
0000
,  // measure 6
0001
0000
0100
0000
0010
0100
0001
0000
0010
0000
0001
0100
0001
0000
0010
0000
,  // measure 7
0001
0000
0100
0000
0010
1000
0100
1000
0010
0000
0100
0000
0101
0000
0000
0000
,  // measure 8
0010
0000
0001
0000
0010
0100
1000
0100
0010
0000
0001
0000
1001
0000
0000
0000
,  // measure 9
0010
1000
0100
0000
1000
0000
0010
0000
0100
0010
1000
0010
0100
0000
0001
0000
,  // measure 10
0010
0001
0100
0000
0010
0000
0100
0000
0001
0010
0100
0010
0001
0000
1000
0000
,  // measure 11
0001
0010
0100
0000
1000
0000
0010
1000
0010
0100
0001
0000
0010
0000
0100
0000
,  // measure 12
1000
0100
0010
0000
0001
0000
1000
0010
1000
0001
0010
0000
0110
0000
0000
0000
,  // measure 13
1000
0100
1000
0000
0010
0000
1000
0000
0001
0010
0100
1000
0010
0000
0100
0000
,  // measure 14
0001
0010
0001
0000
1000
0000
0001
0000
1000
0100
0010
0001
0100
0000
0010
0000
,  // measure 15
2000
0000
0100
0000
3100
0000
1000
0000
0010
1000
0010
1000
0010
0000
0100
0000
,  // measure 16
0002
0000
0010
0000
0013
0000
0100
0000
1000
0001
1000
0001
0200
0000
0000
0000
,  // measure 17
0310
0000
1000
0100
0010
0000
0100
0010
0001
0000
0100
0000
0001
0010
0100
0000
,  // measure 18
1000
0000
0001
0010
0100
0000
0010
0100
1000
0000
0001
0000
1000
0010
0100
0000
,  // measure 19
0001
0000
0010
0100
0010
0000
0001
1000
0001
0000
0100
0000
0010
1000
0010
0000
,  // measure 20
1000
0000
0100
0010
0100
0000
1000
0000
0010
0100
0010
0100
0001
0000
0000
0000
,  // measure 21
0010
0000
0001
0000
1000
0010
0100
0000
0010
1000
0100
1000
0010
0000
0000
0000
,  // measure 22
0100
0000
0010
0000
1000
0001
0010
0000
0001
1000
0010
1000
0001
0000
0000
0000
,  // measure 23
0110
0001
1000
0000
1001
0010
0100
0000
,  // measure 24
0010
1000
0010
1000
0001
0000
0010
0000
0001
0010
0100
1000
0020
0000
0000
0000
,  // measure 25
1030
0000
0100
0000
1000
0001
0010
0000
0001
0100
0010
0100
0001
0000
0010
0000
,  // measure 26
0001
0000
1000
0000
0100
1000
0010
0000
0100
0010
1000
0010
0100
0000
0001
0000
,  // measure 27
1000
0100
0010
0000
0100
0000
1000
0010
0100
0010
1000
0000
0001
0000
0010
0000
,  // measure 28
0001
0100
0010
0000
0100
0000
0001
0010
0100
0010
0001
0000
2000
0000
0000
0000
,  // measure 29
3001
0000
0100
0000
0010
0100
0001
0000
0010
0100
1000
0100
0010
0000
0001
0000
,  // measure 30
1000
0000
0010
0000
0100
0010
1000
0000
0001
0100
0010
0100
0001
0000
1000
0000
,  // measure 31
1001
0000
0010
0100
1100
0000
0010
0100
,  // measure 32
0101
0000
0000
0010
0100
0001
1000
0100
,  // measure 33
0001
1000
0010
0001
0200
0000
0000
0000
,  // measure 34
0000
0300
0000
0000
,  // measure 35
1001
0000
0000
0010
0100
0001
0010
0000
,  // measure 36
0000
0001
0100
0010
1000
0100
0010
0100
,  // measure 37
0010
0001
0010
0100
1000
0010
0000
0000
,  // measure 38
0110
0000
0000
0100
0001
0010
0100
0000
,  // measure 39
1000
0010
0100
0010
1000
0100
0001
1000
,  // measure 40
0010
0001
0100
0000
0000
1001
0000
0000
,  // measure 41
0110
0000
0000
1000
0010
0100
0001
0000
,  // measure 42
0000
0010
0100
1000
0001
1000
0010
0100
,  // measure 43
0001
0010
0100
1000
0001
0100
0000
0000
,  // measure 44
0001
0010
0100
1000
0010
0100
0001
1000
,  // measure 45
0010
0100
0001
0010
0100
0000
0100
1000
,  // measure 46
0000
1000
0010
0100
0010
1000
0001
0010
,  // measure 47
0001
0100
1000
0200
0000
0000
0301
0010
,  // measure 48
1000
0020
0000
0000
0031
0000
0001
1000
,  // measure 49
0000
1000
0010
0100
0010
1000
0000
0000
,  // measure 50
0101
0000
0010
0100
0000
0001
0010
0100
,  // measure 51
0010
0100
1000
0010
1000
0100
0000
1010
,  // measure 52
0000
0100
0010
1000
0001
0000
1000
0000
,  // measure 53
1000
0100
0001
0200
0000
0000
1300
0010
,  // measure 54
0001
0020
0000
0000
1030
0000
1000
0001
,  // measure 55
0000
0001
0010
0100
1000
0002
0000
0000
,  // measure 56
0103
0010
0100
1001
,  // measure 57
0000
0100
0220
0000
,  // measure 58
0000
0330
0000
0000
,  // measure 59
1000
0000
0010
0000
1000
0100
0010
0000
,  // measure 60
0010
0000
0100
1000
0010
0000
0100
0000
,  // measure 61
0010
0100
0001
0000
0010
0001
0100
0010
,  // measure 62
2000
0000
0000
3010
0100
0010
1000
0000
,  // measure 63
0100
0010
0001
1000
,  // measure 64
0001
0010
0200
0000
0000
0000
1300
0000
,  // measure 65
1000
0010
0100
0010
1000
0000
0001
0100
,  // measure 66
0010
0100
0001
0000
0010
0100
1000
0100
,  // measure 67
0010
0000
0001
0100
0010
0100
0001
0000
,  // measure 68
1000
0100
0000
0100
1000
0010
1000
0000
,  // measure 69
0001
0000
0010
0000
0100
1000
0001
0100
,  // measure 70
0010
2002
0000
3003
,  // measure 71
0010
0100
0001
0010
0100
0000
1100
0000
,  // measure 72
0001
0000
0011
0000
0100
0010
1000
0001
,  // measure 73
0100
0010
1000
0000
1010
0000
0101
0000
,  // measure 74
0010
1000
0001
0010
0100
1000
0001
0000
,  // measure 75
0110
0000
1001
0000
1000
0010
0001
0010
,  // measure 76
1000
0001
0010
0000
1100
0000
0101
0000
,  // measure 77
0010
0001
1000
0010
1000
0001
0200
0000
,  // measure 78
0310
0000
0110
0000
0001
0010
0100
1000
,  // measure 79
0010
1000
0100
0010
0001
0000
1000
0000
,  // measure 80
1001
0010
0110
1001
,  // measure 81
0100
0000
0110
0000
0001
0010
0100
1000
,  // measure 82
0010
0100
0001
1000
0100
0010
0001
1000
,  // measure 83
0000
0000
0000
0000
0010
0000
2000
0000
0000
0002
0000
0000
0000
0000
0000
0000
0000
0000
0000
0000
0000
0000
0000
0000
,  // measure 84
0000
0000
0000
0000
,  // measure 85
0000
0000
0000
0000
,  // measure 86
0000
0000
0000
0000
,  // measure 87
0000
0000
0000
0000
,  // measure 88
0000
0000
0000
0000
,  // measure 89
0000
0000
3003
0000
;
