#TITLE:狂喜宴舞;
#SUBTITLE:;
#ARTIST:栗須承之介;
#TITLETRANSLIT:Kyoukienbu;
#SUBTITLETRANSLIT:;
#ARTISTTRANSLIT:Qrisjoynosuke;
#GENRE:;
#CREDIT:;
#BANNER:Kyoukienbu_banner.png;
#BACKGROUND:Kyoukienbu.png;
#LYRICSPATH:;
#CDTITLE:;
#MUSIC:Kyoukienbu.ogg;
#OFFSET:-0.620000;
#SAMPLESTART:61.660000;
#SAMPLELENGTH:11.300000;
#LASTBEATHINT:272.000000;
#SELECTABLE:YES;
#BPMS:0.000000=169.000000
;
#STOPS:
;
#BGCHANGES:;
#KEYSOUNDS:;
#ATTACKS:;

//---------------dance-single - ----------------
#NOTES:
     dance-single:
     :
     Easy:
     6:
     0.312582,0.340632,0.040148,0.090333,0.000000,218.000000,214.000000,4.000000,9.000000,0.000000,0.000000,0.312582,0.340632,0.040148,0.090333,0.000000,218.000000,214.000000,4.000000,9.000000,0.000000,0.000000:
0000
0000
0000
0000
,
0000
0000
0000
0000
,
0000
0000
0000
0000
,
0000
0000
0000
0000
,
0000
0000
0000
0000
,
0010
0000
0000
0010
0000
0000
0000
0000
,
0100
0000
0000
0100
0000
0000
0000
0000
,
0001
1000
0001
1000
,
2002
0000
0000
3003
,
1000
0010
1000
0100
,
0010
0001
0100
0000
,
0010
1000
0001
0100
,
0010
1000
0100
0000
,
0010
0001
0100
0010
,
1000
0100
1000
0000
,
0010
0100
0010
0100
,
0020
0000
1030
1000
,
0001
0010
0001
0100
,
0001
0010
0001
0000
,
1000
0010
1000
0100
,
1000
0010
1000
0000
,
0010
0000
0000
0010
0000
0000
1000
0000
,
0100
0000
0000
0100
0000
0000
0001
0000
,
0100
0010
1000
0001
,
1000
0100
0010
0001
,
0200
0000
0310
0000
,
0010
0100
0001
0010
,
0002
0000
1003
0000
,
0100
0010
1000
0001
,
1000
0000
0001
0010
,
0001
0000
1000
0100
,
1000
0010
0010
0010
,
0200
0000
0000
0310
,
1000
0001
0100
0010
,
0100
0001
1001
0000
,
0100
0010
1000
0010
,
0100
0001
1001
0000
,
0010
0001
0010
0001
,
1000
0100
1000
0000
,
0010
0100
0010
0100
,
0001
0000
1000
0000
0001
0000
1000
0010
,
0000
0000
0000
0000
,
0200
0000
0000
0310
,
1000
0010
1000
0001
,
0100
0010
1000
0100
,
0000
0001
0100
0010
,
1000
0100
0010
0001
,
0100
0010
0010
0100
,
0001
1000
0010
0100
,
0001
0010
0100
1000
,
0010
0010
0010
0110
,
0100
0001
0010
0001
,
1000
0010
0100
0010
,
1000
0001
1000
0010
,
1000
0100
1000
0010
,
0100
0001
0100
0010
,
1000
0010
0001
0010
,
0200
0000
0310
0000
,
1000
0001
0010
0100
,
0020
0000
0000
0130
,
1000
0001
1000
0010
,
0100
0001
0010
0000
,
0001
0100
1000
0100
,
0010
0100
0001
0000
,
0100
0001
0100
0010
,
1000
0010
0100
0000
,
0001
1000
0100
0010
,
0001
0000
0100
0000
0010
0000
1000
0001
;

//---------------dance-single - ----------------
#NOTES:
     dance-single:
     :
     Medium:
     11:
     0.524794,0.545011,0.200741,0.150556,0.020074,366.000000,346.000000,20.000000,15.000000,0.000000,0.000000,0.524794,0.545011,0.200741,0.150556,0.020074,366.000000,346.000000,20.000000,15.000000,0.000000,0.000000:
0000
0000
0000
0000
,
0000
0000
0000
0000
,
0000
0000
0000
0000
,
0000
0000
0000
0000
,
0000
0000
0000
0010
,
1001
0100
0100
0100
,
1001
0010
0010
0010
,
2000
0001
0000
3001
0002
1000
0000
1003
,
0200
0010
0000
0010
0000
0000
0310
0000
,
1000
0000
1100
0000
0001
0000
0010
0001
,
1000
0000
0110
0000
0001
0010
0100
1000
,
0010
0000
0110
0000
1000
0001
0100
0010
,
1000
0100
0010
0000
0022
0000
0033
0000
,
0001
0000
1000
0010
0000
0100
0010
0100
,
0010
0000
1000
0001
0000
0100
0010
0100
,
0010
1000
0010
0000
0100
0001
0100
0000
,
0001
0000
0001
0000
1000
0010
1000
0000
,
0001
0010
0001
0000
1000
0100
1000
0000
,
0010
0100
0010
0100
0010
0000
1000
0000
,
0001
0100
0001
0000
1000
0010
1000
0000
,
0010
0000
0110
0000
1000
0001
1000
0001
,
0100
0000
0000
0110
0000
0001
0001
0000
,
1000
0000
0000
1010
0000
0100
0100
0000
,
0001
0100
1000
0000
0001
0100
1000
0000
,
0010
1000
0100
0000
0010
0001
0100
1000
,
0100
0000
0001
0010
0001
0000
1000
0000
,
0100
0000
1000
0010
1000
0001
0010
0000
,
0001
0000
0100
0010
1000
0010
0100
0000
,
0001
1000
0100
1000
0010
0000
0100
0000
,
0001
1000
0100
0000
1000
0000
0001
0100
,
0010
0000
1000
0100
1000
0010
0100
0000
,
0001
0010
1000
0000
0001
0010
1000
0000
,
0010
0000
0010
0000
0010
0001
0010
0000
,
0001
0000
0101
0000
0100
0010
0100
0000
,
0010
1000
0100
1000
0020
0000
1030
0000
,
0100
0000
0101
0000
0001
1000
0100
0000
,
1000
0001
0100
0001
2000
0000
3010
0000
,
0100
0001
0100
0000
0010
1000
0010
0000
,
1000
0100
0001
0100
2000
0000
3001
0000
,
0100
0010
0100
0000
0010
1000
0010
0000
,
0100
0001
0010
0000
0001
1000
0100
0020
,
0000
0000
0000
0030
,
0000
0002
2003
3200
,
1300
0000
1000
0010
1000
0010
1000
0000
,
0001
0000
0001
0100
0001
0100
0001
0100
,
0000
0010
0100
0010
1000
0001
1000
0000
,
0001
0000
1000
0010
0100
0010
1000
0000
,
0100
0000
1100
0000
1000
0001
0010
0000
,
0001
0100
0010
0100
0001
1000
0100
0000
,
0000
1000
0000
0001
0000
0100
0010
0000
,
1000
0010
0100
0001
0020
0000
0031
0000
,
1000
0010
1000
0010
1000
0010
1000
0000
,
0001
0100
0001
0100
0001
0100
0001
0000
,
1000
0000
0100
0000
0000
0100
0000
0000
0100
0000
0000
0100
0000
0000
0100
0000
,
0010
0000
0001
0000
0000
0001
0000
0000
0001
0000
0000
0001
0000
0000
0001
0000
,
1000
0000
1010
0000
0001
0100
0001
0000
,
1000
0010
0100
0010
2000
0000
3100
0000
,
0010
0001
0010
0000
0001
1000
0001
0000
,
1000
0100
0010
0100
1000
0000
1001
0000
,
0020
0000
0000
0130
,
0110
0000
0001
0000
1000
0010
0001
0010
,
1000
0000
1001
0000
0100
0010
0010
0000
,
1000
0000
1100
0000
0001
0100
1000
0100
,
0001
0000
0110
0000
1000
0001
0001
0000
,
0100
0000
0010
0100
1000
0001
0010
0000
,
0010
0000
1000
0100
0010
0001
0100
0000
,
0001
1000
0001
0000
0100
0000
0110
0000
,
0001
0000
1001
0000
1000
0000
0100
0010
;

//---------------dance-single - ----------------
#NOTES:
     dance-single:
     :
     Hard:
     15:
     0.802963,0.817517,0.180667,0.150556,0.461704,560.000000,542.000000,18.000000,15.000000,0.000000,0.000000,0.802963,0.817517,0.180667,0.150556,0.461704,560.000000,542.000000,18.000000,15.000000,0.000000,0.000000:
// measure 0
0000
0000
0000
0000
,  // measure 1
0000
0000
0000
0000
,  // measure 2
0000
0000
0000
0000
,  // measure 3
0000
0000
0000
0000
,  // measure 4
0000
0000
0000
1000
,  // measure 5
1020
0100
0100
0130
,  // measure 6
0021
0100
0100
0130
,  // measure 7
1000
1100
0000
0011
0000
1010
0000
0101
,  // measure 8
0001
0000
1000
0001
1000
0000
0010
0000
0100
0000
0010
0000
0110
0000
0000
0000
,  // measure 9
1000
0000
0010
1000
0010
0000
0100
0000
0001
0000
0010
0000
0100
0000
1000
0000
,  // measure 10
0010
0000
0100
0010
0100
0000
0001
0000
0010
0000
0001
0000
1000
0000
0010
0000
,  // measure 11
1000
0000
0001
0010
0001
0000
0100
0000
0010
0000
1000
0000
0001
0000
0010
0000
,  // measure 12
0100
1000
0010
0001
0010
0100
0100
0100
,  // measure 13
1010
0000
0001
0101
0000
0010
0010
0010
,  // measure 14
1001
0000
0100
1100
0000
0001
0001
0001
,  // measure 15
1000
0010
0100
0001
1000
0010
0100
0001
,  // measure 16
0010
0000
0100
0010
0100
0000
0010
0100
0010
0000
0001
0000
1000
0000
0001
0000
,  // measure 17
0100
0000
0010
1000
0010
0000
0100
0000
0001
0000
0010
0001
0010
0000
0100
0000
,  // measure 18
1000
0000
0010
1000
0010
0000
0100
0000
0001
0000
0010
0000
0100
0000
1000
0000
,  // measure 19
0010
0000
0100
0001
0100
0000
0010
0000
1000
0000
0100
1000
0100
0000
0010
0000
,  // measure 20
0001
0100
0001
0000
1000
0010
1000
0000
0010
0000
0100
0000
0100
0000
0100
0000
,  // measure 21
0001
0000
1000
0010
1000
0000
0002
0000
0000
0000
0010
0000
0010
0000
0013
0000
,  // measure 22
0100
0000
1000
0100
1000
0000
0010
0000
0100
0010
0100
0000
0001
0000
1000
0000
,  // measure 23
0010
0000
1000
0100
0010
0000
0001
0100
0010
0000
1000
0100
0010
0000
0001
0100
,  // measure 24
0010
1000
0010
0000
0100
0001
0100
0000
0001
0000
1000
0000
0100
0000
0010
0000
,  // measure 25
0002
1000
0000
1000
0000
1000
0103
0010
,  // measure 26
0200
0010
0000
1000
0300
0001
0001
0001
,  // measure 27
2000
0100
0000
0001
0000
3010
0100
0010
,  // measure 28
0200
0010
0000
1000
0300
0010
0010
0010
,  // measure 29
1000
0000
0001
0010
0001
0000
0010
0000
0001
0000
1000
0000
0010
0000
0100
0000
,  // measure 30
0010
1000
0010
0000
0100
0000
0001
0000
0010
0000
0100
0000
1000
0000
0100
0000
,  // measure 31
0010
0000
0001
0010
0001
0000
0010
0001
0010
0000
0001
0010
0001
0000
0001
0000
,  // measure 32
1000
0100
1000
0100
1000
0100
1000
0100
1000
0000
0001
0000
0010
0000
0100
0000
,  // measure 33
1000
0000
0010
1000
0010
0000
0100
0000
0001
0000
0010
0001
0010
0000
0100
0000
,  // measure 34
1000
0000
0100
1000
0100
0000
0010
0000
0001
0000
0010
0000
0010
0000
0010
0000
,  // measure 35
0001
0000
0100
0001
0100
0000
0010
0000
1000
0100
1000
0000
0010
0000
0100
0000
,  // measure 36
0010
0000
1000
0010
1000
0000
0001
0100
0010
0000
1000
0000
1000
0000
1000
0000
,  // measure 37
0010
0000
0100
0010
0100
0000
0001
0000
0010
0100
0010
0000
0001
0000
1000
0000
,  // measure 38
0010
1000
0010
0000
0100
0001
0100
0000
0001
0000
1000
0001
1000
0000
0010
0000
,  // measure 39
0100
0000
0010
0100
0010
0000
0100
0000
0001
0000
1000
0000
0100
0000
0001
0000
,  // measure 40
0100
1000
0100
0000
0010
0001
0010
0000
0001
0100
0001
0000
1000
0010
2000
0000
,  // measure 41
0000
0000
0000
0000
,  // measure 42
3001
0120
2030
3001
,  // measure 43
0100
0000
0001
0000
0100
0010
0100
0000
0001
0000
1000
0000
0010
1000
0010
0000
,  // measure 44
0100
0000
0001
0010
0001
0000
1000
0000
0010
0000
1000
0100
1000
0000
0001
0000
,  // measure 45
0000
0000
0100
0010
0100
0000
0001
1000
0001
0000
1000
0100
1000
0000
0001
0000
,  // measure 46
0010
0000
0001
0010
0001
0000
0100
0000
0010
0000
1000
0000
1100
0000
0000
0000
,  // measure 47
0011
0000
0000
0000
1100
0000
0000
0000
0010
0000
0100
0010
0100
0000
0010
0000
,  // measure 48
1000
0000
0100
1000
0100
0000
0010
0000
0001
0010
0001
0000
0100
0000
0010
0000
,  // measure 49
1000
0000
1001
0000
0000
0000
0110
0000
0000
0000
1000
0010
0100
0000
0010
0000
,  // measure 50
0100
0001
0100
0000
0010
1000
0010
0000
0200
0000
0001
0000
0001
0000
0301
0000
,  // measure 51
1000
0100
1000
0000
0001
0010
0001
0000
0100
0010
0000
0100
0010
0000
1000
0000
,  // measure 52
0001
0000
1000
0010
1000
0000
0100
0000
0010
0001
0010
0000
0001
0000
0100
0000
,  // measure 53
0001
0000
0010
0000
0001
1000
0000
0001
0100
0000
0001
0010
0000
0001
1000
0000
,  // measure 54
0100
0000
1000
0000
0100
0010
0000
0001
1000
0000
0010
0100
0000
0001
0010
0000
,  // measure 55
0100
1000
0100
0000
0010
0001
0010
0000
0001
0000
1000
0001
1000
0000
0100
0000
,  // measure 56
0010
0000
0001
0100
0001
0000
1000
0000
0010
0100
0010
0000
0100
0000
0001
0000
,  // measure 57
1000
0000
0010
0100
0010
0000
1000
0000
0001
0000
0010
0000
0100
0000
0010
0000
,  // measure 58
0001
0000
1000
0100
1000
0000
0010
0000
0100
0000
0100
0000
0100
0000
0200
0000
,  // measure 59
0000
0000
0000
0000
0000
0000
0000
0000
0300
0000
0001
1000
0001
0000
0000
0000
,  // measure 60
1001
0000
0010
0100
0001
1000
0100
0010
,  // measure 61
0001
0100
0001
0000
1000
0000
0010
0000
0200
0000
0001
0000
0001
0000
0301
0000
,  // measure 62
1000
0000
0010
0100
0010
0000
0100
0000
0001
0000
0010
0000
0100
0000
1000
0000
,  // measure 63
0001
0100
0010
0100
0002
1000
1000
1003
,  // measure 64
0100
0000
0010
0100
0010
0000
0100
0000
1000
0000
0100
0000
0010
0000
0001
0000
,  // measure 65
0100
0000
0010
0100
0010
0000
0100
0000
0001
0000
0010
0000
0100
0000
1000
0000
,  // measure 66
0001
0010
1000
0010
0001
1000
0100
0001
,  // measure 67
0100
1000
0100
1000
0001
0010
0001
0010
0002
0000
1000
0000
1000
0000
1003
0000
;
