#TITLE:Knight Rider;
#SUBTITLE:;
#ARTIST:USAO;
#TITLETRANSLIT:;
#SUBTITLETRANSLIT:;
#ARTISTTRANSLIT:;
#GENRE:;
#CREDIT:;
#BANNER:Knight_Rider_banner.png;
#BACKGROUND:Knight_Rider.png;
#LYRICSPATH:;
#CDTITLE:;
#MUSIC:Knight Rider.ogg;
#OFFSET:-0.400000;
#SAMPLESTART:89.190002;
#SAMPLELENGTH:15.000000;
#LASTBEATHINT:409.000000;
#SELECTABLE:YES;
#DISPLAYBPM:200.000000;
#BPMS:0.000000=200.000000
,104.000000=100.000000
,120.000000=400.000000
,121.000000=200.000000
,184.000000=400.000000
,185.000000=200.000000
,344.000000=400.000000
,345.000000=200.000000
,376.000000=400.000000
,377.000000=200.000000
;
#STOPS:120.000000=0.150000,
184.000000=0.150000,
344.000000=0.150000,
376.000000=0.150000
;
#BGCHANGES:;
#KEYSOUNDS:;
#ATTACKS:;

//---------------dance-single - ----------------
#NOTES:
     dance-single:
     :
     Easy:
     9:
     0.409613,0.475550,0.194261,0.202031,0.000000,369.000000,344.000000,25.000000,26.000000,0.000000,0.000000,0.409613,0.475550,0.194261,0.202031,0.000000,369.000000,344.000000,25.000000,26.000000,0.000000,0.000000:
0000
0000
0000
0000
,
0000
0000
0000
0000
,
1001
0000
0000
0000
,
1001
0000
0000
0000
,
0110
0000
0000
0000
,
0110
0000
0000
0000
,
0011
0000
1100
0000
,
1010
0000
0101
0000
,
1000
0010
0100
0001
,
0220
0000
0000
0330
,
0001
0010
0100
0010
,
0001
1000
0100
0010
,
0100
1000
0010
0100
,
0010
1000
0001
1001
,
0100
0010
1000
0010
,
0100
0001
0010
0100
,
0020
0000
0032
0000
,
1003
0010
0010
0110
,
2000
0010
3002
0010
,
1003
0100
0010
0001
,
0100
0010
1000
0001
,
0010
0100
0010
0001
,
2000
0100
3002
0100
,
1003
0010
0100
0001
,
0010
0100
1000
0001
,
0100
0100
0100
0010
,
1000
0100
1000
0001
,
0010
0000
0001
0000
1000
0000
0010
0010
,
0010
0100
0001
1000
,
0100
0100
0010
0010
0002
0000
1003
0000
,
0000
0010
1000
0010
,
0100
0001
0010
0000
,
0001
1000
0100
0001
,
0200
0000
1300
1000
,
0010
0100
0010
1000
,
0001
0010
1000
0010
,
0001
1000
0001
0100
,
0020
0000
0130
0100
,
0001
0010
0001
1000
,
0100
0010
0100
1000
,
0010
0100
0010
1000
,
0001
0010
0100
1000
,
0010
0010
0100
0001
,
1000
0100
0100
0010
,
0011
0000
1100
0000
,
0010
0100
0001
1000
,
0020
0030
0000
0000
0010
0000
0000
0000
0100
0000
0000
0000
0001
0000
0000
0000
,
1000
0100
0010
0100
,
1000
0001
1000
0010
,
0100
0010
1000
0001
,
0010
0011
0000
1100
,
0000
1010
0000
0011
,
1000
0001
0010
0100
,
2000
0010
0010
3010
,
0002
0000
0000
0000
,
0023
0000
0000
0000
,
0230
0000
0000
0000
,
2300
0000
0000
0000
,
3001
0100
0000
0100
,
0010
1000
0000
1000
,
0010
0001
0100
1000
,
0220
0000
0000
0000
0000
0330
0000
0000
,
0001
0010
0000
0010
,
0001
0100
0000
0100
,
1000
0100
0000
0100
,
0010
0001
0010
0100
,
0010
1000
0010
1000
,
0100
1000
0001
1000
,
0001
0010
0100
1000
,
2002
0000
0000
0000
0000
3003
0000
0000
,
0100
0010
1000
0001
,
1000
0100
0010
0001
,
1000
0010
0001
0010
,
1000
0100
0001
0100
,
1000
0001
0010
0100
,
1000
0010
0100
0010
,
1000
0001
0010
0100
,
0110
0000
1001
0000
,
0010
0100
0001
0100
,
0010
0010
0010
0010
,
1000
0100
0001
0100
,
1000
1000
1000
1000
,
0001
0010
1000
0010
,
0100
0100
0010
0010
,
0001
0100
1000
0100
,
0010
0010
0100
0100
,
0002
0003
0000
0000
1000
0000
0000
0000
0010
0000
0000
0000
0100
0000
0000
0000
,
0010
1000
1001
0000
,
0001
0010
0100
1000
,
0010
0100
0110
0000
,
0001
1000
0010
1000
,
0001
0100
0010
0001
,
0020
0000
1030
0000
,
1000
0100
0010
0001
,
0200
0300
0000
0000
0010
0000
0000
0000
0100
0000
0000
0000
0001
0000
0000
0000
,
1000
0100
0010
0100
,
1000
0001
0010
0100
,
1000
0001
2002
3003
,
0010
0100
0010
1000
,
0100
0001
0100
1000
,
0001
0010
1000
0001
,
0100
1000
0010
0100
,
1001
0000
0000
0000
;

//---------------dance-single - ----------------
#NOTES:
     dance-single:
     :
     Medium:
     15:
     0.777043,0.911472,0.217572,0.194261,0.050508,700.000000,672.000000,28.000000,25.000000,0.000000,0.000000,0.777043,0.911472,0.217572,0.194261,0.050508,700.000000,672.000000,28.000000,25.000000,0.000000,0.000000:
0000
0000
0000
0000
,
0000
0000
0000
0000
,
2001
0010
0000
3010
,
1002
0100
0000
0103
,
2010
0001
0000
3001
,
0102
1000
0000
1003
,
0120
1030
2100
3001
,
0102
0013
0021
1030
,
0001
0100
0001
0100
0010
1000
0100
0010
,
0002
0010
1000
0013
,
1000
0100
1000
0010
0100
0001
0010
0001
,
1000
0100
0010
0100
1000
0001
0010
0000
,
0001
0100
0001
1000
0010
0100
1000
0100
,
0001
0010
0100
1000
0001
1000
0100
0000
,
2000
0000
3010
0100
0010
1000
0100
0010
,
0001
0100
0001
0010
0001
1000
0100
0000
,
0010
0101
0010
1100
,
0001
1000
0001
0010
1000
0010
0001
0000
,
2000
0010
3010
0100
0010
1000
0100
0010
,
0100
1000
0001
0010
0001
1000
0001
0000
,
0100
0010
0100
0001
1000
0010
0100
0010
,
1000
0100
0001
0100
1000
0001
1000
0000
,
0002
0100
0103
0010
0100
0001
0010
0001
,
0100
0010
0001
0010
0100
0001
0010
0000
,
0100
1000
0001
1000
0010
0100
0001
0010
,
0200
1000
0010
1300
,
0001
0010
0001
0000
1000
0000
0010
0100
0001
0010
0001
0000
1000
0000
0001
0000
,
1000
0100
0010
0000
0001
0000
1000
0010
0100
0001
1000
0000
0100
0000
0010
0000
,
0001
1000
0100
0000
1000
0000
0010
0100
0001
0100
0010
0000
1000
0000
0100
0000
,
1000
0001
0010
0000
0001
0000
1000
0010
0100
0010
1000
0000
0001
0000
0010
0010
,
0000
0000
0100
1000
0001
1000
0010
0100
,
0010
1000
0001
0010
0100
1000
0001
0000
,
0100
0010
0100
0010
1000
0100
1000
0001
,
0100
0010
1000
0001
0010
0100
2000
0000
,
3010
0100
0010
1000
0001
0010
0100
0010
,
0100
1000
0001
1000
0010
0100
0001
0000
,
0010
0001
0100
0010
1000
0100
0001
0100
,
1000
0000
1010
0000
0001
1000
0010
0100
,
0001
0010
0001
0100
0010
0100
0001
0000
,
1000
0100
0010
0100
1000
0100
0010
0000
,
0001
0100
0010
1000
0100
1000
0001
0000
,
0010
0100
0010
0001
0010
0100
0010
0000
,
0001
0100
0010
0100
0001
0100
1000
0000
,
0100
0001
0010
0001
0010
0100
1000
0000
,
0010
0000
0110
0000
1000
0100
0001
0000
,
0001
0100
1000
0010
0100
0001
1000
0000
,
0002
0003
0000
0000
1001
0000
0000
0000
0100
0000
0010
0000
1000
0000
0100
0000
,
0010
0100
1000
0001
1000
0010
0001
0000
,
0010
0100
0001
0100
0010
1000
0100
0000
,
0100
0010
0001
1000
0001
0100
1000
0000
,
0100
0010
1000
0000
0001
0010
0100
0000
,
1000
0001
0010
0000
0100
1000
0010
0000
,
1000
0010
0100
0001
1000
0001
0010
0000
,
0100
1000
0100
1000
0001
0010
0001
0000
,
2010
0000
0000
0010
0000
0000
3010
0000
,
0100
0001
0100
0000
0010
0000
1000
0000
,
0001
0010
0000
0101
0000
0100
0010
0000
,
1000
0100
0010
0000
0001
1000
0010
0000
,
0201
0000
0000
0010
0000
0000
0301
0000
,
1000
0001
0010
0000
0001
0010
0100
0000
,
1000
0010
0100
0010
1000
0100
0010
0000
,
0001
0100
0010
0100
0001
0010
0100
0000
,
0020
0001
0000
0001
0000
0001
0031
0100
,
0020
1000
0000
1000
0000
1000
1030
0001
,
0200
0010
0000
0010
0000
0010
0310
1000
,
0200
0010
0000
0010
0000
0010
0310
0001
,
1000
0100
0010
0000
0001
0100
0010
0000
,
1000
0001
0010
0000
0001
1000
0100
0000
,
0010
0100
1000
0010
0100
0001
0010
0001
,
1000
0001
1001
0000
0100
0000
0110
0000
,
0001
0010
0001
1000
0000
1000
0100
0010
,
0001
0100
0010
0100
0000
0100
0001
1000
,
0100
0001
0100
1000
0000
1000
0010
0100
,
0001
0010
1000
0010
0001
0100
0020
0000
,
1030
0001
0010
0100
0000
0100
1000
0010
,
0100
0001
1000
0010
1000
0100
0010
0000
,
0001
0100
0001
0000
1010
0000
1000
0001
,
0010
0100
1000
0001
0100
0010
1000
0000
,
0100
1000
0001
1000
0010
0100
0001
0010
,
0001
1000
0001
0100
0001
1000
0001
0000
,
0100
0010
1000
0001
0010
0100
0001
0100
,
1000
0010
1000
0001
1000
0010
1000
0000
,
0010
0100
0001
1000
0100
0010
0001
0000
,
0010
0100
1000
0010
0100
0001
0010
0000
,
0100
1000
0100
0010
0001
1000
0010
0000
,
0110
0000
1001
0000
0010
0100
0010
0100
,
0002
0003
0000
0000
1000
0000
0100
0000
0010
0000
0001
0000
0010
0000
0100
0000
,
1000
0010
0001
1000
0100
0001
2000
0000
,
3001
0100
0010
1000
0001
0010
0100
0001
,
0100
1000
0001
1000
0010
0001
1001
0000
,
0100
0010
0110
0000
1000
0100
1100
0000
,
0001
0010
0011
0000
1000
0001
1001
0000
,
0110
0000
0100
0001
1000
0010
0100
0001
,
0010
0001
1000
0100
0001
0100
1000
0001
,
0020
0030
0000
0000
0100
0000
1000
0000
0010
0000
1000
0000
0001
0000
0010
0000
,
0001
0100
1000
0100
0001
0100
1000
0000
,
0100
0010
1000
0100
0010
0001
1000
0001
,
0010
1000
0010
0001
0010
1000
0010
0000
,
0001
0100
0010
1000
0100
0010
0001
0000
,
0100
0001
1000
0010
0100
0001
0010
0000
,
0100
0010
0100
0010
0001
0100
0001
0100
,
0010
1000
0001
0100
1000
0010
0001
0100
,
0110
0000
0000
0000
;

//---------------dance-single - ----------------
#NOTES:
     dance-single:
     :
     Hard:
     18:
     0.986845,1.466280,0.264195,0.217572,0.485652,889.000000,855.000000,34.000000,28.000000,0.000000,0.000000,0.986845,1.466280,0.264195,0.217572,0.485652,889.000000,855.000000,34.000000,28.000000,0.000000,0.000000:
// measure 0
0000
0000
0000
0000
,  // measure 1
0000
0000
0000
0000
,  // measure 2
0101
0100
0000
0100
0000
0100
0010
0100
,  // measure 3
1010
1000
0000
1000
0000
1000
0001
1000
,  // measure 4
0011
0010
0000
0010
0000
0010
0100
0010
,  // measure 5
0011
0001
0000
1000
0001
0100
0010
1000
,  // measure 6
0100
1000
0001
1000
0010
0100
0001
0010
,  // measure 7
1000
0010
0001
1000
0100
0001
0100
1000
,  // measure 8
0001
0000
0100
0000
0010
0000
1000
0000
0100
0000
1000
0000
0010
0100
0010
0100
,  // measure 9
0001
0010
0010
0000
0100
1000
1001
0001
,  // measure 10
0100
0000
0010
0000
1000
0000
0010
0000
1000
0100
0010
0000
0001
0000
1000
0000
,  // measure 11
0010
0100
0001
1000
0100
0001
0100
1000
,  // measure 12
0010
0000
0100
0000
0001
0000
0010
0000
0001
1000
0010
0000
0100
0000
0001
0000
,  // measure 13
0010
0100
1100
0000
0001
0100
0101
0001
,  // measure 14
0010
0000
0010
0000
0100
0000
0010
0000
0001
1000
0010
0000
0100
0000
0001
0000
,  // measure 15
1000
0000
0010
0000
0100
0000
0010
0000
1000
0001
0010
0000
0001
0000
0100
0000
,  // measure 16
0010
0000
1100
0000
0001
0100
0110
0000
,  // measure 17
0001
0000
1000
0000
0010
0000
0100
0000
0001
0100
0010
1000
0200
0000
0000
0000
,  // measure 18
2300
0010
3100
0010
2000
0001
3010
0001
,  // measure 19
0020
0000
0100
0000
1030
0000
0001
0000
0010
0000
0100
0000
0010
0000
0001
1000
,  // measure 20
0010
0000
0100
0000
0001
0000
1000
0000
0001
0100
0010
0000
1000
0000
0100
0000
,  // measure 21
1000
0000
0001
0000
0010
0000
0100
0000
1000
0010
1000
0010
0100
0000
0001
0000
,  // measure 22
0020
0001
0130
0010
2000
0100
3010
0001
,  // measure 23
0100
0000
0010
0000
0100
0000
1000
0000
0100
0001
1000
0000
0010
0000
0100
0000
,  // measure 24
0001
0010
0001
0000
1000
0010
1000
0000
0001
0100
0001
0000
1000
0100
1000
0000
,  // measure 25
0010
0000
0010
0000
0110
0000
0000
0000
0001
0000
1000
0000
0010
0100
0001
1000
,  // measure 26
0001
0000
0010
0000
0100
0000
0010
0001
1000
0000
0010
0000
0100
0000
0010
1000
0001
0000
1000
0000
0100
0000
0001
0000
0100
0000
1000
0000
0020
0000
0000
0000
,  // measure 27
0130
0000
0001
0000
1000
0000
0100
1000
0010
0000
0100
0000
0001
0010
0100
0000
1000
0000
0010
0000
1010
0000
0000
0000
0100
0000
0001
0000
0010
0000
0100
0000
,  // measure 28
1000
0000
0010
0000
0001
0000
0010
0000
1000
0000
0100
0000
0010
0000
0001
1000
0010
0000
0100
0000
0001
0000
1000
0000
0100
0000
0010
0000
0100
0000
1000
0000
,  // measure 29
0001
0000
0100
0000
0010
0000
0100
0001
1000
0000
0010
0000
0100
0000
0001
0000
0010
0000
0100
0000
0010
0000
0100
0000
1000
0000
0001
0000
1000
0010
0100
0001
,  // measure 30
0020
0030
0000
0000
0001
0000
0010
0000
0001
1000
0100
0000
1000
0000
0010
0000
,  // measure 31
0100
0000
0001
0000
0010
0000
1000
0000
0010
0001
0010
0000
0100
0000
1000
0000
,  // measure 32
0010
0000
0100
0000
0010
0000
1000
0000
0001
1000
0100
0000
1000
0000
0010
0000
,  // measure 33
0100
0000
0010
0000
1000
0000
0001
0000
1000
0100
0010
0001
0020
0000
0000
0000
,  // measure 34
0130
1000
0100
0001
0100
0010
0100
1000
,  // measure 35
0001
0100
0001
0010
0001
1000
0001
0100
,  // measure 36
0010
0000
1000
0000
0010
0000
0100
0000
0001
0000
0010
0100
1000
0100
0010
0000
,  // measure 37
0001
0000
1000
0000
0010
0100
0001
1000
0001
0000
0000
0000
0100
0000
0100
0000
,  // measure 38
0010
0000
1000
0000
0100
0000
1000
0000
0001
0010
0100
0000
1000
0000
0010
0000
,  // measure 39
1000
0100
0001
1000
0010
0001
0100
0001
,  // measure 40
0010
0000
0100
0000
1000
0000
0010
0000
0100
0001
1000
0000
0010
0000
0100
0000
,  // measure 41
0001
0000
0100
0000
1000
0000
0001
0000
0010
0000
1000
0000
0001
0000
0100
0010
,  // measure 42
0100
0000
0001
0000
1000
0000
0010
0000
0100
0001
1000
0000
0100
0000
1000
0000
,  // measure 43
0010
1000
0010
0001
0010
1000
0010
0100
,  // measure 44
0001
0010
0200
0000
1000
0000
0001
0301
,  // measure 45
0100
0000
1000
0000
0001
0000
0010
0000
0001
1000
0010
0100
0001
0000
0100
0000
,  // measure 46
0020
0030
0000
0000
1000
0000
0100
0000
1000
0100
0010
0000
0001
0000
0010
0000
,  // measure 47
0001
0100
0010
0100
0001
0100
0010
1000
,  // measure 48
0001
1000
0010
0001
0010
0100
1000
0100
,  // measure 49
0001
0000
1000
0000
0001
0000
1000
0000
0010
0100
0010
0100
0020
0000
0000
0000
,  // measure 50
1030
0100
1100
1000
0001
0010
0011
0001
,  // measure 51
0100
0000
0010
0000
0110
0000
0100
0000
0001
0000
1000
0000
1001
0000
0001
0100
,  // measure 52
0010
0000
0100
0000
0001
0000
0010
0000
0001
1000
0100
1000
0010
0100
0001
0010
,  // measure 53
0002
0000
0000
0103
,  // measure 54
2000
0010
0000
3010
0000
0010
0100
0000
,  // measure 55
0002
0010
0000
0013
0000
0010
0100
1000
,  // measure 56
0020
0100
0000
0130
0000
0001
1000
0100
,  // measure 57
0020
0000
0001
0000
0000
0000
0031
0000
0000
0000
1000
0000
0001
0000
1000
0010
,  // measure 58
0100
0000
0010
0100
0000
0100
0010
1000
,  // measure 59
0001
0000
0010
0000
1000
0000
0010
0000
0000
0000
0010
0000
0001
0000
0010
0001
,  // measure 60
1000
0100
1000
0100
0001
0100
0001
0100
,  // measure 61
1000
0010
1000
0010
0001
0010
0001
0000
,  // measure 62
2010
0010
0000
0010
3000
0010
0100
0010
,  // measure 63
2010
0010
0000
0010
3000
0010
1000
0100
,  // measure 64
0210
0010
0000
0010
0300
0010
0001
0010
,  // measure 65
0011
0001
0000
0001
0100
0001
0101
0000
,  // measure 66
1010
1000
0100
0010
0011
0001
1000
0010
,  // measure 67
1010
1000
0100
0001
0101
0100
1000
0010
,  // measure 68
0100
0000
0001
0000
1000
0000
0010
0000
1000
0000
0001
0000
0010
0100
1000
0001
,  // measure 69
0200
0000
0000
0000
0310
0000
0000
0000
0010
0100
0010
0100
0010
0000
0000
0000
,  // measure 70
1000
0000
0001
0000
0010
0000
0001
0100
0000
0100
0001
0000
0010
0000
0100
0000
,  // measure 71
1000
0000
0010
0000
0100
0000
0010
0100
0000
0100
0010
0000
1000
0001
1000
0000
,  // measure 72
0001
0000
0010
0000
0001
0000
1000
0010
0000
0010
1000
0000
0001
0000
0100
0000
,  // measure 73
0010
0000
1000
0000
0001
0000
1000
0000
0001
0100
0010
1000
0020
0000
0000
0000
,  // measure 74
1030
0100
0001
0100
1000
0001
0010
1000
,  // measure 75
0001
0100
1000
0010
1000
0001
0010
0100
,  // measure 76
1000
0000
0000
0000
1010
0000
0000
0000
0001
0000
0010
0000
0001
0000
0100
0010
,  // measure 77
0100
0000
0001
0000
0100
0000
0010
0000
1000
0001
0010
0100
2000
0000
0000
0000
,  // measure 78
3010
0000
0100
0000
0001
0000
1000
0100
0000
0100
1000
0000
0010
0000
0100
0000
,  // measure 79
0001
0000
0010
0000
0001
0000
1000
0000
0001
0010
0001
0000
1000
0000
0100
0000
,  // measure 80
0010
0000
0100
0000
1000
0000
0010
0100
0000
0100
0001
0000
0010
0000
0100
0000
,  // measure 81
1000
0001
0010
1000
0010
0001
1001
1000
,  // measure 82
0010
0000
0100
0000
0001
0000
1000
0000
0010
0100
0001
0000
1000
0000
0100
0000
,  // measure 83
0010
0000
0100
0000
1000
0000
0010
0000
0100
0001
1000
0000
0010
0000
0100
0001
,  // measure 84
1000
0000
0000
0000
0110
0000
0000
0000
0001
0000
1000
0000
0001
0000
1000
0010
,  // measure 85
0100
0000
0000
0000
1001
0000
0000
0000
0010
0000
0100
0000
0001
0010
0100
1000
,  // measure 86
0200
0300
0000
0000
1000
0000
0010
0000
0100
0010
1000
0000
0001
0000
1000
0000
,  // measure 87
0001
0010
1000
0010
0001
0010
1000
0010
,  // measure 88
0001
0000
0100
0000
0010
0000
1000
0000
0001
1000
0100
0000
1000
0000
0010
0000
,  // measure 89
0200
0000
1000
0000
1000
0000
1300
0000
0100
0000
0001
0000
0100
0000
0010
0100
,  // measure 90
0001
0010
0101
0001
1000
0010
0110
0100
,  // measure 91
0001
1000
1100
0100
0010
0100
1001
0010
,  // measure 92
0100
0010
0002
0000
1003
0010
0200
0000
,  // measure 93
0310
0000
1000
0000
0001
0000
0100
0000
0010
0000
0100
0000
0001
1000
0100
0010
,  // measure 94
0002
0003
0000
0000
0100
0000
0010
0000
0100
0001
1000
0000
0010
0000
0100
0000
,  // measure 95
0001
1000
0010
0001
0010
0100
0001
0100
,  // measure 96
1000
0100
0001
0010
0100
1000
0010
0100
,  // measure 97
0001
0000
1000
0000
1001
0000
0000
0000
0010
0000
0100
0000
0010
0100
0001
1000
,  // measure 98
0010
0000
1000
0000
0100
0000
0010
0000
0001
1000
0001
0000
0100
0000
0010
0000
,  // measure 99
1000
0000
0100
0000
0001
0000
0100
0000
1000
0001
1000
0000
0010
0000
0100
0000
,  // measure 100
0001
0000
1000
0000
0100
0000
0010
0000
0001
1000
0001
1000
0100
0010
0100
0010
,  // measure 101
0001
0000
0000
0000
0101
0000
0000
0000
1000
0000
0010
0000
1000
0010
0100
0001
,  // measure 102
0010
0000
0000
0000
;
